  0
SECTION
  2
HEADER
  9
$ACADVER
  1
AC1024
  9
$ACADMAINTVER
 70
   226
  9
$DWGCODEPAGE
  3
ANSI_1252
  9
$LASTSAVEDBY
  1
User
  9
$INSBASE
 10
0.0
 20
0.0
 30
0.0
  9
$EXTMIN
 10
27.01449953491954
 20
-0.754839144772717
 30
-0.0015258207003583
  9
$EXTMAX
 10
113.4792923053688
 20
111.0427614293353
 30
0.0000000349246037
  9
$LIMMIN
 10
-4.44220704448719
 20
-5.360222120439658
  9
$LIMMAX
 10
91.39604570949506
 20
115.4637810443593
  9
$ORTHOMODE
 70
     0
  9
$REGENMODE
 70
     1
  9
$FILLMODE
 70
     1
  9
$QTEXTMODE
 70
     0
  9
$MIRRTEXT
 70
     0
  9
$LTSCALE
 40
1.0
  9
$ATTMODE
 70
     1
  9
$TEXTSIZE
 40
1.0
  9
$TRACEWID
 40
0.05
  9
$TEXTSTYLE
  7
Logix
  9
$CLAYER
  8
Text
  9
$CELTYPE
  6
ByLayer
  9
$CECOLOR
 62
   256
  9
$CELTSCALE
 40
1.0
  9
$DISPSILH
 70
     0
  9
$DIMSCALE
 40
1.0
  9
$DIMASZ
 40
1.25
  9
$DIMEXO
 40
0.5
  9
$DIMDLI
 40
1.0
  9
$DIMRND
 40
0.0
  9
$DIMDLE
 40
0.0
  9
$DIMEXE
 40
0.5
  9
$DIMTP
 40
0.0
  9
$DIMTM
 40
0.000000001
  9
$DIMTXT
 40
1.0
  9
$DIMCEN
 40
0.5
  9
$DIMTSZ
 40
0.0
  9
$DIMTOL
 70
     0
  9
$DIMLIM
 70
     0
  9
$DIMTIH
 70
     0
  9
$DIMTOH
 70
     0
  9
$DIMSE1
 70
     0
  9
$DIMSE2
 70
     0
  9
$DIMTAD
 70
     0
  9
$DIMZIN
 70
     0
  9
$DIMBLK
  1
ArchTick
  9
$DIMASO
 70
     1
  9
$DIMSHO
 70
     1
  9
$DIMPOST
  1
"\X
  9
$DIMAPOST
  1
mm
  9
$DIMALT
 70
     1
  9
$DIMALTD
 70
     0
  9
$DIMALTF
 40
25.4
  9
$DIMLFAC
 40
1.0
  9
$DIMTOFL
 70
     0
  9
$DIMTVP
 40
0.0
  9
$DIMTIX
 70
     0
  9
$DIMSOXD
 70
     0
  9
$DIMSAH
 70
     0
  9
$DIMBLK1
  1

  9
$DIMBLK2
  1

  9
$DIMSTYLE
  2
FBR
  9
$DIMCLRD
 70
     0
  9
$DIMCLRE
 70
     0
  9
$DIMCLRT
 70
     0
  9
$DIMTFAC
 40
1.0
  9
$DIMGAP
 40
0.3
  9
$DIMJUST
 70
     0
  9
$DIMSD1
 70
     0
  9
$DIMSD2
 70
     0
  9
$DIMTOLJ
 70
     1
  9
$DIMTZIN
 70
     0
  9
$DIMALTZ
 70
     0
  9
$DIMALTTZ
 70
     0
  9
$DIMUPT
 70
     0
  9
$DIMDEC
 70
     4
  9
$DIMTDEC
 70
     4
  9
$DIMALTU
 70
     2
  9
$DIMALTTD
 70
     0
  9
$DIMTXSTY
  7
Logix
  9
$DIMAUNIT
 70
     0
  9
$DIMADEC
 70
     0
  9
$DIMALTRND
 40
0.0
  9
$DIMAZIN
 70
     0
  9
$DIMDSEP
 70
    46
  9
$DIMATFIT
 70
     3
  9
$DIMFRAC
 70
     0
  9
$DIMLDRBLK
  1

  9
$DIMLUNIT
 70
     5
  9
$DIMLWD
 70
    -2
  9
$DIMLWE
 70
    -2
  9
$DIMTMOVE
 70
     2
  9
$DIMFXL
 40
0.5
  9
$DIMFXLON
 70
     0
  9
$DIMJOGANG
 40
0.7853981633974483
  9
$DIMTFILL
 70
     0
  9
$DIMTFILLCLR
 70
     0
  9
$DIMARCSYM
 70
     0
  9
$DIMLTYPE
  6

  9
$DIMLTEX1
  6

  9
$DIMLTEX2
  6

  9
$DIMTXTDIRECTION
 70
     0
  9
$LUNITS
 70
     2
  9
$LUPREC
 70
     4
  9
$SKETCHINC
 40
0.1
  9
$FILLETRAD
 40
0.0
  9
$AUNITS
 70
     0
  9
$AUPREC
 70
     0
  9
$MENU
  1
.
  9
$ELEVATION
 40
0.0
  9
$PELEVATION
 40
0.0
  9
$THICKNESS
 40
0.0
  9
$LIMCHECK
 70
     0
  9
$CHAMFERA
 40
0.0
  9
$CHAMFERB
 40
0.0
  9
$CHAMFERC
 40
0.0
  9
$CHAMFERD
 40
0.0
  9
$SKPOLY
 70
     0
  9
$TDCREATE
 40
2453607.697627315
  9
$TDUCREATE
 40
2453607.989301563
  9
$TDUPDATE
 40
2459662.963645834
  9
$TDUUPDATE
 40
2459663.255312500
  9
$TDINDWG
 40
1.8707740509
  9
$TDUSRTIMER
 40
1.8707740509
  9
$USRTIMER
 70
     1
  9
$ANGBASE
 50
0.0
  9
$ANGDIR
 70
     0
  9
$PDMODE
 70
    34
  9
$PDSIZE
 40
0.0
  9
$PLINEWID
 40
0.0
  9
$SPLFRAME
 70
     0
  9
$SPLINETYPE
 70
     6
  9
$SPLINESEGS
 70
     8
  9
$HANDSEED
  5
2C1C9
  9
$SURFTAB1
 70
     6
  9
$SURFTAB2
 70
     6
  9
$SURFTYPE
 70
     6
  9
$SURFU
 70
     6
  9
$SURFV
 70
     6
  9
$UCSBASE
  2

  9
$UCSNAME
  2

  9
$UCSORG
 10
0.0
 20
0.0
 30
0.0
  9
$UCSXDIR
 10
1.0
 20
0.0
 30
0.0
  9
$UCSYDIR
 10
0.0
 20
1.0
 30
0.0
  9
$UCSORTHOREF
  2

  9
$UCSORTHOVIEW
 70
     0
  9
$UCSORGTOP
 10
0.0
 20
0.0
 30
0.0
  9
$UCSORGBOTTOM
 10
0.0
 20
0.0
 30
0.0
  9
$UCSORGLEFT
 10
0.0
 20
0.0
 30
0.0
  9
$UCSORGRIGHT
 10
0.0
 20
0.0
 30
0.0
  9
$UCSORGFRONT
 10
0.0
 20
0.0
 30
0.0
  9
$UCSORGBACK
 10
0.0
 20
0.0
 30
0.0
  9
$PUCSBASE
  2

  9
$PUCSNAME
  2

  9
$PUCSORG
 10
0.0
 20
0.0
 30
0.0
  9
$PUCSXDIR
 10
1.0
 20
0.0
 30
0.0
  9
$PUCSYDIR
 10
0.0
 20
1.0
 30
0.0
  9
$PUCSORTHOREF
  2

  9
$PUCSORTHOVIEW
 70
     0
  9
$PUCSORGTOP
 10
0.0
 20
0.0
 30
0.0
  9
$PUCSORGBOTTOM
 10
0.0
 20
0.0
 30
0.0
  9
$PUCSORGLEFT
 10
0.0
 20
0.0
 30
0.0
  9
$PUCSORGRIGHT
 10
0.0
 20
0.0
 30
0.0
  9
$PUCSORGFRONT
 10
0.0
 20
0.0
 30
0.0
  9
$PUCSORGBACK
 10
0.0
 20
0.0
 30
0.0
  9
$USERI1
 70
     0
  9
$USERI2
 70
     0
  9
$USERI3
 70
     0
  9
$USERI4
 70
     0
  9
$USERI5
 70
     0
  9
$USERR1
 40
0.0
  9
$USERR2
 40
0.0
  9
$USERR3
 40
0.0
  9
$USERR4
 40
0.0
  9
$USERR5
 40
0.0
  9
$WORLDVIEW
 70
     1
  9
$SHADEDGE
 70
     3
  9
$SHADEDIF
 70
    70
  9
$TILEMODE
 70
     1
  9
$MAXACTVP
 70
    64
  9
$PINSBASE
 10
0.0
 20
0.0
 30
0.0
  9
$PLIMCHECK
 70
     0
  9
$PEXTMIN
 10
1.049999952316284
 20
0.7999999523162842
 30
0.0
  9
$PEXTMAX
 10
9.449999570846555
 20
7.199999570846556
 30
0.0
  9
$PLIMMIN
 10
-0.2500002402958907
 20
-0.2499999962453767
  9
$PLIMMAX
 10
10.74999951940821
 20
8.249999763458731
  9
$UNITMODE
 70
     0
  9
$VISRETAIN
 70
     1
  9
$PLINEGEN
 70
     0
  9
$PSLTSCALE
 70
     1
  9
$TREEDEPTH
 70
  3020
  9
$CMLSTYLE
  2
Standard
  9
$CMLJUST
 70
     0
  9
$CMLSCALE
 40
1.0
  9
$PROXYGRAPHICS
 70
     1
  9
$MEASUREMENT
 70
     0
  9
$CELWEIGHT
370
    -1
  9
$ENDCAPS
280
     0
  9
$JOINSTYLE
280
     0
  9
$LWDISPLAY
290
     0
  9
$INSUNITS
 70
     1
  9
$HYPERLINKBASE
  1

  9
$STYLESHEET
  1
acad.ctb
  9
$XEDIT
290
     1
  9
$CEPSNTYPE
380
     0
  9
$PSTYLEMODE
290
     1
  9
$FINGERPRINTGUID
  2
{C454CA31-2497-4A48-9A62-B3C3862ED870}
  9
$VERSIONGUID
  2
{86AA1477-A420-B34C-BE1A-4E0DF8119ECB}
  9
$EXTNAMES
290
     1
  9
$PSVPSCALE
 40
0.0
  9
$OLESTARTUP
290
     0
  9
$SORTENTS
280
   127
  9
$INDEXCTL
280
     0
  9
$HIDETEXT
280
     1
  9
$XCLIPFRAME
280
     0
  9
$HALOGAP
280
     0
  9
$OBSCOLOR
 70
   257
  9
$OBSLTYPE
280
     0
  9
$INTERSECTIONDISPLAY
280
     0
  9
$INTERSECTIONCOLOR
 70
   257
  9
$DIMASSOC
280
     2
  9
$PROJECTNAME
  1

  9
$CAMERADISPLAY
290
     0
  9
$LENSLENGTH
 40
50.0
  9
$CAMERAHEIGHT
 40
0.0
  9
$STEPSPERSEC
 40
2.0
  9
$STEPSIZE
 40
6.0
  9
$3DDWFPREC
 40
2.0
  9
$PSOLWIDTH
 40
0.25
  9
$PSOLHEIGHT
 40
4.0
  9
$LOFTANG1
 40
1.570796326794896
  9
$LOFTANG2
 40
1.570796326794896
  9
$LOFTMAG1
 40
0.0
  9
$LOFTMAG2
 40
0.0
  9
$LOFTPARAM
 70
     7
  9
$LOFTNORMALS
280
     1
  9
$LATITUDE
 40
37.795
  9
$LONGITUDE
 40
-122.394
  9
$NORTHDIRECTION
 40
0.0
  9
$TIMEZONE
 70
 -8000
  9
$LIGHTGLYPHDISPLAY
280
     1
  9
$TILEMODELIGHTSYNCH
280
     1
  9
$CMATERIAL
347
2BFF0
  9
$SOLIDHIST
280
     1
  9
$SHOWHIST
280
     1
  9
$DWFFRAME
280
     2
  9
$DGNFRAME
280
     0
  9
$REALWORLDSCALE
290
     1
  9
$INTERFERECOLOR
 62
     1
  9
$INTERFEREOBJVS
345
2C012
  9
$INTERFEREVPVS
346
2C0F9
  9
$CSHADOW
280
     0
  9
$SHADOWPLANELOCATION
 40
0.0
  0
ENDSEC
  0
SECTION
  2
CLASSES
  0
CLASS
  1
ACDBDICTIONARYWDFLT
  2
AcDbDictionaryWithDefault
  3
ObjectDBX Classes
 90
        0
 91
        1
280
     0
281
     0
  0
CLASS
  1
DICTIONARYVAR
  2
AcDbDictionaryVar
  3
ObjectDBX Classes
 90
        0
 91
       12
280
     0
281
     0
  0
CLASS
  1
TABLESTYLE
  2
AcDbTableStyle
  3
ObjectDBX Classes
 90
     4095
 91
        3
280
     0
281
     0
  0
CLASS
  1
DIMASSOC
  2
AcDbDimAssoc
  3
"AcDbDimAssoc|Product Desc:     AcDim ARX App For Dimension|Company:          Autodesk, Inc.|WEB Address:      www.autodesk.com"
 90
        0
 91
        4
280
     0
281
     0
  0
CLASS
  1
SORTENTSTABLE
  2
AcDbSortentsTable
  3
ObjectDBX Classes
 90
        0
 91
        2
280
     0
281
     0
  0
CLASS
  1
ACAD_TABLE
  2
AcDbTable
  3
ObjectDBX Classes
 90
     1025
 91
        0
280
     0
281
     1
  0
CLASS
  1
FIELD
  2
AcDbField
  3
ObjectDBX Classes
 90
     1152
 91
        0
280
     0
281
     0
  0
CLASS
  1
FIELDLIST
  2
AcDbFieldList
  3
ObjectDBX Classes
 90
     1152
 91
        1
280
     0
281
     0
  0
CLASS
  1
MATERIAL
  2
AcDbMaterial
  3
ObjectDBX Classes
 90
     1153
 91
        3
280
     0
281
     0
  0
CLASS
  1
VISUALSTYLE
  2
AcDbVisualStyle
  3
ObjectDBX Classes
 90
     4095
 91
       26
280
     0
281
     0
  0
CLASS
  1
SCALE
  2
AcDbScale
  3
ObjectDBX Classes
 90
     1153
 91
       33
280
     0
281
     0
  0
CLASS
  1
MLEADERSTYLE
  2
AcDbMLeaderStyle
  3
ACDB_MLEADERSTYLE_CLASS
 90
     4095
 91
        1
280
     0
281
     0
  0
CLASS
  1
ACAD_EVALUATION_GRAPH
  2
AcDbEvalGraph
  3
ObjectDBX Classes
 90
     1153
 91
        0
280
     0
281
     0
  0
CLASS
  1
ACAECUSTOBJ
  2
AcAeEditorObj
  3
AcAeEditorObj
 90
     1024
 91
        0
280
     0
281
     0
  0
CLASS
  1
ACDB_DYNAMICBLOCKPURGEPREVENTER_VERSION
  2
AcDbDynamicBlockPurgePreventer
  3
ObjectDBX Classes
 90
     1153
 91
        0
280
     0
281
     0
  0
CLASS
  1
CELLSTYLEMAP
  2
AcDbCellStyleMap
  3
ObjectDBX Classes
 90
     1152
 91
        3
280
     0
281
     0
  0
CLASS
  1
ACDBSECTIONVIEWSTYLE
  2
AcDbSectionViewStyle
  3
ObjectDBX Classes
 90
     1025
 91
        1
280
     0
281
     0
  0
CLASS
  1
ACDBDETAILVIEWSTYLE
  2
AcDbDetailViewStyle
  3
ObjectDBX Classes
 90
     1025
 91
        1
280
     0
281
     0
  0
CLASS
  1
ACDB_MTEXTOBJECTCONTEXTDATA_CLASS
  2
AcDbMTextObjectContextData
  3
ObjectDBX Classes
 90
     1153
 91
        1
280
     0
281
     0
  0
ENDSEC
  0
SECTION
  2
TABLES
  0
TABLE
  2
VPORT
  5
8
330
0
100
AcDbSymbolTable
 70
     1
  0
VPORT
  5
2BFE1
330
8
100
AcDbSymbolTableRecord
100
AcDbViewportTableRecord
  2
*Active
 70
     0
 10
0.0
 20
0.0
 11
1.0
 21
1.0
 12
70.24689592014418
 22
55.1439611422813
 13
0.0
 23
0.0
 14
0.5
 24
0.5
 15
0.5
 25
0.5
 16
0.0
 26
0.0
 36
1.0
 17
0.0
 27
0.0
 37
0.0
 40
74.15448887738723
 41
3.103969754253308
 42
50.0
 43
0.0
 44
0.0
 50
0.0
 51
0.0
 71
     0
 72
  1000
 73
     1
 74
     3
 75
     0
 76
     0
 77
     0
 78
     0
281
     0
 65
     1
110
0.0
120
0.0
130
0.0
111
1.0
121
0.0
131
0.0
112
0.0
122
1.0
132
0.0
 79
     0
146
0.0
348
2C00E
 60
     3
 61
     5
292
     1
282
     1
141
0.0
142
0.0
 63
   250
421
  3355443
1001
ACAD_NAV_VCDISPLAY
1070
     3
  0
ENDTAB
  0
TABLE
  2
LTYPE
  5
5
330
0
100
AcDbSymbolTable
 70
     4
  0
LTYPE
  5
14
330
5
100
AcDbSymbolTableRecord
100
AcDbLinetypeTableRecord
  2
ByBlock
 70
     0
  3

 72
    65
 73
     0
 40
0.0
  0
LTYPE
  5
15
330
5
100
AcDbSymbolTableRecord
100
AcDbLinetypeTableRecord
  2
ByLayer
 70
     0
  3

 72
    65
 73
     0
 40
0.0
  0
LTYPE
  5
16
330
5
100
AcDbSymbolTableRecord
100
AcDbLinetypeTableRecord
  2
Continuous
 70
     0
  3
Solid line
 72
    65
 73
     0
 40
0.0
  0
LTYPE
  5
7BE
330
5
100
AcDbSymbolTableRecord
100
AcDbLinetypeTableRecord
  2
HIDDEN2
 70
     0
  3
Hidden (.5x) _ _ _ _ _ _ _ _ _ _ _ _ _ _ _ _ _
 72
    65
 73
     2
 40
0.1875
 49
0.125
 74
     0
 49
-0.0625
 74
     0
  0
LTYPE
  5
144B
330
5
100
AcDbSymbolTableRecord
100
AcDbLinetypeTableRecord
  2
HIDDEN
 70
     0
  3
Hidden __ __ __ __ __ __ __ __ __ __ __ __ __ _
 72
    65
 73
     2
 40
0.375
 49
0.25
 74
     0
 49
-0.125
 74
     0
  0
LTYPE
  5
1BDD1
330
5
100
AcDbSymbolTableRecord
100
AcDbLinetypeTableRecord
  2
HIDDENX2
 70
     0
  3
Hidden (2x) ____ ____ ____ ____ ____ ____ ____
 72
    65
 73
     2
 40
0.75
 49
0.5
 74
     0
 49
-0.25
 74
     0
  0
ENDTAB
  0
TABLE
  2
LAYER
  5
2
102
{ACAD_XDICTIONARY
360
8D
102
}
330
0
100
AcDbSymbolTable
 70
    31
  0
LAYER
  5
10
102
{ACAD_XDICTIONARY
360
2C074
102
}
330
2
100
AcDbSymbolTableRecord
100
AcDbLayerTableRecord
  2
0
 70
     0
 62
     7
  6
Continuous
370
    -3
390
F
347
2C000
  0
LAYER
  5
8B
102
{ACAD_XDICTIONARY
360
2C076
102
}
330
2
100
AcDbSymbolTableRecord
100
AcDbLayerTableRecord
  2
Block
 70
     0
 62
     7
  6
Continuous
370
    30
390
F
347
2C000
1001
AcAecLayerStandard
1000

1000

  0
LAYER
  5
770
102
{ACAD_XDICTIONARY
360
2C078
102
}
330
2
100
AcDbSymbolTableRecord
100
AcDbLayerTableRecord
  2
Web
 70
     0
 62
     6
  6
Continuous
370
    -3
390
F
347
2C000
1001
AcAecLayerStandard
1000

1000

  0
LAYER
  5
13AF
102
{ACAD_XDICTIONARY
360
2C07A
102
}
330
2
100
AcDbSymbolTableRecord
100
AcDbLayerTableRecord
  2
Dim
 70
     0
 62
     7
  6
Continuous
370
    25
390
F
347
2C000
1001
AcAecLayerStandard
1000

1000

  0
LAYER
  5
13CA
330
2
100
AcDbSymbolTableRecord
100
AcDbLayerTableRecord
  2
DEFPOINTS
 70
     0
 62
     7
  6
Continuous
290
     0
370
    -3
390
F
347
2C000
  0
LAYER
  5
32CE
102
{ACAD_XDICTIONARY
360
2C07C
102
}
330
2
100
AcDbSymbolTableRecord
100
AcDbLayerTableRecord
  2
Text
 70
     0
 62
     7
  6
Continuous
370
    -3
390
F
347
2C000
1001
AcAecLayerStandard
1000

1000

  0
LAYER
  5
11F4A
102
{ACAD_XDICTIONARY
360
2C07E
102
}
330
2
100
AcDbSymbolTableRecord
100
AcDbLayerTableRecord
  2
Conc
 70
     0
 62
   251
  6
Continuous
370
    -3
390
F
347
2C000
1001
AcAecLayerStandard
1000

1000

  0
LAYER
  5
121C7
102
{ACAD_XDICTIONARY
360
2C080
102
}
330
2
100
AcDbSymbolTableRecord
100
AcDbLayerTableRecord
  2
Drywall
 70
     0
 62
     7
  6
Continuous
370
    -3
390
F
347
2C000
1001
AcAecLayerStandard
1000

1000

  0
LAYER
  5
121CA
102
{ACAD_XDICTIONARY
360
2C082
102
}
330
2
100
AcDbSymbolTableRecord
100
AcDbLayerTableRecord
  2
ExtWood
 70
     0
 62
    11
  6
Continuous
370
    -3
390
F
347
2C000
1001
AcAecLayerStandard
1000

1000

  0
LAYER
  5
121CF
102
{ACAD_XDICTIONARY
360
2C084
102
}
330
2
100
AcDbSymbolTableRecord
100
AcDbLayerTableRecord
  2
Sills
 70
     0
 62
    40
  6
Continuous
370
    -3
390
F
347
2C000
1001
AcAecLayerStandard
1000

1000

  0
LAYER
  5
121E2
102
{ACAD_XDICTIONARY
360
2C086
102
}
330
2
100
AcDbSymbolTableRecord
100
AcDbLayerTableRecord
  2
WoodJoistStud
 70
     0
 62
    46
  6
Continuous
370
    25
390
F
347
2C000
1001
AcAecLayerStandard
1000

1000

  0
LAYER
  5
121F7
102
{ACAD_XDICTIONARY
360
2C088
102
}
330
2
100
AcDbSymbolTableRecord
100
AcDbLayerTableRecord
  2
Siding
 70
     0
 62
     5
  6
Continuous
370
    -3
390
F
347
2C000
1001
AcAecLayerStandard
1000

1000

  0
LAYER
  5
12238
102
{ACAD_XDICTIONARY
360
2C08A
102
}
330
2
100
AcDbSymbolTableRecord
100
AcDbLayerTableRecord
  2
SteelBars
 70
     0
 62
     5
  6
Continuous
370
    -3
390
F
347
2C000
1001
AcAecLayerStandard
1000

1000

  0
LAYER
  5
12273
102
{ACAD_XDICTIONARY
360
2C08C
102
}
330
2
100
AcDbSymbolTableRecord
100
AcDbLayerTableRecord
  2
SOIL
 70
     0
 62
     3
  6
Continuous
370
    -3
390
F
347
2C000
  0
LAYER
  5
1233D
102
{ACAD_XDICTIONARY
360
2C08E
102
}
330
2
100
AcDbSymbolTableRecord
100
AcDbLayerTableRecord
  2
Membranes
 70
     0
 62
     1
  6
Continuous
370
    -3
390
F
347
2C000
1001
AcAecLayerStandard
1000

1000

  0
LAYER
  5
1958B
102
{ACAD_XDICTIONARY
360
2C090
102
}
330
2
100
AcDbSymbolTableRecord
100
AcDbLayerTableRecord
  2
CONCRETE
 70
     0
 62
     7
  6
Continuous
370
    -3
390
F
347
2C000
  0
LAYER
  5
197A1
102
{ACAD_XDICTIONARY
360
2C092
102
}
330
2
100
AcDbSymbolTableRecord
100
AcDbLayerTableRecord
  2
ASHADE
 70
     0
 62
     7
  6
Continuous
370
    -3
390
F
347
2C000
  0
LAYER
  5
197C9
102
{ACAD_XDICTIONARY
360
2C094
102
}
330
2
100
AcDbSymbolTableRecord
100
AcDbLayerTableRecord
  2
DIMENSION
 70
     0
 62
     7
  6
Continuous
370
    -3
390
F
347
2C000
  0
LAYER
  5
1A74F
102
{ACAD_XDICTIONARY
360
2C096
102
}
330
2
100
AcDbSymbolTableRecord
100
AcDbLayerTableRecord
  2
Gutter
 70
     0
 62
     5
  6
Continuous
370
    -3
390
F
347
2C000
1001
AcAecLayerStandard
1000

1000

  0
LAYER
  5
1B20B
102
{ACAD_XDICTIONARY
360
2C098
102
}
330
2
100
AcDbSymbolTableRecord
100
AcDbLayerTableRecord
  2
FibreInsul
 70
     0
 62
   241
  6
Continuous
370
    -3
390
F
347
2C000
1001
AcAecLayerStandard
1000

1000

  0
LAYER
  5
1CF9D
102
{ACAD_XDICTIONARY
360
2C09A
102
}
330
2
100
AcDbSymbolTableRecord
100
AcDbLayerTableRecord
  2
Webs
 70
     0
 62
     6
  6
HIDDEN
370
    -3
390
F
347
2C000
  0
LAYER
  5
1D689
102
{ACAD_XDICTIONARY
360
2C09C
102
}
330
2
100
AcDbSymbolTableRecord
100
AcDbLayerTableRecord
  2
Sill
 70
     0
 62
    47
  6
Continuous
370
    -3
390
F
347
2C000
  0
LAYER
  5
1D68A
102
{ACAD_XDICTIONARY
360
2C09E
102
}
330
2
100
AcDbSymbolTableRecord
100
AcDbLayerTableRecord
  2
Int Wall
 70
     0
 62
     7
  6
Continuous
370
    -3
390
F
347
2C000
  0
LAYER
  5
1E3D0
102
{ACAD_XDICTIONARY
360
2C0A0
102
}
330
2
100
AcDbSymbolTableRecord
100
AcDbLayerTableRecord
  2
D
 70
     0
 62
     7
  6
Continuous
370
    -3
390
F
347
2C000
  0
LAYER
  5
1E3D2
102
{ACAD_XDICTIONARY
360
2C0A2
102
}
330
2
100
AcDbSymbolTableRecord
100
AcDbLayerTableRecord
  2
brick
 70
     0
 62
     1
  6
Continuous
370
    -3
390
F
347
2C000
  0
LAYER
  5
1F3E8
102
{ACAD_XDICTIONARY
360
2C0A4
102
}
330
2
100
AcDbSymbolTableRecord
100
AcDbLayerTableRecord
  2
Ext Cladding
 70
     0
 62
     5
  6
Continuous
370
    -3
390
F
347
2C000
1001
AcAecLayerStandard
1000

1000

  0
LAYER
  5
29DB1
102
{ACAD_XDICTIONARY
360
2C0A6
102
}
330
2
100
AcDbSymbolTableRecord
100
AcDbLayerTableRecord
  2
Door
 70
     0
 62
   255
  6
Continuous
370
    -3
390
F
347
2C000
1001
AcAecLayerStandard
1000

1000

  0
LAYER
  5
2B03B
102
{ACAD_XDICTIONARY
360
2C0A8
102
}
330
2
100
AcDbSymbolTableRecord
100
AcDbLayerTableRecord
  2
Rebar
 70
     0
 62
     4
  6
Continuous
370
    -3
390
F
347
2C000
  0
LAYER
  5
2B03C
102
{ACAD_XDICTIONARY
360
2C0AA
102
}
330
2
100
AcDbSymbolTableRecord
100
AcDbLayerTableRecord
  2
Beam
 70
     0
 62
     3
  6
Continuous
370
    -3
390
F
347
2C000
  0
LAYER
  5
2B89D
102
{ACAD_XDICTIONARY
360
2C0AC
102
}
330
2
100
AcDbSymbolTableRecord
100
AcDbLayerTableRecord
  2
Hatch
 70
     0
 62
     1
  6
Continuous
370
    30
390
F
347
2C000
1001
AcAecLayerStandard
1000

1000

  0
LAYER
  5
2C114
102
{ACAD_XDICTIONARY
360
2C115
102
}
330
2
100
AcDbSymbolTableRecord
100
AcDbLayerTableRecord
  2
Title Block
 70
     0
 62
     7
  6
Continuous
370
    -3
390
F
347
2C000
1001
AcAecLayerStandard
1000

1000
Use for the title block on the layout tab (paper space)
  0
ENDTAB
  0
TABLE
  2
STYLE
  5
3
330
0
100
AcDbSymbolTable
 70
     8
  0
STYLE
  5
11
330
3
100
AcDbSymbolTableRecord
100
AcDbTextStyleTableRecord
  2
Standard
 70
     0
 40
0.0
 41
1.0
 50
0.0
 71
     0
 42
0.2
  3
sanss___.ttf
  4

1001
ACAD
1000
SansSerif
1071
      514
  0
STYLE
  5
7BD
330
3
100
AcDbSymbolTableRecord
100
AcDbTextStyleTableRecord
  2

 70
     1
 40
0.0
 41
1.0
 50
0.0
 71
     0
 42
0.2
  3
ltypeshp.shx
  4

  0
STYLE
  5
1A22
330
3
100
AcDbSymbolTableRecord
100
AcDbTextStyleTableRecord
  2
Logix
 70
     0
 40
0.0
 41
1.0
 50
0.0
 71
     0
 42
1.0
  3
romans.shx
  4

  0
STYLE
  5
36AA
330
3
100
AcDbSymbolTableRecord
100
AcDbTextStyleTableRecord
  2
Arial
 70
     0
 40
0.0
 41
1.0
 50
0.0
 71
     0
 42
0.2
  3
arial.ttf
  4

1001
ACAD
1000
Arial
1071
       34
  0
STYLE
  5
7B7E
330
3
100
AcDbSymbolTableRecord
100
AcDbTextStyleTableRecord
  2
TITLE
 70
     0
 40
0.0
 41
1.0
 50
0.0
 71
     0
 42
1.25
  3
arial.ttf
  4

1001
ACAD
1000
Arial
1071
       34
  0
STYLE
  5
12274
330
3
100
AcDbSymbolTableRecord
100
AcDbTextStyleTableRecord
  2
ATTR
 70
     0
 40
0.008825683324628
 41
0.8
 50
0.0
 71
     0
 42
0.008825683324628
  3
romans.shx
  4

  0
STYLE
  5
1979E
330
3
100
AcDbSymbolTableRecord
100
AcDbTextStyleTableRecord
  2
ASHADE
 70
     0
 40
0.2
 41
1.0
 50
0.0
 71
     0
 42
1.0
  3
simplex
  4

  0
STYLE
  5
1E3D8
330
3
100
AcDbSymbolTableRecord
100
AcDbTextStyleTableRecord
  2
ROMAND
 70
     0
 40
0.2
 41
1.0
 50
0.0
 71
     0
 42
0.2
  3
romand
  4

  0
ENDTAB
  0
TABLE
  2
VIEW
  5
6
330
0
100
AcDbSymbolTable
 70
     0
  0
ENDTAB
  0
TABLE
  2
UCS
  5
7
330
0
100
AcDbSymbolTable
 70
     0
  0
ENDTAB
  0
TABLE
  2
APPID
  5
9
330
0
100
AcDbSymbolTable
 70
    25
  0
APPID
  5
12
330
9
100
AcDbSymbolTableRecord
100
AcDbRegAppTableRecord
  2
ACAD
 70
     0
  0
APPID
  5
8C
330
9
100
AcDbSymbolTableRecord
100
AcDbRegAppTableRecord
  2
AcAecLayerStandard
 70
     0
  0
APPID
  5
93
330
9
100
AcDbSymbolTableRecord
100
AcDbRegAppTableRecord
  2
ACAD_EXEMPT_FROM_CAD_STANDARDS
 70
     0
  0
APPID
  5
B8
330
9
100
AcDbSymbolTableRecord
100
AcDbRegAppTableRecord
  2
ACAD_DSTYLE_DIMTEXT_FILL
 70
     0
  0
APPID
  5
B9
330
9
100
AcDbSymbolTableRecord
100
AcDbRegAppTableRecord
  2
ACAD_DSTYLE_DIMEXT_LENGTH
 70
     0
  0
APPID
  5
BA
330
9
100
AcDbSymbolTableRecord
100
AcDbRegAppTableRecord
  2
ACAD_DSTYLE_DIMEXT_ENABLED
 70
     0
  0
APPID
  5
BB
330
9
100
AcDbSymbolTableRecord
100
AcDbRegAppTableRecord
  2
ACAD_DSTYLE_DIM_LINETYPE
 70
     0
  0
APPID
  5
BC
330
9
100
AcDbSymbolTableRecord
100
AcDbRegAppTableRecord
  2
ACAD_DSTYLE_DIM_EXT1_LINETYPE
 70
     0
  0
APPID
  5
BD
330
9
100
AcDbSymbolTableRecord
100
AcDbRegAppTableRecord
  2
ACAD_DSTYLE_DIM_EXT2_LINETYPE
 70
     0
  0
APPID
  5
1D9
330
9
100
AcDbSymbolTableRecord
100
AcDbRegAppTableRecord
  2
ACAD_DSTYLE_DIMJOGGED_JOGANGLE_SYMBOL
 70
     0
  0
APPID
  5
26D
330
9
100
AcDbSymbolTableRecord
100
AcDbRegAppTableRecord
  2
ACAD_DSTYLE_DIMARC_LENGTH_SYMBOL
 70
     0
  0
APPID
  5
11EF9
330
9
100
AcDbSymbolTableRecord
100
AcDbRegAppTableRecord
  2
ACAD_PSEXT
 70
     0
  0
APPID
  5
190B7
330
9
100
AcDbSymbolTableRecord
100
AcDbRegAppTableRecord
  2
DCO15
 70
     0
  0
APPID
  5
1979F
330
9
100
AcDbSymbolTableRecord
100
AcDbRegAppTableRecord
  2
AVE_RENDER
 70
     0
  0
APPID
  5
197A0
330
9
100
AcDbSymbolTableRecord
100
AcDbRegAppTableRecord
  2
AVE_ENTITY_MATERIAL
 70
     0
  0
APPID
  5
197AD
330
9
100
AcDbSymbolTableRecord
100
AcDbRegAppTableRecord
  2
AVE_FINISH
 70
     0
  0
APPID
  5
197AE
330
9
100
AcDbSymbolTableRecord
100
AcDbRegAppTableRecord
  2
AVE_MATERIAL
 70
     0
  0
APPID
  5
197AF
330
9
100
AcDbSymbolTableRecord
100
AcDbRegAppTableRecord
  2
AVE_GLOBAL
 70
     0
  0
APPID
  5
2C03D
330
9
100
AcDbSymbolTableRecord
100
AcDbRegAppTableRecord
  2
ACAD_MLEADERVER
 70
     0
  0
APPID
  5
2C04F
330
9
100
AcDbSymbolTableRecord
100
AcDbRegAppTableRecord
  2
ACAUTHENVIRON
 70
     0
  0
APPID
  5
2C053
330
9
100
AcDbSymbolTableRecord
100
AcDbRegAppTableRecord
  2
AcDbDynamicBlockTrueName
 70
     0
  0
APPID
  5
2C054
330
9
100
AcDbSymbolTableRecord
100
AcDbRegAppTableRecord
  2
AcDbDynamicBlockGUID
 70
     0
  0
APPID
  5
2C056
330
9
100
AcDbSymbolTableRecord
100
AcDbRegAppTableRecord
  2
AcDbBlockRepETag
 70
     0
  0
APPID
  5
2C116
330
9
100
AcDbSymbolTableRecord
100
AcDbRegAppTableRecord
  2
ACAD_NAV_VCDISPLAY
 70
     0
  0
APPID
  5
2C117
330
9
100
AcDbSymbolTableRecord
100
AcDbRegAppTableRecord
  2
AcadAnnotative
 70
     0
  0
ENDTAB
  0
TABLE
  2
DIMSTYLE
  5
A
330
0
100
AcDbSymbolTable
 70
     8
100
AcDbDimStyleTable
 71
     3
340
8CB7
340
272
340
27
  0
DIMSTYLE
105
27
330
A
100
AcDbSymbolTableRecord
100
AcDbDimStyleTableRecord
  2
Standard
 70
     0
340
11
  0
DIMSTYLE
105
272
330
A
100
AcDbSymbolTableRecord
100
AcDbDimStyleTableRecord
  2
$RECOVER_050824232520-0
 70
     0
  3
"
  4
mm
 41
0.75
 42
0.5
 44
0.5
 49
0.18
 73
     0
140
0.75
141
0.5
170
     1
277
     5
340
1A22
342
1723
1001
ACAD_DSTYLE_DIMJOGGED_JOGANGLE_SYMBOL
1070
   384
1040
0.7853981633974483
  0
DIMSTYLE
105
7B7F
330
A
100
AcDbSymbolTableRecord
100
AcDbDimStyleTableRecord
  2
neil
 70
     0
  3
"\X
  4
mm
 40
7.0
 41
0.15
 42
0.06
 44
0.0599999999999999
 45
0.0005
 73
     0
 74
     0
 77
     1
 78
     4
 79
     1
140
0.15
141
0.0
144
0.666666666666667
147
0.06
170
     1
171
     0
271
     3
272
     3
274
     0
276
     1
277
     5
340
11
341
1723
342
1723
  0
DIMSTYLE
105
8CB7
102
{ACAD_REACTORS
330
2BFC6
102
}
330
A
100
AcDbSymbolTableRecord
100
AcDbDimStyleTableRecord
  2
FBR
 70
     0
  3
"\X
  4
mm
 41
1.25
 42
0.5
 43
1.0
 44
0.5
 48
0.000000001
 49
0.5
 73
     0
 74
     0
140
1.0
141
0.5
147
0.3
170
     1
171
     0
274
     0
277
     5
279
     2
340
1A22
342
1723
1001
ACAD_DSTYLE_DIMJOGGED_JOGANGLE_SYMBOL
1070
   384
1040
0.7853981633974483
  0
DIMSTYLE
105
12275
330
A
100
AcDbSymbolTableRecord
100
AcDbDimStyleTableRecord
  2
LEADER-LARGETEXT
 70
     0
 41
1.0
 43
0.375
 44
0.1875
140
1.5
141
0.0625
147
0.0625
276
     2
277
     4
340
11
  0
DIMSTYLE
105
1A750
330
A
100
AcDbSymbolTableRecord
100
AcDbDimStyleTableRecord
  2
FBR 2storey
 70
     0
  3
"\X
  4
mm
 41
3.0
 42
0.5
 43
1.0
 44
0.5
 48
0.000000001
 49
0.5
 73
     0
 74
     0
140
2.5
141
0.5
147
0.3
170
     1
171
     0
274
     0
277
     5
279
     2
340
1A22
342
1723
1001
ACAD_DSTYLE_DIMJOGGED_JOGANGLE_SYMBOL
1070
   384
1040
0.7853981633974483
  0
DIMSTYLE
105
29DB2
330
A
100
AcDbSymbolTableRecord
100
AcDbDimStyleTableRecord
  2
DIMENSION
 70
     0
 41
0.75
 42
0.5
 44
0.5
 73
     0
 74
     0
 77
     1
140
1.5
147
0.25
173
     1
176
   256
178
   256
276
     2
277
     4
340
11
341
1723
343
1723
344
1723
  0
DIMSTYLE
105
29DB3
330
A
100
AcDbSymbolTableRecord
100
AcDbDimStyleTableRecord
  2
AM_ANSI$3
 70
     0
  4
mm
 41
0.1
 42
0.05
 43
0.5
 44
0.1
 47
0.1
 48
0.1
 78
     7
 79
     2
140
0.12
141
0.0
146
0.71
147
0.06
176
   256
177
   256
178
     2
274
     4
288
     1
289
     0
340
11
371
    -1
372
    -1
  0
ENDTAB
  0
TABLE
  2
BLOCK_RECORD
  5
1
330
0
100
AcDbSymbolTable
 70
    13
  0
BLOCK_RECORD
  5
1F
102
{ACAD_XDICTIONARY
360
39A
102
}
330
1
100
AcDbSymbolTableRecord
100
AcDbBlockTableRecord
  2
*Model_Space
340
22
 70
     0
280
     1
281
     0
  0
BLOCK_RECORD
  5
5D
330
1
100
AcDbSymbolTableRecord
100
AcDbBlockTableRecord
  2
*Paper_Space
340
5E
 70
     0
280
     1
281
     0
  0
BLOCK_RECORD
  5
58
330
1
100
AcDbSymbolTableRecord
100
AcDbBlockTableRecord
  2
*Paper_Space0
340
59
 70
     0
280
     1
281
     0
  0
BLOCK_RECORD
  5
13CB
330
1
100
AcDbSymbolTableRecord
100
AcDbBlockTableRecord
  2
BRKLINE
340
0
 70
     0
280
     1
281
     0
  0
BLOCK_RECORD
  5
1723
330
1
100
AcDbSymbolTableRecord
100
AcDbBlockTableRecord
  2
_ArchTick
340
0
102
{BLKREFS
331
2BFDA
331
2BFDB
102
}
 70
     0
280
     1
281
     0
  0
BLOCK_RECORD
  5
7B6B
330
1
100
AcDbSymbolTableRecord
100
AcDbBlockTableRecord
  2
logo
340
0
310
2800000020000000200000000100080000000000000400000000000000000000000000000000000000000000000080000080000000808000800000008000800080800000C0C0C000C0DCC000F0CAA6000020400000206000002080000020A0000020C0000020E00000400000004020000040400000406000004080000040A0
310
000040C0000040E00000600000006020000060400000606000006080000060A0000060C0000060E00000800000008020000080400000806000008080000080A0000080C0000080E00000A0000000A0200000A0400000A0600000A0800000A0A00000A0C00000A0E00000C0000000C0200000C0400000C0600000C0800000C0
310
A00000C0C00000C0E00000E0000000E0200000E0400000E0600000E0800000E0A00000E0C00000E0E00040000000400020004000400040006000400080004000A0004000C0004000E00040200000402020004020400040206000402080004020A0004020C0004020E000404000004040200040404000404060004040800040
310
40A0004040C0004040E00040600000406020004060400040606000406080004060A0004060C0004060E00040800000408020004080400040806000408080004080A0004080C0004080E00040A0000040A0200040A0400040A0600040A0800040A0A00040A0C00040A0E00040C0000040C0200040C0400040C0600040C08000
310
40C0A00040C0C00040C0E00040E0000040E0200040E0400040E0600040E0800040E0A00040E0C00040E0E00080000000800020008000400080006000800080008000A0008000C0008000E00080200000802020008020400080206000802080008020A0008020C0008020E00080400000804020008040400080406000804080
310
008040A0008040C0008040E00080600000806020008060400080606000806080008060A0008060C0008060E00080800000808020008080400080806000808080008080A0008080C0008080E00080A0000080A0200080A0400080A0600080A0800080A0A00080A0C00080A0E00080C0000080C0200080C0400080C0600080C0
310
800080C0A00080C0C00080C0E00080E0000080E0200080E0400080E0600080E0800080E0A00080E0C00080E0E000C0000000C0002000C0004000C0006000C0008000C000A000C000C000C000E000C0200000C0202000C0204000C0206000C0208000C020A000C020C000C020E000C0400000C0402000C0404000C0406000C0
310
408000C040A000C040C000C040E000C0600000C0602000C0604000C0606000C0608000C060A000C060C000C060E000C0800000C0802000C0804000C0806000C0808000C080A000C080C000C080E000C0A00000C0A02000C0A04000C0A06000C0A08000C0A0A000C0A0C000C0A0E000C0C00000C0C02000C0C04000C0C06000
310
C0C08000C0C0A000F0FBFF00A4A0A000808080000000FF0000FF000000FFFF00FF000000FF00FF00FFFF0000FFFFFF0000000000000000000000000000000000000000000000000000000000000000000000000000000000000000000000000000000000000000000000000000000000000000000000000000000000000000
310
00000000000000000000000000000000000000000000000000000000000000000000000000000000000000000000000000000000000000000000000000000000000000000000000000000000000000000000000000000000000000000000000000000000000000000000000000000000000000000000000000000000000000
310
00000000000000000000000000000000000000000000000000000000000000000000000000000000000000000000000000000000000000000000000000000000000000000000000000000000000000000000000000000000000000000000000000000000000000000000000000000000000000000000000000000000000000
310
000000000000000000000000000000000000000000FFFFFFFFFFFFFFFFFFFFFFFFFFFFFFFFFFFFFFFFFFFFFFFFFFFFFF0000000000FFF9F9FFFFFFFFFFFFFFFFFFFFFFFFFFFFFFFFFFFFFFFFFFFFFFFF0000000000FFF9F9FFFFFFFFFFFFFFFFFF0000FFFFFFFFFFFFFFFF0000FFFF000000000000FFFFFFFFFFFFFFFFFFFF
310
FF00FFFFFFFFFFFFFFFF00FFFFFFFF000000000000000000FFFF0000FFFF000000FFFFFF00FFFFFFFFFF00FFFF00FF000000000000000000FFFF000000FFFF0000FFFFFFFFFFFFFFFFFF0000FFFF00000000000000000000FFFF000000FFFFFFFFFF00FFFFFFFFFFFFFF00FFFFFFFFFFFFFF000000000000FFFF00000000FF
310
FFFF000000FFFFFFFFFFFFFFFF00FFFFFFFFFF00000000000000000000000000000000000000000000F9F9000000000000000000000000000000000000000000000000000000000000F9F900000000000000000000000000000000000000000000000000000000000000000000000000000000000000000000000000000000
310
00000000000000000000000000000000000000000000000000000000000000000000000000000000000000000000000000000000000000000000000000000000000000000000000000000000000000000000000000000000000000000000000000000000000000000000000000000000000000000000000000000000000000
310
00000000000000000000000000000000000000000000000000000000000000000000000000000000000000000000000000000000000000000000000000000000000000000000000000000000000000000000000000000000000000000000000000000000000000000000000000000000000000000000000000000000000000
310
0000000000000000000000000000000000000000000000000000000000000000000000000000000000000000000000000000000000000000
102
{BLKREFS
331
2C04B
102
}
 70
     1
280
     1
281
     0
  0
BLOCK_RECORD
  5
7B76
102
{ACAD_XDICTIONARY
360
2C050
102
}
330
1
100
AcDbSymbolTableRecord
100
AcDbBlockTableRecord
  2
logo1
340
0
310
2800000020000000200000000100080000000000000400000000000000000000000000000000000000000000000080000080000000808000800000008000800080800000C0C0C000C0DCC000F0CAA6000020400000206000002080000020A0000020C0000020E00000400000004020000040400000406000004080000040A0
310
000040C0000040E00000600000006020000060400000606000006080000060A0000060C0000060E00000800000008020000080400000806000008080000080A0000080C0000080E00000A0000000A0200000A0400000A0600000A0800000A0A00000A0C00000A0E00000C0000000C0200000C0400000C0600000C0800000C0
310
A00000C0C00000C0E00000E0000000E0200000E0400000E0600000E0800000E0A00000E0C00000E0E00040000000400020004000400040006000400080004000A0004000C0004000E00040200000402020004020400040206000402080004020A0004020C0004020E000404000004040200040404000404060004040800040
310
40A0004040C0004040E00040600000406020004060400040606000406080004060A0004060C0004060E00040800000408020004080400040806000408080004080A0004080C0004080E00040A0000040A0200040A0400040A0600040A0800040A0A00040A0C00040A0E00040C0000040C0200040C0400040C0600040C08000
310
40C0A00040C0C00040C0E00040E0000040E0200040E0400040E0600040E0800040E0A00040E0C00040E0E00080000000800020008000400080006000800080008000A0008000C0008000E00080200000802020008020400080206000802080008020A0008020C0008020E00080400000804020008040400080406000804080
310
008040A0008040C0008040E00080600000806020008060400080606000806080008060A0008060C0008060E00080800000808020008080400080806000808080008080A0008080C0008080E00080A0000080A0200080A0400080A0600080A0800080A0A00080A0C00080A0E00080C0000080C0200080C0400080C0600080C0
310
800080C0A00080C0C00080C0E00080E0000080E0200080E0400080E0600080E0800080E0A00080E0C00080E0E000C0000000C0002000C0004000C0006000C0008000C000A000C000C000C000E000C0200000C0202000C0204000C0206000C0208000C020A000C020C000C020E000C0400000C0402000C0404000C0406000C0
310
408000C040A000C040C000C040E000C0600000C0602000C0604000C0606000C0608000C060A000C060C000C060E000C0800000C0802000C0804000C0806000C0808000C080A000C080C000C080E000C0A00000C0A02000C0A04000C0A06000C0A08000C0A0A000C0A0C000C0A0E000C0C00000C0C02000C0C04000C0C06000
310
C0C08000C0C0A000F0FBFF00A4A0A000808080000000FF0000FF000000FFFF00FF000000FF00FF00FFFF0000FFFFFF0000000000000000000000000000000000000000000000000000000000000000000000000000000000000000000000000000000000000000000000000000000000000000000000000000000000000000
310
00000000000000000000000000000000000000000000000000000000000000000000000000000000000000000000000000000000000000000000000000000000000000000000000000000000000000000000000000000000000000000000000000000000000000000000000000000000000000000000000000000000000000
310
00000000000000000000000000000000000000000000000000000000000000000000000000000000000000000000000000000000000000000000000000000000000000000000000000000000000000000000000000000000000000000000000000000000000000000000000000000000000000000000000000000000000000
310
0000000000000000000000000000000000000000000000000000000000000000000000000000000000FFFFFFFFFFFFFFFF0000000000000000FFFFFFFFFFFFFFFFFFFFFFFFFFFFFFFFFFFFFFFFFFFFFFFF0000000000000000FFFFFFFFFF00FFFFFFFFFF00FFFFFFFFFFFFFFFF000000000000000000000000FFFFFFFFFFFF
310
FFFFFFFFFFFFFFFFFFFFFFFF0000000000000000000000000000F9F9FFFFFFFFFFFFFFFFFFFFFFFFFFFFFFFF0000000000000000000000000000FFFFFFFFFFFFFFFFFFFFFFFFFFFF00FFFFFF000000000000000000000000000000FFFF00FFFF00FFFFFFFFFFFFFF00FFFF00000000000000000000000000000000FFFF00FF
310
FFFF00FFFFFFFFFFFF00FF00FFFF0000000000000000000000000000FFFF00FFFFFFFF00FFFFFFF9F9FFFFFFFFFF00000000000000000000000000000000000000000000000000F9F9000000000000000000000000000000000000000000000000000000000000000000000000000000000000000000000000000000000000
310
00000000000000000000000000000000000000000000000000000000000000000000000000000000000000000000000000000000000000000000000000000000000000000000000000000000000000000000000000000000000000000000000000000000000000000000000000000000000000000000000000000000000000
310
00000000000000000000000000000000000000000000000000000000000000000000000000000000000000000000000000000000000000000000000000000000000000000000000000000000000000000000000000000000000000000000000000000000000000000000000000000000000000000000000000000000000000
310
0000000000000000000000000000000000000000000000000000000000000000000000000000000000000000000000000000000000000000
 70
     1
280
     1
281
     0
1001
AcDbDynamicBlockGUID
1000
{686D9242-0116-49BB-A6E9-F25411801C2E}
1001
AcDbBlockRepETag
1070
     1
1071
        4
  0
BLOCK_RECORD
  5
12248
330
1
100
AcDbSymbolTableRecord
100
AcDbBlockTableRecord
  2
NUT_HEX_0D5_SV
340
0
310
2800000020000000200000000100040000000000000200000000000000000000000000000000000000000000000080000080000000808000800000008000800080800000C0C0C000808080000000FF0000FF000000FFFF00FF000000FF00FF00FFFF0000FFFFFF00FFFFFFFFF00000000000000FFFFFFFFFFFFFFFFF0FFFFF
310
FFFFFFFF0FFFFFFFFFFFFFFFFF0FFFFFFFFFFFFF0FFFFFFFFFFFFFFFFF0FFFFFFFFFFFFF0FFFFFFFFFFFFFFFF00FFFFFFFFFFFFF0FFFFFFFFFFFFFFFF00FFFFFFFFFFFFF00FFFFFFFFFFFFFFF00FFFFFFFFFFFFF00FFFFFFFFFFFFFFF00FFFFFFFFFFFFF00FFFFFFFFFFFFFFF00000000000000000FFFFFFFFFFFFFFF00FFF
310
FFFFFFFFFF00FFFFFFFFFFFFFFF00FFFFFFFFFFFFF00FFFFFFFFFFFFFFF00FFFFFFFFFFFFF00FFFFFFFFFFFFFFF00FFFFFFFFFFFFF00FFFFFFFFFFFFFFF00FFFFFFFFFFFFF00FFFFFFFFFFFFFFF00FFFFFFFFFFFFF00FFFFFFFFFFFFFFF00FFFFFFFFFFFFF00FFFFFFFFFFFFFFF00FFFFFFFFFFFFF00FFFFFFFFFFFFFFF00F
310
FFFFFFFFFFFF00FFFFFFFFFFFFFFF00FFFFFFFFFFFFF00FFFFFFFFFFFFFFF00FFFFFFFFFFFFF00FFFFFFFFFFFFFFF00FFFFFFFFFFFFF00FFFFFFFFFFFFFFF00FFFFFFFFFFFFF00FFFFFFFFFFFFFFF00FFFFFFFFFFFFF00FFFFFFFFFFFFFFF00000000000000000FFFFFFFFFFFFFFF00FFFFFFFFFFFFF00FFFFFFFFFFFFFFF0
310
0FFFFFFFFFFFFF00FFFFFFFFFFFFFFF00FFFFFFFFFFFFF00FFFFFFFFFFFFFFFF0FFFFFFFFFFFFF00FFFFFFFFFFFFFFFF0FFFFFFFFFFFFF0FFFFFFFFFFFFFFFFF0FFFFFFFFFFFFF0FFFFFFFFFFFFFFFFF0FFFFFFFFFFFFF0FFFFFFFFFFFFFFFFF00000000000000FFFFFFFFFF
 70
     0
280
     1
281
     0
  0
BLOCK_RECORD
  5
197A2
330
1
100
AcDbSymbolTableRecord
100
AcDbBlockTableRecord
  2
AVE_RENDER
340
0
102
{BLKREFS
331
197A5
331
197A6
331
197A7
331
197A8
331
197A9
331
197AA
331
197AB
331
197AC
102
}
 70
     0
280
     1
281
     0
  0
BLOCK_RECORD
  5
197B0
330
1
100
AcDbSymbolTableRecord
100
AcDbBlockTableRecord
  2
AVE_GLOBAL
340
0
102
{BLKREFS
331
197B3
102
}
 70
     0
280
     1
281
     0
  0
BLOCK_RECORD
  5
1DE2E
330
1
100
AcDbSymbolTableRecord
100
AcDbBlockTableRecord
  2
_Dot
340
0
 70
     0
280
     1
281
     0
  0
BLOCK_RECORD
  5
1E3BC
330
1
100
AcDbSymbolTableRecord
100
AcDbBlockTableRecord
  2
brick
340
0
310
2800000020000000200000000100080000000000000400000000000000000000000000000000000000000000000080000080000000808000800000008000800080800000C0C0C000C0DCC000F0CAA6000020400000206000002080000020A0000020C0000020E00000400000004020000040400000406000004080000040A0
310
000040C0000040E00000600000006020000060400000606000006080000060A0000060C0000060E00000800000008020000080400000806000008080000080A0000080C0000080E00000A0000000A0200000A0400000A0600000A0800000A0A00000A0C00000A0E00000C0000000C0200000C0400000C0600000C0800000C0
310
A00000C0C00000C0E00000E0000000E0200000E0400000E0600000E0800000E0A00000E0C00000E0E00040000000400020004000400040006000400080004000A0004000C0004000E00040200000402020004020400040206000402080004020A0004020C0004020E000404000004040200040404000404060004040800040
310
40A0004040C0004040E00040600000406020004060400040606000406080004060A0004060C0004060E00040800000408020004080400040806000408080004080A0004080C0004080E00040A0000040A0200040A0400040A0600040A0800040A0A00040A0C00040A0E00040C0000040C0200040C0400040C0600040C08000
310
40C0A00040C0C00040C0E00040E0000040E0200040E0400040E0600040E0800040E0A00040E0C00040E0E00080000000800020008000400080006000800080008000A0008000C0008000E00080200000802020008020400080206000802080008020A0008020C0008020E00080400000804020008040400080406000804080
310
008040A0008040C0008040E00080600000806020008060400080606000806080008060A0008060C0008060E00080800000808020008080400080806000808080008080A0008080C0008080E00080A0000080A0200080A0400080A0600080A0800080A0A00080A0C00080A0E00080C0000080C0200080C0400080C0600080C0
310
800080C0A00080C0C00080C0E00080E0000080E0200080E0400080E0600080E0800080E0A00080E0C00080E0E000C0000000C0002000C0004000C0006000C0008000C000A000C000C000C000E000C0200000C0202000C0204000C0206000C0208000C020A000C020C000C020E000C0400000C0402000C0404000C0406000C0
310
408000C040A000C040C000C040E000C0600000C0602000C0604000C0606000C0608000C060A000C060C000C060E000C0800000C0802000C0804000C0806000C0808000C080A000C080C000C080E000C0A00000C0A02000C0A04000C0A06000C0A08000C0A0A000C0A0C000C0A0E000C0C00000C0C02000C0C04000C0C06000
310
C0C08000C0C0A000F0FBFF00A4A0A000808080000000FF0000FF000000FFFF00FF000000FF00FF00FFFF0000FFFFFF00000000000000000000000000000000000000000000000000000000000000000000000000000000000000F900000000000000000000000000000000000000000000000000000000000000F900000000
310
000000000000000000000000000000000000000000000000000000F90000000000000000000000000000000000000000000000000000000000F9F9F9F9F9F9F9F9F9F9F9F9F9F9F9F900000000000000000000000000000000F900000000000000000000000000000000000000000000000000000000000000F90000000000
310
0000000000000000000000000000000000000000000000000000F900000000000000000000000000000000000000000000000000000000000000F900000000000000000000000000000000000000000000000000000000000000F900000000000000000000000000000000000000000000000000000000000000F900000000
310
000000000000000000000000000000000000000000000000000000F900000000000000000000000000000000000000000000000000000000000000F900000000000000000000000000000000000000000000000000000000000000F900000000000000000000000000000000000000000000000000000000000000F9000000
310
00000000000000000000000000000000000000000000000000000000F900000000000000000000000000000000000000000000000000000000000000F9F9F9F9F9F9F9F9F9F9F9F9F9F9F9F9000000000000000000000000000000000000F90000000000000000000000000000000000000000000000000000000000F9F9F9
310
F9F9F9F9F9F9F9F9F9F9F9F9F900000000000000000000000000000000F900000000000000000000000000000000000000000000000000000000000000F900000000000000000000000000000000000000000000000000000000000000F900000000000000000000000000000000000000000000000000000000000000F900
310
000000000000000000000000000000000000000000000000000000000000F900000000000000000000000000000000000000000000000000000000000000F900000000000000000000000000000000000000000000000000000000000000F900000000000000000000000000000000000000000000000000000000000000F9
310
00000000000000000000000000000000000000000000000000000000000000F900000000000000000000000000000000000000000000000000000000000000F900000000000000000000000000000000000000000000000000000000000000F900000000000000000000000000000000000000000000000000000000000000
310
F9F9F9F9F9F9F9F9F9F9F9F9F9F9F9F900000000000000000000000000000000000000000000000000000000000000000000000000000000
 70
     1
280
     1
281
     0
  0
BLOCK_RECORD
  5
1E3C7
330
1
100
AcDbSymbolTableRecord
100
AcDbBlockTableRecord
  2
pl
340
0
310
2800000020000000200000000100080000000000000400000000000000000000000000000000000000000000000080000080000000808000800000008000800080800000C0C0C000C0DCC000F0CAA6000020400000206000002080000020A0000020C0000020E00000400000004020000040400000406000004080000040A0
310
000040C0000040E00000600000006020000060400000606000006080000060A0000060C0000060E00000800000008020000080400000806000008080000080A0000080C0000080E00000A0000000A0200000A0400000A0600000A0800000A0A00000A0C00000A0E00000C0000000C0200000C0400000C0600000C0800000C0
310
A00000C0C00000C0E00000E0000000E0200000E0400000E0600000E0800000E0A00000E0C00000E0E00040000000400020004000400040006000400080004000A0004000C0004000E00040200000402020004020400040206000402080004020A0004020C0004020E000404000004040200040404000404060004040800040
310
40A0004040C0004040E00040600000406020004060400040606000406080004060A0004060C0004060E00040800000408020004080400040806000408080004080A0004080C0004080E00040A0000040A0200040A0400040A0600040A0800040A0A00040A0C00040A0E00040C0000040C0200040C0400040C0600040C08000
310
40C0A00040C0C00040C0E00040E0000040E0200040E0400040E0600040E0800040E0A00040E0C00040E0E00080000000800020008000400080006000800080008000A0008000C0008000E00080200000802020008020400080206000802080008020A0008020C0008020E00080400000804020008040400080406000804080
310
008040A0008040C0008040E00080600000806020008060400080606000806080008060A0008060C0008060E00080800000808020008080400080806000808080008080A0008080C0008080E00080A0000080A0200080A0400080A0600080A0800080A0A00080A0C00080A0E00080C0000080C0200080C0400080C0600080C0
310
800080C0A00080C0C00080C0E00080E0000080E0200080E0400080E0600080E0800080E0A00080E0C00080E0E000C0000000C0002000C0004000C0006000C0008000C000A000C000C000C000E000C0200000C0202000C0204000C0206000C0208000C020A000C020C000C020E000C0400000C0402000C0404000C0406000C0
310
408000C040A000C040C000C040E000C0600000C0602000C0604000C0606000C0608000C060A000C060C000C060E000C0800000C0802000C0804000C0806000C0808000C080A000C080C000C080E000C0A00000C0A02000C0A04000C0A06000C0A08000C0A0A000C0A0C000C0A0E000C0C00000C0C02000C0C04000C0C06000
310
C0C08000C0C0A000F0FBFF00A4A0A000808080000000FF0000FF000000FFFF00FF000000FF00FF00FFFF0000FFFFFF0000000000000000000000000000000000000000000000000000000000000000000000000000000000000000000000FFFFFFFF00000000000000000000000000000000000000000000000000000000FF
310
00FFFF00000000000000000000000000000000000000000000000000000000FFFF00FF00000000000000000000000000000000000000000000000000000000FFFFFFFF00000000000000000000000000000000000000000000000000000000FF00FFFF00000000000000000000000000000000000000000000000000000000
310
FFFFFFFF00000000000000000000000000000000000000000000000000000000FF00FFFF00000000000000000000000000000000000000000000000000000000FFFFFFFF00000000000000000000000000000000000000000000000000000000FF00FFFF000000000000000000000000000000000000000000000000000000
310
00FFFFFFFF00000000000000000000000000000000000000000000000000000000FF00FFFF00000000000000000000000000000000000000000000000000000000FFFFFFFF00000000000000000000000000000000000000000000000000000000FF00FFFF0000000000000000000000000000000000000000000000000000
310
0000FFFF00FF00000000000000000000000000000000000000000000000000000000FF00FFFF00000000000000000000000000000000000000000000000000000000FFFF00FF00000000000000000000000000000000000000000000000000000000FF00FFFF00000000000000000000000000000000000000000000000000
310
000000FFFF00FF00000000000000000000000000000000000000000000000000000000FFFFFFFF00000000000000000000000000000000000000000000000000000000FF00FFFF00000000000000000000000000000000000000000000000000000000FFFFFFFF000000000000000000000000000000000000000000000000
310
00000000FF00FFFF00000000000000000000000000000000000000000000000000000000FFFFFFFF00000000000000000000000000000000000000000000000000000000FF00FFFF00000000000000000000000000000000000000000000000000000000FFFFFFFF0000000000000000000000000000000000000000000000
310
0000000000FF00FFFF00000000000000000000000000000000000000000000000000000000FFFFFFFF00000000000000000000000000000000000000000000000000000000FF00FFFF00000000000000000000000000000000000000000000000000000000FFFF00FF00000000000000000000000000000000000000000000
310
000000000000FFFFFFFF00000000000000000000000000000000000000000000000000000000000000000000000000000000000000000000
 70
     1
280
     1
281
     0
  0
BLOCK_RECORD
  5
21CC2
102
{ACAD_XDICTIONARY
360
21CC4
102
}
330
1
100
AcDbSymbolTableRecord
100
AcDbBlockTableRecord
  2
A$C78BF0A02
340
0
 70
     1
280
     1
281
     0
  0
BLOCK_RECORD
  5
2BFC7
330
1
100
AcDbSymbolTableRecord
100
AcDbBlockTableRecord
  2
*D12
340
0
 70
     0
280
     1
281
     0
  0
ENDTAB
  0
ENDSEC
  0
SECTION
  2
BLOCKS
  0
BLOCK
  5
20
330
1F
100
AcDbEntity
  8
0
100
AcDbBlockBegin
  2
*Model_Space
 70
     0
 10
0.0
 20
0.0
 30
0.0
  3
*Model_Space
  1

  0
ENDBLK
  5
21
330
1F
100
AcDbEntity
  8
0
100
AcDbBlockEnd
  0
BLOCK
  5
5F
330
5D
100
AcDbEntity
 67
     1
  8
0
100
AcDbBlockBegin
  2
*Paper_Space
 70
     0
 10
0.0
 20
0.0
 30
0.0
  3
*Paper_Space
  1

  0
ENDBLK
  5
60
330
5D
100
AcDbEntity
 67
     1
  8
0
100
AcDbBlockEnd
  0
BLOCK
  5
5A
330
58
100
AcDbEntity
 67
     1
  8
0
100
AcDbBlockBegin
  2
*Paper_Space0
 70
     0
 10
0.0
 20
0.0
 30
0.0
  3
*Paper_Space0
  1

  0
VIEWPORT
  5
11EF8
330
58
100
AcDbEntity
 67
     1
  8
0
100
AcDbViewport
 10
5.249999639556163
 20
3.999999883606677
 30
0.0
 40
21.60469660038833
 41
8.992999745766947
 68
     0
 69
     0
 12
5.249999639556163
 22
3.999999883606677
 13
0.0
 23
0.0
 14
0.5
 24
0.5
 15
0.5
 25
0.5
 16
0.0
 26
0.0
 36
1.0
 17
0.0
 27
0.0
 37
0.0
 42
50.0
 43
0.0
 44
0.0
 45
8.992999745766947
 50
0.0
 51
0.0
 72
  1000
 90
    32800
  1

281
     0
 71
     1
 74
     0
110
0.0
120
0.0
130
0.0
111
1.0
121
0.0
131
0.0
112
0.0
122
1.0
132
0.0
 79
     0
146
0.0
170
     0
 61
     5
348
2C00E
292
     1
282
     1
141
0.0
142
0.0
 63
   250
421
  3355443
  0
VIEWPORT
  5
11EFB
330
58
100
AcDbEntity
 67
     1
  8
Dim
100
AcDbViewport
 10
5.24999976158142
 20
3.99999976158142
 30
0.0
 40
8.399999618530271
 41
6.399999618530272
 68
     0
 69
     0
 12
70.24570646213799
 22
55.11630672257945
 13
0.0
 23
0.0
 14
0.5
 24
0.5
 15
0.5
 25
0.5
 16
0.0
 26
0.0
 36
1.0
 17
0.0
 27
0.0
 37
0.0
 42
50.0
 43
0.0
 44
0.0
 45
113.4515982453417
 50
0.0
 51
0.0
 72
  1000
 90
    32864
  1

281
     0
 71
     1
 74
     0
110
0.0
120
0.0
130
0.0
111
1.0
121
0.0
131
0.0
112
0.0
122
1.0
132
0.0
 79
     0
146
0.0
170
     0
 61
     5
348
2C00E
292
     1
282
     1
141
0.0
142
0.0
 63
   250
421
  3355443
  0
ENDBLK
  5
5B
330
58
100
AcDbEntity
 67
     1
  8
0
100
AcDbBlockEnd
  0
BLOCK
  5
13CF
330
13CB
100
AcDbEntity
  8
0
100
AcDbBlockBegin
  2
BRKLINE
 70
     0
 10
0.0
 20
0.0
 30
0.0
  3
BRKLINE
  1

  0
LWPOLYLINE
  5
13CC
330
13CB
100
AcDbEntity
  8
0
100
AcDbPolyline
 90
        4
 70
     0
 43
0.0
 10
6.808656731150684
 20
3.512459941779828
 10
6.558656731150684
 20
4.199329296643485
 10
6.058656731150684
 20
2.825590586916172
 10
5.808656731150684
 20
3.512459941779828
  0
POINT
  5
13CD
330
13CB
100
AcDbEntity
  8
DEFPOINTS
100
AcDbPoint
 10
6.808656731150684
 20
3.512459941779828
 30
0.0
  0
POINT
  5
13CE
330
13CB
100
AcDbEntity
  8
DEFPOINTS
100
AcDbPoint
 10
5.808656731150684
 20
3.512459941779828
 30
0.0
  0
ENDBLK
  5
13D0
330
13CB
100
AcDbEntity
  8
0
100
AcDbBlockEnd
  0
BLOCK
  5
1725
330
1723
100
AcDbEntity
  8
0
100
AcDbBlockBegin
  2
_ArchTick
 70
     0
 10
0.0
 20
0.0
 30
0.0
  3
_ArchTick
  1

  0
LWPOLYLINE
  5
1724
330
1723
100
AcDbEntity
  8
0
  6
ByBlock
 62
     0
100
AcDbPolyline
 90
        2
 70
     0
 43
0.15
 10
-0.5
 20
-0.5
 10
0.5
 20
0.5
  0
ENDBLK
  5
1726
330
1723
100
AcDbEntity
  8
0
100
AcDbBlockEnd
  0
BLOCK
  5
7B6C
330
7B6B
100
AcDbEntity
  8
0
100
AcDbBlockBegin
  2
logo
 70
     0
 10
0.0
 20
0.0
 30
0.0
  3
logo
  1

  0
MTEXT
  5
7B6D
330
7B6B
100
AcDbEntity
  8
Text
100
AcDbMText
 10
221.086693675525
 20
7.073797073357269
 30
0.0
 40
4.125
 41
21.35400527714894
 46
0.0
 71
     5
 72
     5
  1
\fArial|b1|i0|c0|p34;LOGIX
 73
     1
 44
1.0
  0
LWPOLYLINE
  5
7B6E
330
7B6B
100
AcDbEntity
  8
Text
 62
    10
100
AcDbPolyline
 90
        4
 70
     1
 43
0.0
 10
225.1499332619207
 20
9.683728632982365
 10
224.7383820841952
 20
9.683728632982365
 10
224.7383820841952
 20
10.35291851038301
 10
225.1499332619207
 20
10.35291851038301
  0
HATCH
  5
7B6F
330
7B6B
100
AcDbEntity
  8
Text
 62
    10
100
AcDbHatch
 10
0.0
 20
0.0
 30
0.0
210
0.0
220
0.0
230
1.0
  2
SOLID
 70
     1
 71
     0
 91
        1
 92
        7
 72
     0
 73
     1
 93
        4
 10
225.5614844396461
 20
9.683728632982363
 10
225.5614844396461
 20
10.35291851038301
 10
224.7383820841953
 20
10.35291851038301
 10
224.7383820841953
 20
9.683728632982365
 97
        0
 75
     0
 76
     1
 47
0.0123602155066018
 98
        1
 10
225.7208762804179
 20
9.919538556040233
450
        0
451
        0
460
0.0
461
0.0
452
        0
462
0.0
453
        0
470

  0
TEXT
  5
7B70
330
7B6B
100
AcDbEntity
  8
Text
100
AcDbText
 10
216.1026506038589
 20
3.969685468766058
 30
0.0
 40
0.65625
  1
INSULATED CONCRETE FORMS
  7
TITLE
100
AcDbText
  0
LWPOLYLINE
  5
7B71
330
7B6B
100
AcDbEntity
  8
Text
100
AcDbPolyline
 90
        3
 70
     0
 43
0.38671875
 10
211.295228210912
 20
6.320133515475628
 10
211.295228210912
 20
4.138949166248082
 10
215.2000098659969
 20
4.138949166248082
  0
HATCH
  5
7B72
330
7B6B
100
AcDbEntity
  8
Text
 62
    10
100
AcDbHatch
 10
0.0
 20
0.0
 30
0.0
210
0.0
220
0.0
230
1.0
  2
SOLID
 70
     1
 71
     1
 91
        1
 92
        7
 72
     0
 73
     1
 93
        4
 10
212.339355867348
 20
4.353444358275677
 10
212.339355867348
 20
5.022634235676324
 10
211.5162535118971
 20
5.022634235676322
 10
211.5162535118971
 20
4.353444358275677
 97
        1
330
7B73
 75
     0
 76
     1
 47
0.0123602155066018
 98
        1
 10
212.0586078659991
 20
4.589254281333545
450
        0
451
        0
460
0.0
461
0.0
452
        0
462
0.0
453
        0
470

  0
LWPOLYLINE
  5
7B73
102
{ACAD_REACTORS
330
7B72
102
}
330
7B6B
100
AcDbEntity
  8
Text
 62
    10
100
AcDbPolyline
 90
        4
 70
     1
 43
0.0
 10
212.339355867348
 20
4.353444358275677
 10
211.5162535118971
 20
4.353444358275677
 10
211.5162535118971
 20
5.022634235676324
 10
212.339355867348
 20
5.022634235676324
  0
MTEXT
  5
7B74
330
7B6B
100
AcDbEntity
  8
Text
100
AcDbMText
 10
231.5267760865217
 20
9.129830932173035
 30
0.0
 40
1.0
 41
1.967384484442007
 46
0.0
 71
     3
 72
     5
  1
{\fArial|b1|i0|c0|p34;TM}
 73
     1
 44
1.0
  0
ENDBLK
  5
7B75
330
7B6B
100
AcDbEntity
  8
0
100
AcDbBlockEnd
  0
BLOCK
  5
7B77
330
7B76
100
AcDbEntity
  8
0
100
AcDbBlockBegin
  2
logo1
 70
     0
 10
0.0
 20
0.0
 30
0.0
  3
logo1
  1

  0
INSERT
  5
2C04B
330
7B76
100
AcDbEntity
  8
Text
100
AcDbBlockReference
  2
logo
 10
0.2750878984697351
 20
1.429312710851462
 30
0.0
1001
AcDbBlockRepETag
1070
     1
1071
        0
1005
2C04B
  0
MTEXT
  5
2C04C
330
7B76
100
AcDbEntity
  8
Text
100
AcDbMText
 10
220.8462269722975
 20
3.419269878896534
 30
0.0
 40
1.5397913732992
 41
28.81904330094251
 46
0.0
 71
     5
 72
     5
  1
{\fArial|b1|i0|c0|p34;Good. Solid. Green.}
 73
     1
 44
1.0
1001
AcDbBlockRepETag
1070
     1
1071
        1
1005
2C04C
  0
MTEXT
  5
2C04D
330
7B76
100
AcDbEntity
  8
Text
100
AcDbMText
 10
231.9043748365881
 20
4.468802917119665
 30
0.0
 40
0.7698956866496004
 41
1.514680828553249
 46
0.0
 71
     3
 72
     5
  1
{\fArial|b1|i0|c0|p34;TM}
 73
     1
 44
1.0
1001
AcDbBlockRepETag
1070
     1
1071
        2
1005
2C04D
  0
MTEXT
  5
2C04E
330
7B76
100
AcDbEntity
  8
Text
100
AcDbMText
 10
229.1192517599591
 20
2.675911896170958
 30
0.0
 40
0.75
 41
8.36266296602462
 46
0.0
 71
     1
 72
     5
  1
www.logixicf.com
 73
     1
 44
1.0
1001
AcDbBlockRepETag
1070
     1
1071
        3
1005
2C04E
  0
ENDBLK
  5
7B7C
330
7B76
100
AcDbEntity
  8
0
100
AcDbBlockEnd
  0
BLOCK
  5
12249
330
12248
100
AcDbEntity
  8
0
100
AcDbBlockBegin
  2
NUT_HEX_0D5_SV
 70
     2
 10
0.0
 20
0.0
 30
0.0
  3
NUT_HEX_0D5_SV
  1

  0
LINE
  5
1224A
330
12248
100
AcDbEntity
  8
0
100
AcDbLine
 10
0.0299951999996994
 20
-0.2165006948201129
 30
0.0
 11
0.4179951999996993
 21
-0.2165006948201129
 31
0.0
  0
LINE
  5
1224B
330
12248
100
AcDbEntity
  8
0
100
AcDbLine
 10
0.0299951999996994
 20
0.2164993051798869
 30
0.0
 11
0.4180051999996972
 21
0.2164993051798869
 31
0.0
  0
LWPOLYLINE
  5
1224C
330
12248
100
AcDbEntity
  8
0
100
AcDbPolyline
 90
        2
 70
     0
 43
0.0
 10
0.0299951999996994
 20
0.4329993051798869
 10
0.4180051999996972
 20
0.4329993051798869
  0
ARC
  5
1224D
330
12248
100
AcDbEntity
  8
0
100
AcDbCircle
 10
-0.348204800000302
 20
-0.000000694820113
 30
0.0
 40
0.7962052
100
AcDbArc
 50
344.2218
 51
15.77825
  0
ARC
  5
1224E
330
12248
100
AcDbEntity
  8
0
100
AcDbCircle
 10
0.2376951999996985
 20
0.3247493051798851
 30
0.0
 40
0.2103013
100
AcDbArc
 50
329.0201
 51
30.97992
  0
ARC
  5
1224F
330
12248
100
AcDbEntity
  8
0
100
AcDbCircle
 10
0.210305199999698
 20
0.3247493051798851
 30
0.0
 40
0.2103013
100
AcDbArc
 50
149.0201
 51
210.9799
  0
ARC
  5
12250
330
12248
100
AcDbEntity
  8
0
100
AcDbCircle
 10
0.7962051999996968
 20
-0.000000694820113
 30
0.0
 40
0.7962052
100
AcDbArc
 50
164.2217
 51
195.7782
  0
LWPOLYLINE
  5
12251
330
12248
100
AcDbEntity
  8
0
100
AcDbPolyline
 90
        2
 70
     0
 43
0.0
 10
0.4180051999996972
 20
-0.4330006948201129
 10
0.0299951999996994
 20
-0.4330006948201129
  0
ARC
  5
12252
330
12248
100
AcDbEntity
  8
0
100
AcDbCircle
 10
0.2376951999996985
 20
-0.3247506948201146
 30
0.0
 40
0.2103013
100
AcDbArc
 50
329.0201
 51
30.97990999999999
  0
LINE
  5
12253
330
12248
100
AcDbEntity
  8
0
100
AcDbLine
 10
0.4480051999996983
 20
0.3247493051798851
 30
0.0
 11
0.4480051999996983
 21
-0.3247506948201146
 31
0.0
  0
LINE
  5
12254
330
12248
100
AcDbEntity
  8
0
100
AcDbLine
 10
0.0000051999996978
 20
-0.3247506948201146
 30
0.0
 11
0.0000051999996978
 21
0.3247493051798851
 31
0.0
  0
ARC
  5
12255
330
12248
100
AcDbEntity
  8
0
100
AcDbCircle
 10
0.210305199999698
 20
-0.3247506948201146
 30
0.0
 40
0.2103013
100
AcDbArc
 50
149.0201
 51
210.9799
  0
ATTDEF
  5
12256
330
12248
100
AcDbEntity
  8
0
100
AcDbText
 10
0.0
 20
-0.9792999999999999
 30
0.0
 40
0.021680831672485
  1

 41
0.8
  7
ATTR
100
AcDbAttributeDefinition
280
     0
  3

  2
ESTCODE
 70
     9
280
     0
  0
ENDBLK
  5
12257
330
12248
100
AcDbEntity
  8
0
100
AcDbBlockEnd
  0
BLOCK
  5
197A3
330
197A2
100
AcDbEntity
  8
ASHADE
100
AcDbBlockBegin
  2
AVE_RENDER
 70
     0
 10
0.0
 20
0.0
 30
0.0
  3
AVE_RENDER
  1
AVE_RENDER
  0
ENDBLK
  5
197A4
330
197A2
100
AcDbEntity
  8
0
100
AcDbBlockEnd
  0
BLOCK
  5
197B1
330
197B0
100
AcDbEntity
  8
ASHADE
100
AcDbBlockBegin
  2
AVE_GLOBAL
 70
     0
 10
0.0
 20
0.0
 30
0.0
  3
AVE_GLOBAL
  1
AVE_GLOBAL
  0
ENDBLK
  5
197B2
330
197B0
100
AcDbEntity
  8
0
100
AcDbBlockEnd
  0
BLOCK
  5
1DE2F
330
1DE2E
100
AcDbEntity
  8
0
100
AcDbBlockBegin
  2
_Dot
 70
     0
 10
0.0
 20
0.0
 30
0.0
  3
_Dot
  1

  0
LWPOLYLINE
  5
1DE30
330
1DE2E
100
AcDbEntity
  8
0
  6
ByBlock
 62
     0
100
AcDbPolyline
 90
        2
 70
     1
 43
0.5
 10
-0.25
 20
0.0
 42
1.0
 10
0.25
 20
0.0
 42
1.0
  0
LINE
  5
1DE31
330
1DE2E
100
AcDbEntity
  8
0
  6
ByBlock
 62
     0
370
    -2
100
AcDbLine
 10
-0.5
 20
0.0
 30
0.0
 11
-1.0
 21
0.0
 31
0.0
  0
ENDBLK
  5
1DE32
330
1DE2E
100
AcDbEntity
  8
0
100
AcDbBlockEnd
  0
BLOCK
  5
1E3BD
330
1E3BC
100
AcDbEntity
  8
0
100
AcDbBlockBegin
  2
brick
 70
     0
 10
0.0
 20
0.0
 30
0.0
  3
brick
  1

  0
LINE
  5
1E3BE
330
1E3BC
100
AcDbEntity
  8
brick
100
AcDbLine
 10
-8.93597607868169
 20
-43.19080390905893
 30
0.0
 11
-8.93597607868169
 21
-43.29080390905893
 31
0.0
  0
LINE
  5
1E3BF
330
1E3BC
100
AcDbEntity
  8
brick
100
AcDbLine
 10
-8.93597607868169
 20
-43.82830390905893
 30
0.0
 11
-8.93597607868169
 21
-43.92830390905894
 31
0.0
  0
LINE
  5
1E3C0
330
1E3BC
100
AcDbEntity
  8
brick
100
AcDbLine
 10
-9.018927771000363
 20
-43.82830390905893
 30
0.0
 11
-8.318927771000364
 21
-43.82830390905893
 31
0.0
  0
LINE
  5
1E3C1
330
1E3BC
100
AcDbEntity
  8
brick
100
AcDbLine
 10
-9.018927771000363
 20
-43.29080390905893
 30
0.0
 11
-8.318927771000364
 21
-43.29080390905893
 31
0.0
  0
LINE
  5
1E3C2
330
1E3BC
100
AcDbEntity
  8
brick
100
AcDbLine
 10
-9.018927771000363
 20
-43.29080390905893
 30
0.0
 11
-9.018927771000363
 21
-43.82830390905893
 31
0.0
  0
LINE
  5
1E3C3
330
1E3BC
100
AcDbEntity
  8
brick
100
AcDbLine
 10
-9.018927771000363
 20
-42.65330390905893
 30
0.0
 11
-8.318927771000364
 21
-42.65330390905893
 31
0.0
  0
LINE
  5
1E3C4
330
1E3BC
100
AcDbEntity
  8
brick
100
AcDbLine
 10
-9.018927771000363
 20
-43.19080390905893
 30
0.0
 11
-8.318927771000364
 21
-43.19080390905893
 31
0.0
  0
LINE
  5
1E3C5
330
1E3BC
100
AcDbEntity
  8
brick
100
AcDbLine
 10
-9.018927771000363
 20
-42.65330390905893
 30
0.0
 11
-9.018927771000363
 21
-43.19080390905893
 31
0.0
  0
ENDBLK
  5
1E3C6
330
1E3BC
100
AcDbEntity
  8
0
100
AcDbBlockEnd
  0
BLOCK
  5
1E3C8
330
1E3C7
100
AcDbEntity
  8
0
100
AcDbBlockBegin
  2
pl
 70
     0
 10
0.0
 20
0.0
 30
0.0
  3
pl
  1

  0
HATCH
  5
1E3C9
330
1E3C7
100
AcDbEntity
  8
D
  6
Continuous
100
AcDbHatch
 10
0.0
 20
0.0
 30
0.0
210
0.0
220
0.0
230
1.0
  2
ANSI31
 70
     0
 71
     1
 91
        1
 92
        1
 93
        4
 72
     1
 10
-18.31245305246308
 20
-43.28833465140252
 11
-18.36245305246308
 21
-43.28833465140252
 72
     1
 10
-18.36245305246308
 20
-43.28833465140252
 11
-18.36245305246308
 21
-43.68833465140252
 72
     1
 10
-18.36245305246308
 20
-43.68833465140252
 11
-18.31245305246308
 21
-43.68833465140252
 72
     1
 10
-18.31245305246308
 20
-43.68833465140252
 11
-18.31245305246308
 21
-43.28833465140252
 97
        4
330
1E3CA
330
1E3CC
330
1E3CB
330
1E3CD
 75
     0
 76
     1
 52
0.0
 41
0.15
 77
     0
 78
     1
 53
45.0
 43
0.0
 44
0.0
 45
-0.0132582521472478
 46
0.0132582521472478
 79
     0
 98
        1
 10
0.0
 20
0.0
  0
LINE
  5
1E3CA
102
{ACAD_REACTORS
330
1E3C9
102
}
330
1E3C7
100
AcDbEntity
  8
D
  6
Continuous
100
AcDbLine
 10
-18.31245305246308
 20
-43.28833465140252
 30
0.0
 11
-18.36245305246308
 21
-43.28833465140252
 31
0.0
  0
LINE
  5
1E3CB
102
{ACAD_REACTORS
330
1E3C9
102
}
330
1E3C7
100
AcDbEntity
  8
D
  6
Continuous
100
AcDbLine
 10
-18.36245305246308
 20
-43.68833465140252
 30
0.0
 11
-18.31245305246308
 21
-43.68833465140252
 31
0.0
  0
LINE
  5
1E3CC
102
{ACAD_REACTORS
330
1E3C9
102
}
330
1E3C7
100
AcDbEntity
  8
D
  6
Continuous
100
AcDbLine
 10
-18.36245305246308
 20
-43.28833465140252
 30
0.0
 11
-18.36245305246308
 21
-43.68833465140252
 31
0.0
  0
LINE
  5
1E3CD
102
{ACAD_REACTORS
330
1E3C9
102
}
330
1E3C7
100
AcDbEntity
  8
D
  6
Continuous
100
AcDbLine
 10
-18.31245305246308
 20
-43.68833465140252
 30
0.0
 11
-18.31245305246308
 21
-43.28833465140252
 31
0.0
  0
ENDBLK
  5
1E3CE
330
1E3C7
100
AcDbEntity
  8
0
100
AcDbBlockEnd
  0
BLOCK
  5
21CC6
330
21CC2
100
AcDbEntity
  8
0
100
AcDbBlockBegin
  2
A$C78BF0A02
 70
     0
 10
0.0
 20
0.0
 30
0.0
  3
A$C78BF0A02
  1

  0
MTEXT
  5
21CC3
330
21CC2
100
AcDbEntity
  8
Dim
100
AcDbMText
 10
0.1772347948003698
 20
6.914814617624102
 30
0.0
 40
0.9
 41
20.07123315033926
 46
8.657241220803342
 71
     1
 72
     5
  1
{\fSansSerif|b1|i0|c2|p2;\LNOTES:}\PSee Section 6 - Engineering in the LOGIX Product Manual for reinforcement details.
  7
Logix
 73
     1
 44
1.0
1001
ACAD
1000
ACAD_MTEXT_DEFINED_HEIGHT_BEGIN
1070
    46
1040
8.657241220803342
1000
ACAD_MTEXT_DEFINED_HEIGHT_END
  0
ENDBLK
  5
21CC7
330
21CC2
100
AcDbEntity
  8
0
100
AcDbBlockEnd
  0
BLOCK
  5
2BFD2
330
2BFC7
100
AcDbEntity
  8
0
100
AcDbBlockBegin
  2
*D12
 70
     1
 10
0.0
 20
0.0
 30
0.0
  3
*D12
  1

  0
LINE
  5
2BFD5
330
2BFC7
100
AcDbEntity
  8
Text
 62
     0
440
 16777216
370
    -2
100
AcDbLine
 10
67.32248063995415
 20
40.83787880099166
 30
0.0
 11
67.32248063995415
 21
34.54086230865732
 31
0.0
  0
LINE
  5
2BFD6
330
2BFC7
100
AcDbEntity
  8
Text
 62
     0
440
 16777216
370
    -2
100
AcDbLine
 10
73.57248063995415
 20
40.83787880099166
 30
0.0
 11
73.57248063995415
 21
34.54086230865732
 31
0.0
  0
LINE
  5
2BFD7
330
2BFC7
100
AcDbEntity
  8
Text
 62
     0
440
 16777216
370
    -2
100
AcDbLine
 10
67.32248063995415
 20
35.04086230865733
 30
0.0
 11
73.57248063995415
 21
35.04086230865733
 31
0.0
  0
MTEXT
  5
2BFD8
330
2BFC7
100
AcDbEntity
  8
Text
 62
     0
440
 16777216
100
AcDbMText
 10
70.44748063995415
 20
28.87181468960971
 30
0.0
 40
1.0
 41
0.0
 46
0.0
 71
     5
 72
     1
  1
\A1;6{\H1.000000x;\S1/4;}"
  7
Logix
 73
     1
 44
1.0
  0
MTEXT
  5
2BFD9
330
2BFC7
100
AcDbEntity
  8
Text
 62
     0
440
 16777216
100
AcDbMText
 10
70.44748063995415
 20
26.34324326103828
 30
0.0
 40
1.0
 41
0.0
 46
0.0
 71
     5
 72
     1
  1
\A1;[159mm]
  7
Logix
 73
     1
 44
1.0
  0
INSERT
  5
2BFDA
330
2BFC7
100
AcDbEntity
  8
Text
 62
     0
440
 16777216
370
    -2
100
AcDbBlockReference
  2
_ArchTick
 10
67.32248063995415
 20
35.04086230865733
 30
0.0
 41
1.25
 42
1.25
 43
1.25
 50
180.0
  0
INSERT
  5
2BFDB
330
2BFC7
100
AcDbEntity
  8
Text
 62
     0
440
 16777216
370
    -2
100
AcDbBlockReference
  2
_ArchTick
 10
73.57248063995415
 20
35.04086230865733
 30
0.0
 41
1.25
 42
1.25
 43
1.25
  0
POINT
  5
2BFDC
330
2BFC7
100
AcDbEntity
  8
DEFPOINTS
 62
     0
440
 16777216
100
AcDbPoint
 10
67.32248063995415
 20
41.33787880099165
 30
0.0
  0
POINT
  5
2BFDD
330
2BFC7
100
AcDbEntity
  8
DEFPOINTS
 62
     0
440
 16777216
100
AcDbPoint
 10
73.57248063995415
 20
41.33787880099165
 30
0.0
  0
POINT
  5
2BFDE
330
2BFC7
100
AcDbEntity
  8
DEFPOINTS
 62
     0
440
 16777216
100
AcDbPoint
 10
73.57248063995415
 20
35.04086230865733
 30
0.0
  0
ENDBLK
  5
2BFD3
330
2BFC7
100
AcDbEntity
  8
0
100
AcDbBlockEnd
  0
ENDSEC
  0
SECTION
  2
ENTITIES
  0
LWPOLYLINE
  5
7B8A
330
1F
100
AcDbEntity
  8
Dim
100
AcDbPolyline
 90
        2
 70
     1
 43
0.2
 10
27.21748254559107
 20
11.21316310090452
 10
113.2734236536866
 20
11.21316310090452
  0
LWPOLYLINE
  5
7B8C
330
1F
100
AcDbEntity
  8
Dim
100
AcDbPolyline
 90
        2
 70
     0
 43
0.2
 10
46.55639506238067
 20
-0.5702746285459455
 10
46.55639506238067
 20
11.21316310090452
  0
MTEXT
  5
7B96
330
1F
100
AcDbEntity
  8
Text
100
AcDbMText
 10
47.3413562180187
 20
10.48942445696533
 30
0.0
 40
0.7125
 41
24.832833752633
 46
9.76950453337551
 71
     1
 72
     5
  3
{\fTimes New Roman|b0|i0|c0|p18;The drawing represented herein is to be used as a reference guide only;  the user shall check to ensure the drawing meets local building codes and construction practices by consulting local building officials and profe
  1
ssionals, including any additional requirements.  Logix reserves the right to make changes to the drawing without notice and assumes no liability in connection with the use of the drawing including modification, copying or distribution.}
 73
     1
 44
1.0
1001
ACAD
1000
ACAD_MTEXT_DEFINED_HEIGHT_BEGIN
1070
    46
1040
9.76950453337551
1000
ACAD_MTEXT_DEFINED_HEIGHT_END
  0
LWPOLYLINE
  5
7B97
330
1F
100
AcDbEntity
  8
Dim
100
AcDbPolyline
 90
        2
 70
     0
 43
0.2
 10
72.41481418920075
 20
-0.5702746285459455
 10
72.41481418920075
 20
11.21316310090452
  0
LWPOLYLINE
  5
7BA4
330
1F
100
AcDbEntity
  8
Dim
100
AcDbPolyline
 90
        2
 70
     0
 43
0.2
 10
72.55639506238067
 20
6.821444236179289
 10
113.2734236536866
 20
6.821444236179289
  0
LWPOLYLINE
  5
7BA5
330
1F
100
AcDbEntity
  8
Dim
100
AcDbPolyline
 90
        2
 70
     0
 43
0.2
 10
96.91490935803365
 20
6.821444236179289
 10
96.91490935803365
 20
11.21316310090452
  0
TEXT
  5
7BA7
330
1F
100
AcDbEntity
  8
Dim
100
AcDbText
 10
73.05639506238067
 20
8.234029020783879
 30
0.0
 40
1.0
  1
5.8.2
  7
Logix
100
AcDbText
  0
MTEXT
  5
7BA9
330
1F
100
AcDbEntity
  8
Dim
100
AcDbMText
 10
73.05639506238067
 20
10.71316310090452
 30
0.0
 40
0.75
 41
2.5
 46
0.9791340801206377
 71
     1
 72
     5
  1
Drawing:
  7
Logix
 73
     1
 44
1.0
1001
ACAD
1000
ACAD_MTEXT_DEFINED_HEIGHT_BEGIN
1070
    46
1040
0.9791340801206377
1000
ACAD_MTEXT_DEFINED_HEIGHT_END
  0
TEXT
  5
7BAB
330
1F
100
AcDbEntity
  8
Dim
100
AcDbText
 10
97.41490935803366
 20
8.234029020783879
 30
0.0
 40
1.0
  1
Oct 20/08
  7
Logix
100
AcDbText
  0
MTEXT
  5
7BAC
330
1F
100
AcDbEntity
  8
Dim
100
AcDbMText
 10
97.41490935803366
 20
10.71316310090452
 30
0.0
 40
0.75
 41
2.5
 46
0.9791340801206377
 71
     1
 72
     5
  1
Date:
  7
Logix
 73
     1
 44
1.0
1001
ACAD
1000
ACAD_MTEXT_DEFINED_HEIGHT_BEGIN
1070
    46
1040
0.9791340801206377
1000
ACAD_MTEXT_DEFINED_HEIGHT_END
  0
MTEXT
  5
7BAD
330
1F
100
AcDbEntity
  8
Dim
100
AcDbMText
 10
73.05639506238067
 20
6.321444236179289
 30
0.0
 40
0.75
 41
2.5
 46
0.9791340801206377
 71
     1
 72
     5
  1
Title:
  7
Logix
 73
     1
 44
1.0
1001
ACAD
1000
ACAD_MTEXT_DEFINED_HEIGHT_BEGIN
1070
    46
1040
0.9791340801206377
1000
ACAD_MTEXT_DEFINED_HEIGHT_END
  0
MTEXT
  5
7BAF
330
1F
100
AcDbEntity
  8
Dim
100
AcDbMText
 10
92.80639506238067
 20
2.564027763763462
 30
0.0
 40
1.25
 41
39.5
 46
5.340002514040832
 71
     5
 72
     5
  1
LOGIX 6.25" (159mm) WALL LAYOUT FOR STC56
  7
Logix
 73
     1
 44
1.0
1001
ACAD
1000
ACAD_MTEXT_DEFINED_HEIGHT_BEGIN
1070
    46
1040
5.340002514040832
1000
ACAD_MTEXT_DEFINED_HEIGHT_END
  0
LINE
  5
81F1
330
1F
100
AcDbEntity
  8
Dim
100
AcDbLine
 10
27.11748254559107
 20
110.8962373936953
 30
0.0
 11
113.3734236536866
 21
110.8962373936953
 31
0.0
  0
LINE
  5
81F2
330
1F
100
AcDbEntity
  8
Dim
100
AcDbLine
 10
113.3734236536866
 20
110.8962373936953
 30
0.0
 11
113.3734236536866
 21
-0.6702746285459398
 31
0.0
  0
LINE
  5
81F3
330
1F
100
AcDbEntity
  8
Dim
100
AcDbLine
 10
113.3734236536866
 20
-0.6702746285459398
 30
0.0
 11
27.11748254559108
 21
-0.6702746285459455
 31
0.0
  0
LINE
  5
81F4
330
1F
100
AcDbEntity
  8
Dim
100
AcDbLine
 10
27.11748254559108
 20
-0.6702746285459455
 30
0.0
 11
27.11748254559107
 21
110.8962373936953
 31
0.0
  0
INSERT
  5
197A5
330
1F
100
AcDbEntity
  8
ASHADE
 62
     1
100
AcDbBlockReference
  2
AVE_RENDER
 10
0.0
 20
0.0
 30
0.0
1001
AVE_RENDER
1002
{
1070
     7
1000
Pref
1070
    50
1070
    20
1070
     1
1070
     0
1000

1070
    10
1070
     1
1070
    10
1040
1.0
1070
     1
1040
0.7
1040
1.0
1040
0.0
1040
10.0
1010
-1.0
1020
-1.0
1030
-1.0
1040
0.3
1070
    49
1070
     0
1070
     0
1010
1.0
1020
1.0
1030
1.0
1040
45.0
1070
     1
1070
     0
1000
WCS
1040
0.0
1070
     0
1040
10.0
1002
}
  0
INSERT
  5
197A6
330
1F
100
AcDbEntity
  8
ASHADE
 62
     3
100
AcDbBlockReference
  2
AVE_RENDER
 10
0.0
 20
0.0
 30
0.0
1001
AVE_RENDER
1002
{
1070
     0
1000
Full Opt
1070
     0
1070
     1
1070
     1
1070
     1
1070
     0
1070
     0
1070
     0
1070
     1
1070
     1
1040
0.0001
1040
0.0001
1002
}
  0
INSERT
  5
197A7
330
1F
100
AcDbEntity
  8
ASHADE
 62
     4
100
AcDbBlockReference
  2
AVE_RENDER
 10
0.0
 20
0.0
 30
0.0
1001
AVE_RENDER
1002
{
1070
     0
1000
Quick Opt
1070
     0
1070
     1
1070
     1
1070
     1
1070
     0
1070
     0
1070
     1
1002
}
  0
INSERT
  5
197A8
330
1F
100
AcDbEntity
  8
ASHADE
 62
     5
100
AcDbBlockReference
  2
AVE_RENDER
 10
0.0
 20
0.0
 30
0.0
1001
AVE_RENDER
1002
{
1070
     1
1000
Scanl Opt
1070
     2
1070
     0
1070
     2
1040
2.0
1040
4.0
1070
     0
1070
     1
1070
     0
1040
0.03
1002
}
  0
INSERT
  5
197A9
330
1F
100
AcDbEntity
  8
ASHADE
 62
     6
100
AcDbBlockReference
  2
AVE_RENDER
 10
0.0
 20
0.0
 30
0.0
1001
AVE_RENDER
1002
{
1070
     2
1000
Raytr Opt
1070
     2
1070
     0
1070
     2
1040
2.0
1040
4.0
1070
     0
1070
     1
1070
     1
1040
0.03
1070
     3
1040
0.03
1002
}
  0
INSERT
  5
197AA
330
1F
100
AcDbEntity
  8
ASHADE
 62
     7
100
AcDbBlockReference
  2
AVE_RENDER
 10
0.0
 20
0.0
 30
0.0
1001
AVE_RENDER
1002
{
1070
     0
1000
RFile Opt
1070
     1
1070
   640
1070
   480
1070
 10000
1070
     1
1070
     8
1070
     8
1070
     0
1070
     0
1070
     0
1070
     1
1070
     0
1070
     0
1070
     0
1002
}
  0
INSERT
  5
197AB
330
1F
100
AcDbEntity
  8
ASHADE
 62
     8
100
AcDbBlockReference
  2
AVE_RENDER
 10
0.0
 20
0.0
 30
0.0
1001
AVE_RENDER
1002
{
1070
     0
1000
Fog Opt
1070
     0
1070
     0
1040
0.0
1040
1.0
1040
0.0
1040
1.0
1010
0.5
1020
0.5
1030
0.5
1002
}
  0
INSERT
  5
197AC
330
1F
100
AcDbEntity
  8
ASHADE
 62
     9
100
AcDbBlockReference
  2
AVE_RENDER
 10
0.0
 20
0.0
 30
0.0
1001
AVE_RENDER
1002
{
1070
     0
1000
BG Opt
1070
     0
1070
     1
1010
1.0
1020
1.0
1030
1.0
1010
1.0
1020
0.0
1030
0.0
1010
0.0
1020
1.0
1030
0.0
1010
0.0
1020
0.0
1030
1.0
1040
0.5
1040
0.33
1040
0.0
1000

1070
     1
1000

1070
     1
1070
     1
1040
1.0
1040
1.0
1040
0.0
1040
0.0
1070
     0
1002
}
  0
INSERT
  5
197B3
330
1F
100
AcDbEntity
  8
ASHADE
 62
     1
100
AcDbBlockReference
  2
AVE_GLOBAL
 10
0.0
 20
0.0
 30
0.0
1001
AVE_MATERIAL
1002
{
1000
*GLOBAL*
1000
2
1000
Global finish.
1002
{
1002
}
1002
{
1070
    63
1002
{
1002
{
1010
-1.0
1020
-1.0
1030
-1.0
1002
}
1040
0.6999999880790711
1000

1040
0.0
1002
{
1002
}
1040
0.0
1002
{
1002
}
1040
0.0
1002
}
1002
{
1002
{
1010
-1.0
1020
-1.0
1030
-1.0
1002
}
1040
1.0
1000

1040
0.0
1002
{
1002
}
1040
0.0
1002
{
1002
}
1040
0.0
1002
}
1002
{
1002
{
1010
-1.0
1020
-1.0
1030
-1.0
1002
}
1040
0.2000000029802322
1000

1040
0.0
1002
{
1002
}
1040
0.0
1002
{
1002
}
1040
0.0
1002
}
1002
{
1070
     0
1002
{
1070
     1
1002
{
1040
1.0
1040
1.0
1000

1040
0.0
1002
{
1002
}
1040
0.0
1002
{
1002
}
1040
0.0
1002
}
1002
}
1040
1.0
1040
0.0
1040
0.0
1002
}
1002
{
1040
1.0
1040
1.0
1000

1040
0.0
1002
{
1002
}
1040
0.0
1002
{
1002
}
1040
0.0
1002
}
1002
{
1040
0.5
1040
1.0
1000

1040
0.0
1002
{
1002
}
1040
0.0
1002
{
1002
}
1040
0.0
1002
}
1002
{
1070
     0
1040
0.0
1002
{
1002
}
1040
1.0
1002
{
1002
}
1040
0.0
1002
}
1002
{
1040
0.0
1002
{
1002
{
1010
0.0
1020
0.0
1030
0.0
1002
}
1040
1.0
1000

1040
0.0
1002
{
1002
}
1040
0.0
1002
{
1002
}
1040
0.0
1002
}
1002
}
1002
{
1002
{
1070
     1
1002
{
1040
0.0
1040
1.0
1000

1040
0.0
1002
{
1002
}
1040
0.0
1002
{
1002
}
1040
0.0
1002
}
1002
}
1040
0.0
1002
{
1002
}
1010
1.0
1020
0.0
1030
0.0
1010
0.0
1020
1.0
1030
0.0
1010
0.0
1020
0.0
1030
1.0
1070
     0
1002
}
1002
{
1002
{
1040
1.0
1040
1.0
1002
{
1070
     1
1002
{
1040
1.0
1040
1.0
1000

1040
0.0
1002
{
1002
}
1040
0.0
1002
{
1002
}
1040
0.0
1002
}
1002
}
1002
}
1070
     0
1040
0.0
1002
{
1002
}
1002
}
1002
{
1002
}
1002
}
1002
{
1071
        3
1070
     3
1070
     0
1002
{
1070
     2
1070
     0
1070
     0
1040
0.0
1002
}
1070
     0
1070
     2
1002
{
1002
}
1002
}
1002
{
1040
8030.0
1040
190.3000030517578
1040
0.3050000071525574
1040
228.0
1040
545.0
1040
14.0
1040
17.39999961853027
1040
0.4560000002384186
1002
}
1000

1002
}
  0
MTEXT
  5
1A591
330
1F
100
AcDbEntity
  8
Dim
100
AcDbMText
 10
40.48582483734544
 20
91.72913225133346
 30
0.0
 40
1.0
 41
0.0
 46
0.0
 71
     9
 72
     1
  1
\A1;
  7
Logix
 73
     1
 44
1.0
  0
LWPOLYLINE
  5
1AFCB
330
1F
100
AcDbEntity
  8
Dim
100
AcDbPolyline
 90
        2
 70
     1
 43
0.2
 10
27.21748254559106
 20
-0.6475212664373658
 10
113.2734236536866
 20
-0.6475212664373658
  0
LWPOLYLINE
  5
1AFCC
330
1F
100
AcDbEntity
  8
Dim
100
AcDbPolyline
 90
        2
 70
     1
 43
0.2
 10
27.21748254559107
 20
110.9189907558038
 10
113.2734236536866
 20
110.9189907558038
  0
LWPOLYLINE
  5
1AFCE
330
1F
100
AcDbEntity
  8
Dim
100
AcDbPolyline
 90
        2
 70
     1
 43
0.2
 10
113.2734236536866
 20
110.9189907558038
 10
113.3734236536866
 20
-0.6702746285459398
  0
LWPOLYLINE
  5
1AFCF
330
1F
100
AcDbEntity
  8
Dim
100
AcDbPolyline
 90
        2
 70
     1
 43
0.2
 10
27.21748254559107
 20
110.9189907558038
 10
27.11748254559108
 20
-0.6702746285459398
  0
LWPOLYLINE
  5
1AFD9
330
1F
100
AcDbEntity
  8
Dim
100
AcDbPolyline
 90
        4
 70
     1
 43
0.0
 10
27.09837136382942
 20
111.0424789585042
 10
113.4754913651642
 20
111.0424789585042
 10
113.4754913651642
 20
-0.7465694939592141
 10
27.09837136382942
 20
-0.7465694939592141
  0
MTEXT
  5
1D2E6
330
1F
100
AcDbEntity
  8
Dim
100
AcDbMText
 10
368.7941963072877
 20
44.93883691413884
 30
0.0
 40
1.05
 41
0.0
 46
0.0
 71
     1
 72
     1
  1
\A1;
 73
     1
 44
1.0
  0
HATCH
  5
2A91C
330
1F
100
AcDbEntity
  8
Conc
100
AcDbHatch
 10
0.0
 20
0.0
 30
0.0
210
0.0
220
0.0
230
1.0
  2
AR-CONC
 70
     0
 71
     0
 91
        1
 92
        1
 93
        3
 72
     1
 10
71.00619848543097
 20
105.8056920740881
 11
71.00620346089232
 21
105.8056784041204
 72
     1
 10
71.00620346089232
 20
105.8056784041204
 11
71.00677006189719
 21
105.8054876332146
 72
     1
 10
71.00677006189719
 20
105.8054876332146
 11
71.00619848543097
 21
105.8056920740881
 97
        0
 75
     0
 76
     1
 52
0.0
 41
0.3333333333333333
 77
     0
 78
    13
 53
50.0
 43
-82.01150614025969
 44
-32.1456469918977
 45
2.390867275335844
 46
-0.209173783275317
 79
     2
 49
0.25
 49
-2.75
 53
355.0
 43
-82.01150614025969
 44
-32.1456469918977
 45
-0.4625044453766667
 46
2.507307112333372
 79
     2
 49
0.2
 49
-2.199999999999999
 53
100.4514
 43
-81.81226720692636
 44
-32.16307812523103
 45
1.928364605713405
 46
2.298131806869845
 79
     2
 49
0.2124672999999999
 49
-2.337140373333331
 53
46.1842
 43
-82.01150614025969
 44
-31.47898032523103
 45
3.557470162085481
 46
-0.5517300477633935
 79
     2
 49
0.375
 49
-4.125
 53
96.63559999999998
 43
-81.71505032359304
 44
-31.52495801523103
 45
3.11554235182901
 46
3.247059569668139
 79
     2
 49
0.3187009599999998
 49
-3.505709999999997
 53
351.1842000000001
 43
-82.01150614025969
 44
-31.47898032523103
 45
3.11553981711209
 46
3.247062003084415
 79
     2
 49
0.3
 49
-3.3
 53
21.0
 43
-81.67817280692636
 44
-31.6456469918977
 45
1.989690173728205
 46
-1.342062968884462
 79
     2
 49
0.25
 49
-2.75
 53
326.0
 43
-81.67817280692636
 44
-31.6456469918977
 45
0.8110511064052722
 46
2.417166816822843
 79
     2
 49
0.2
 49
-2.199999999999999
 53
71.45140000000001
 43
-81.51236536359304
 44
-31.75748567856436
 45
2.800742095271632
 46
1.075101655699841
 79
     2
 49
0.2124673
 49
-2.337140373333332
 53
37.5
 43
-82.01150614025969
 44
-32.1456469918977
 45
0.0405328510576356
 46
1.109646179437704
 79
     6
 49
0.0
 49
-2.173333333333332
 49
0.0
 49
-2.233333333333333
 49
0.0
 49
-2.208333333333333
 53
7.499999999999999
 43
-82.01150614025969
 44
-32.1456469918977
 45
0.8768984581404952
 46
1.314705706274533
 79
     6
 49
0.0
 49
-1.273333333333333
 49
0.0
 49
-2.123333333333333
 49
0.0
 49
-0.8416666666666666
 53
327.5
 43
-82.75483947359303
 44
-32.1456469918977
 45
1.779408120574696
 46
-0.075182905781266
 79
     6
 49
0.0
 49
-0.8333333333333332
 49
0.0
 49
-2.599999999999999
 49
0.0
 49
-3.449999999999999
 53
317.5
 43
-83.08817280692636
 44
-32.1456469918977
 45
1.943953897807953
 46
0.3336832744410588
 79
     6
 49
0.0
 49
-1.083333333333333
 49
0.0
 49
-1.726666666666666
 49
0.0
 49
-2.449999999999999
 98
        1
 10
-82.01150614025969
 20
-32.1456469918977
1001
ACAD
1010
0.0
1020
0.0
1030
0.0
  0
MTEXT
  5
2AE7A
330
1F
100
AcDbEntity
  8
Dim
100
AcDbMText
 10
71.22699006423181
 20
18.40289006647767
 30
0.0
 40
1.25
 41
55.963563520438
 46
1.349709632233193
 71
     2
 72
     5
  1
{\fSansSerif|b1|i0|c2|p2;\LSTC56 - 6.25\H1x;" [159mm] LOGIX WALL}
  7
Logix
 73
     1
 44
1.0
1001
ACAD
1000
ACAD_MTEXT_DEFINED_HEIGHT_BEGIN
1070
    46
1040
1.349709632233193
1000
ACAD_MTEXT_DEFINED_HEIGHT_END
  0
LINE
  5
2BCF7
330
1F
100
AcDbEntity
  8
Web
  6
HIDDEN
100
AcDbLine
 10
67.32248063995415
 20
52.71287880099166
 30
0.0
 11
68.32248063995415
 21
52.71287880099163
 31
0.0
  0
LINE
  5
2BCF8
330
1F
100
AcDbEntity
  8
Web
  6
HIDDEN
100
AcDbLine
 10
69.07248063995415
 20
52.71287880099163
 30
0.0
 11
69.53498063995424
 21
52.71287880099166
 31
0.0
  0
LINE
  5
2BCF9
330
1F
100
AcDbEntity
  8
Web
  6
HIDDEN
100
AcDbLine
 10
70.03498063995424
 20
52.71287880099166
 30
0.0
 11
70.13498063995415
 21
52.71287880099163
 31
0.0
  0
LINE
  5
2BCFA
330
1F
100
AcDbEntity
  8
Web
  6
HIDDEN
100
AcDbLine
 10
70.44748063995415
 20
51.21287880099166
 30
0.0
 11
68.07248063995415
 21
51.21287880099166
 31
0.0
  0
ARC
  5
2BCFB
330
1F
100
AcDbEntity
  8
Web
  6
HIDDEN
100
AcDbCircle
 10
68.07248063995415
 20
50.46287880099166
 30
0.0
 40
0.75
100
AcDbArc
 50
90.0
 51
180.0
  0
ARC
  5
2BCFC
330
1F
100
AcDbEntity
  8
Web
  6
HIDDEN
100
AcDbCircle
 10
70.44748063995415
 20
52.27537880099166
 30
0.0
 40
0.3125
100
AcDbArc
 50
180.0
 51
270.0
  0
LINE
  5
2BCFD
330
1F
100
AcDbEntity
  8
Web
  6
HIDDEN
100
AcDbLine
 10
70.13498063995415
 20
52.27537880099166
 30
0.0
 11
70.13498063995415
 21
52.71287880099166
 31
0.0
  0
ARC
  5
2BCFE
330
1F
100
AcDbEntity
  8
Web
  6
HIDDEN
100
AcDbCircle
 10
69.78498063995424
 20
52.46287880099166
 30
0.0
 40
0.25
100
AcDbArc
 50
180.0
 51
0.0
  0
LINE
  5
2BCFF
330
1F
100
AcDbEntity
  8
Web
  6
HIDDEN
100
AcDbLine
 10
69.53498063995424
 20
52.46287880099166
 30
0.0
 11
69.53498063995424
 21
52.71287880099166
 31
0.0
  0
LINE
  5
2BD00
330
1F
100
AcDbEntity
  8
Web
  6
HIDDEN
100
AcDbLine
 10
70.03498063995424
 20
52.46287880099166
 30
0.0
 11
70.03498063995424
 21
52.71287880099166
 31
0.0
  0
LINE
  5
2BD01
330
1F
100
AcDbEntity
  8
Web
  6
HIDDEN
100
AcDbLine
 10
68.32248063995415
 20
52.33787880099166
 30
0.0
 11
68.32248063995415
 21
52.71287880099166
 31
0.0
  0
LINE
  5
2BD02
330
1F
100
AcDbEntity
  8
Web
  6
HIDDEN
100
AcDbLine
 10
69.07248063995415
 20
52.33787880099166
 30
0.0
 11
69.07248063995415
 21
52.71287880099166
 31
0.0
  0
ARC
  5
2BD03
330
1F
100
AcDbEntity
  8
Web
  6
HIDDEN
100
AcDbCircle
 10
68.69748063995415
 20
52.33787880099166
 30
0.0
 40
0.375
100
AcDbArc
 50
180.0
 51
0.0
  0
LINE
  5
2BD04
330
1F
100
AcDbEntity
  8
Web
  6
HIDDEN
100
AcDbLine
 10
68.32248063995415
 20
52.71287880099163
 30
0.0
 11
68.41346163995421
 21
52.71287880099166
 31
0.0
  0
LINE
  5
2BD05
330
1F
100
AcDbEntity
  8
Web
  6
HIDDEN
100
AcDbLine
 10
68.32248063995415
 20
52.44287880099165
 30
0.0
 11
68.43945646377425
 21
52.64592657710702
 31
0.0
  0
ARC
  5
2BD06
330
1F
100
AcDbEntity
  8
Web
  6
HIDDEN
100
AcDbCircle
 10
68.41346163995421
 20
52.66090219510974
 30
0.0
 40
0.03
100
AcDbArc
 50
330.053755447355
 51
0.0
  0
LINE
  5
2BD07
330
1F
100
AcDbEntity
  8
Web
  6
HIDDEN
100
AcDbLine
 10
68.44346163995417
 20
52.66090219510974
 30
0.0
 11
68.44346163995417
 21
52.68287880099165
 31
0.0
  0
ARC
  5
2BD08
330
1F
100
AcDbEntity
  8
Web
  6
HIDDEN
100
AcDbCircle
 10
68.41346163995421
 20
52.68287880099165
 30
0.0
 40
0.03
100
AcDbArc
 50
0.0
 51
90.00000000000323
  0
LINE
  5
2BD09
330
1F
100
AcDbEntity
  8
Web
  6
HIDDEN
100
AcDbLine
 10
69.07248063995415
 20
52.71287880099163
 30
0.0
 11
68.98149963995421
 21
52.71287880099166
 31
0.0
  0
LINE
  5
2BD0A
330
1F
100
AcDbEntity
  8
Web
  6
HIDDEN
100
AcDbLine
 10
69.07248063995415
 20
52.44287880099165
 30
0.0
 11
68.95550481613416
 21
52.64592657710702
 31
0.0
  0
ARC
  5
2BD0B
330
1F
100
AcDbEntity
  8
Web
  6
HIDDEN
100
AcDbCircle
 10
68.98149963995421
 20
52.66090219510974
 30
0.0
 40
0.03
100
AcDbArc
 50
180.0
 51
209.9462445526451
  0
LINE
  5
2BD0C
330
1F
100
AcDbEntity
  8
Web
  6
HIDDEN
100
AcDbLine
 10
68.95149963995412
 20
52.66090219510974
 30
0.0
 11
68.95149963995412
 21
52.68287880099165
 31
0.0
  0
ARC
  5
2BD0D
330
1F
100
AcDbEntity
  8
Web
  6
HIDDEN
100
AcDbCircle
 10
68.98149963995421
 20
52.68287880099165
 30
0.0
 40
0.03
100
AcDbArc
 50
89.99999999999674
 51
180.0
  0
LINE
  5
2BD0E
330
1F
100
AcDbEntity
  8
Web
  6
HIDDEN
100
AcDbLine
 10
73.57248063995415
 20
52.71287880099166
 30
0.0
 11
72.57248063995415
 21
52.71287880099163
 31
0.0
  0
LINE
  5
2BD0F
330
1F
100
AcDbEntity
  8
Web
  6
HIDDEN
100
AcDbLine
 10
71.82248063995415
 20
52.71287880099163
 30
0.0
 11
71.35998063995417
 21
52.71287880099166
 31
0.0
  0
LINE
  5
2BD10
330
1F
100
AcDbEntity
  8
Web
  6
HIDDEN
100
AcDbLine
 10
70.85998063995417
 20
52.71287880099166
 30
0.0
 11
70.75998063995415
 21
52.71287880099163
 31
0.0
  0
LINE
  5
2BD11
330
1F
100
AcDbEntity
  8
Web
  6
HIDDEN
100
AcDbLine
 10
70.44748063995415
 20
51.21287880099166
 30
0.0
 11
72.82248063995415
 21
51.21287880099166
 31
0.0
  0
ARC
  5
2BD12
330
1F
100
AcDbEntity
  8
Web
  6
HIDDEN
100
AcDbCircle
 10
72.82248063995415
 20
50.46287880099166
 30
0.0
 40
0.75
100
AcDbArc
 50
0.0
 51
90.0
  0
ARC
  5
2BD13
330
1F
100
AcDbEntity
  8
Web
  6
HIDDEN
100
AcDbCircle
 10
70.44748063995415
 20
52.27537880099166
 30
0.0
 40
0.3125
100
AcDbArc
 50
270.0
 51
0.0
  0
LINE
  5
2BD14
330
1F
100
AcDbEntity
  8
Web
  6
HIDDEN
100
AcDbLine
 10
70.75998063995415
 20
52.27537880099166
 30
0.0
 11
70.75998063995415
 21
52.71287880099166
 31
0.0
  0
ARC
  5
2BD15
330
1F
100
AcDbEntity
  8
Web
  6
HIDDEN
100
AcDbCircle
 10
71.10998063995417
 20
52.46287880099166
 30
0.0
 40
0.25
100
AcDbArc
 50
180.0
 51
0.0
  0
LINE
  5
2BD16
330
1F
100
AcDbEntity
  8
Web
  6
HIDDEN
100
AcDbLine
 10
71.35998063995417
 20
52.46287880099166
 30
0.0
 11
71.35998063995417
 21
52.71287880099166
 31
0.0
  0
LINE
  5
2BD17
330
1F
100
AcDbEntity
  8
Web
  6
HIDDEN
100
AcDbLine
 10
70.85998063995417
 20
52.46287880099166
 30
0.0
 11
70.85998063995417
 21
52.71287880099166
 31
0.0
  0
LINE
  5
2BD18
330
1F
100
AcDbEntity
  8
Web
  6
HIDDEN
100
AcDbLine
 10
72.57248063995415
 20
52.33787880099166
 30
0.0
 11
72.57248063995415
 21
52.71287880099166
 31
0.0
  0
LINE
  5
2BD19
330
1F
100
AcDbEntity
  8
Web
  6
HIDDEN
100
AcDbLine
 10
71.82248063995415
 20
52.33787880099166
 30
0.0
 11
71.82248063995415
 21
52.71287880099166
 31
0.0
  0
ARC
  5
2BD1A
330
1F
100
AcDbEntity
  8
Web
  6
HIDDEN
100
AcDbCircle
 10
72.19748063995415
 20
52.33787880099166
 30
0.0
 40
0.375
100
AcDbArc
 50
180.0
 51
0.0
  0
LINE
  5
2BD1B
330
1F
100
AcDbEntity
  8
Web
  6
HIDDEN
100
AcDbLine
 10
72.57248063995415
 20
52.71287880099163
 30
0.0
 11
72.4814996399542
 21
52.71287880099166
 31
0.0
  0
LINE
  5
2BD1C
330
1F
100
AcDbEntity
  8
Web
  6
HIDDEN
100
AcDbLine
 10
72.57248063995415
 20
52.44287880099165
 30
0.0
 11
72.45550481613417
 21
52.64592657710702
 31
0.0
  0
ARC
  5
2BD1D
330
1F
100
AcDbEntity
  8
Web
  6
HIDDEN
100
AcDbCircle
 10
72.4814996399542
 20
52.66090219510974
 30
0.0
 40
0.03
100
AcDbArc
 50
180.0
 51
209.9462445526451
  0
LINE
  5
2BD1E
330
1F
100
AcDbEntity
  8
Web
  6
HIDDEN
100
AcDbLine
 10
72.45149963995412
 20
52.66090219510974
 30
0.0
 11
72.45149963995412
 21
52.68287880099165
 31
0.0
  0
ARC
  5
2BD1F
330
1F
100
AcDbEntity
  8
Web
  6
HIDDEN
100
AcDbCircle
 10
72.4814996399542
 20
52.68287880099165
 30
0.0
 40
0.03
100
AcDbArc
 50
89.99999999999674
 51
180.0
  0
LINE
  5
2BD20
330
1F
100
AcDbEntity
  8
Web
  6
HIDDEN
100
AcDbLine
 10
71.82248063995415
 20
52.71287880099163
 30
0.0
 11
71.91346163995421
 21
52.71287880099166
 31
0.0
  0
LINE
  5
2BD21
330
1F
100
AcDbEntity
  8
Web
  6
HIDDEN
100
AcDbLine
 10
71.82248063995415
 20
52.44287880099165
 30
0.0
 11
71.93945646377425
 21
52.64592657710702
 31
0.0
  0
ARC
  5
2BD22
330
1F
100
AcDbEntity
  8
Web
  6
HIDDEN
100
AcDbCircle
 10
71.91346163995421
 20
52.66090219510974
 30
0.0
 40
0.03
100
AcDbArc
 50
330.053755447355
 51
0.0
  0
LINE
  5
2BD23
330
1F
100
AcDbEntity
  8
Web
  6
HIDDEN
100
AcDbLine
 10
71.94346163995418
 20
52.66090219510974
 30
0.0
 11
71.94346163995418
 21
52.68287880099165
 31
0.0
  0
ARC
  5
2BD24
330
1F
100
AcDbEntity
  8
Web
  6
HIDDEN
100
AcDbCircle
 10
71.91346163995421
 20
52.68287880099165
 30
0.0
 40
0.03
100
AcDbArc
 50
0.0
 51
90.00000000000323
  0
LINE
  5
2BD25
330
1F
100
AcDbEntity
  8
Web
  6
HIDDEN
100
AcDbLine
 10
67.32248063995415
 20
45.96287880099166
 30
0.0
 11
68.32248063995415
 21
45.96287880099166
 31
0.0
  0
LINE
  5
2BD26
330
1F
100
AcDbEntity
  8
Web
  6
HIDDEN
100
AcDbLine
 10
69.07248063995415
 20
45.96287880099166
 30
0.0
 11
69.53498063995424
 21
45.96287880099166
 31
0.0
  0
LINE
  5
2BD27
330
1F
100
AcDbEntity
  8
Web
  6
HIDDEN
100
AcDbLine
 10
70.03498063995424
 20
45.96287880099163
 30
0.0
 11
70.13498063995415
 21
45.96287880099166
 31
0.0
  0
LINE
  5
2BD28
330
1F
100
AcDbEntity
  8
Web
  6
HIDDEN
100
AcDbLine
 10
70.44748063995415
 20
47.46287880099163
 30
0.0
 11
68.07248063995415
 21
47.46287880099166
 31
0.0
  0
ARC
  5
2BD29
330
1F
100
AcDbEntity
  8
Web
  6
HIDDEN
100
AcDbCircle
 10
68.07248063995415
 20
48.21287880099166
 30
0.0
 40
0.75
100
AcDbArc
 50
180.0
 51
270.0
  0
ARC
  5
2BD2A
330
1F
100
AcDbEntity
  8
Web
  6
HIDDEN
100
AcDbCircle
 10
70.44748063995415
 20
46.40037880099163
 30
0.0
 40
0.3125
100
AcDbArc
 50
90.0
 51
180.0
  0
LINE
  5
2BD2B
330
1F
100
AcDbEntity
  8
Web
  6
HIDDEN
100
AcDbLine
 10
70.13498063995415
 20
46.40037880099163
 30
0.0
 11
70.13498063995415
 21
45.96287880099163
 31
0.0
  0
ARC
  5
2BD2C
330
1F
100
AcDbEntity
  8
Web
  6
HIDDEN
100
AcDbCircle
 10
69.78498063995424
 20
46.21287880099166
 30
0.0
 40
0.25
100
AcDbArc
 50
0.0
 51
180.0
  0
LINE
  5
2BD2D
330
1F
100
AcDbEntity
  8
Web
  6
HIDDEN
100
AcDbLine
 10
69.53498063995424
 20
46.21287880099166
 30
0.0
 11
69.53498063995424
 21
45.96287880099166
 31
0.0
  0
LINE
  5
2BD2E
330
1F
100
AcDbEntity
  8
Web
  6
HIDDEN
100
AcDbLine
 10
70.03498063995424
 20
46.21287880099163
 30
0.0
 11
70.03498063995424
 21
45.96287880099163
 31
0.0
  0
LINE
  5
2BD2F
330
1F
100
AcDbEntity
  8
Web
  6
HIDDEN
100
AcDbLine
 10
68.32248063995415
 20
46.33787880099165
 30
0.0
 11
68.32248063995415
 21
45.96287880099166
 31
0.0
  0
LINE
  5
2BD30
330
1F
100
AcDbEntity
  8
Web
  6
HIDDEN
100
AcDbLine
 10
69.07248063995415
 20
46.33787880099165
 30
0.0
 11
69.07248063995415
 21
45.96287880099166
 31
0.0
  0
ARC
  5
2BD31
330
1F
100
AcDbEntity
  8
Web
  6
HIDDEN
100
AcDbCircle
 10
68.69748063995415
 20
46.33787880099165
 30
0.0
 40
0.375
100
AcDbArc
 50
0.0
 51
180.0
  0
LINE
  5
2BD32
330
1F
100
AcDbEntity
  8
Web
  6
HIDDEN
100
AcDbLine
 10
68.32248063995415
 20
45.96287880099166
 30
0.0
 11
68.41346163995421
 21
45.96287880099166
 31
0.0
  0
LINE
  5
2BD33
330
1F
100
AcDbEntity
  8
Web
  6
HIDDEN
100
AcDbLine
 10
68.32248063995415
 20
46.23287880099167
 30
0.0
 11
68.43945646377425
 21
46.02983102487627
 31
0.0
  0
ARC
  5
2BD34
330
1F
100
AcDbEntity
  8
Web
  6
HIDDEN
100
AcDbCircle
 10
68.41346163995421
 20
46.01485540687355
 30
0.0
 40
0.03
100
AcDbArc
 50
0.0
 51
29.94624455264508
  0
LINE
  5
2BD35
330
1F
100
AcDbEntity
  8
Web
  6
HIDDEN
100
AcDbLine
 10
68.44346163995417
 20
46.01485540687355
 30
0.0
 11
68.44346163995417
 21
45.99287880099166
 31
0.0
  0
ARC
  5
2BD36
330
1F
100
AcDbEntity
  8
Web
  6
HIDDEN
100
AcDbCircle
 10
68.41346163995421
 20
45.99287880099166
 30
0.0
 40
0.03
100
AcDbArc
 50
269.9999999999968
 51
0.0
  0
LINE
  5
2BD37
330
1F
100
AcDbEntity
  8
Web
  6
HIDDEN
100
AcDbLine
 10
69.07248063995415
 20
45.96287880099166
 30
0.0
 11
68.98149963995421
 21
45.96287880099166
 31
0.0
  0
LINE
  5
2BD38
330
1F
100
AcDbEntity
  8
Web
  6
HIDDEN
100
AcDbLine
 10
69.07248063995415
 20
46.23287880099167
 30
0.0
 11
68.95550481613416
 21
46.02983102487627
 31
0.0
  0
ARC
  5
2BD39
330
1F
100
AcDbEntity
  8
Web
  6
HIDDEN
100
AcDbCircle
 10
68.98149963995421
 20
46.01485540687355
 30
0.0
 40
0.03
100
AcDbArc
 50
150.0537554473549
 51
180.0
  0
LINE
  5
2BD3A
330
1F
100
AcDbEntity
  8
Web
  6
HIDDEN
100
AcDbLine
 10
68.95149963995412
 20
46.01485540687355
 30
0.0
 11
68.95149963995412
 21
45.99287880099166
 31
0.0
  0
ARC
  5
2BD3B
330
1F
100
AcDbEntity
  8
Web
  6
HIDDEN
100
AcDbCircle
 10
68.98149963995421
 20
45.99287880099166
 30
0.0
 40
0.03
100
AcDbArc
 50
180.0
 51
270.0000000000033
  0
LINE
  5
2BD3C
330
1F
100
AcDbEntity
  8
Web
  6
HIDDEN
100
AcDbLine
 10
73.57248063995415
 20
45.96287880099163
 30
0.0
 11
72.57248063995415
 21
45.96287880099166
 31
0.0
  0
LINE
  5
2BD3D
330
1F
100
AcDbEntity
  8
Web
  6
HIDDEN
100
AcDbLine
 10
71.82248063995415
 20
45.96287880099166
 30
0.0
 11
71.35998063995417
 21
45.96287880099163
 31
0.0
  0
LINE
  5
2BD3E
330
1F
100
AcDbEntity
  8
Web
  6
HIDDEN
100
AcDbLine
 10
70.85998063995417
 20
45.96287880099163
 30
0.0
 11
70.75998063995415
 21
45.96287880099166
 31
0.0
  0
LINE
  5
2BD3F
330
1F
100
AcDbEntity
  8
Web
  6
HIDDEN
100
AcDbLine
 10
70.44748063995415
 20
47.46287880099163
 30
0.0
 11
72.82248063995415
 21
47.46287880099163
 31
0.0
  0
ARC
  5
2BD40
330
1F
100
AcDbEntity
  8
Web
  6
HIDDEN
100
AcDbCircle
 10
72.82248063995415
 20
48.21287880099163
 30
0.0
 40
0.75
100
AcDbArc
 50
270.0
 51
0.0
  0
ARC
  5
2BD41
330
1F
100
AcDbEntity
  8
Web
  6
HIDDEN
100
AcDbCircle
 10
70.44748063995415
 20
46.40037880099163
 30
0.0
 40
0.3125
100
AcDbArc
 50
0.0
 51
90.0
  0
LINE
  5
2BD42
330
1F
100
AcDbEntity
  8
Web
  6
HIDDEN
100
AcDbLine
 10
70.75998063995415
 20
46.40037880099163
 30
0.0
 11
70.75998063995415
 21
45.96287880099163
 31
0.0
  0
ARC
  5
2BD43
330
1F
100
AcDbEntity
  8
Web
  6
HIDDEN
100
AcDbCircle
 10
71.10998063995417
 20
46.21287880099163
 30
0.0
 40
0.25
100
AcDbArc
 50
0.0
 51
180.0
  0
LINE
  5
2BD44
330
1F
100
AcDbEntity
  8
Web
  6
HIDDEN
100
AcDbLine
 10
71.35998063995417
 20
46.21287880099163
 30
0.0
 11
71.35998063995417
 21
45.96287880099163
 31
0.0
  0
LINE
  5
2BD45
330
1F
100
AcDbEntity
  8
Web
  6
HIDDEN
100
AcDbLine
 10
70.85998063995417
 20
46.21287880099163
 30
0.0
 11
70.85998063995417
 21
45.96287880099163
 31
0.0
  0
LINE
  5
2BD46
330
1F
100
AcDbEntity
  8
Web
  6
HIDDEN
100
AcDbLine
 10
72.57248063995415
 20
46.33787880099163
 30
0.0
 11
72.57248063995415
 21
45.96287880099163
 31
0.0
  0
LINE
  5
2BD47
330
1F
100
AcDbEntity
  8
Web
  6
HIDDEN
100
AcDbLine
 10
71.82248063995415
 20
46.33787880099163
 30
0.0
 11
71.82248063995415
 21
45.96287880099163
 31
0.0
  0
ARC
  5
2BD48
330
1F
100
AcDbEntity
  8
Web
  6
HIDDEN
100
AcDbCircle
 10
72.19748063995415
 20
46.33787880099163
 30
0.0
 40
0.375
100
AcDbArc
 50
0.0
 51
180.0
  0
LINE
  5
2BD49
330
1F
100
AcDbEntity
  8
Web
  6
HIDDEN
100
AcDbLine
 10
72.57248063995415
 20
45.96287880099166
 30
0.0
 11
72.4814996399542
 21
45.96287880099163
 31
0.0
  0
LINE
  5
2BD4A
330
1F
100
AcDbEntity
  8
Web
  6
HIDDEN
100
AcDbLine
 10
72.57248063995415
 20
46.23287880099164
 30
0.0
 11
72.45550481613417
 21
46.02983102487627
 31
0.0
  0
ARC
  5
2BD4B
330
1F
100
AcDbEntity
  8
Web
  6
HIDDEN
100
AcDbCircle
 10
72.4814996399542
 20
46.01485540687355
 30
0.0
 40
0.03
100
AcDbArc
 50
150.0537554473549
 51
180.0
  0
LINE
  5
2BD4C
330
1F
100
AcDbEntity
  8
Web
  6
HIDDEN
100
AcDbLine
 10
72.45149963995412
 20
46.01485540687355
 30
0.0
 11
72.45149963995412
 21
45.99287880099163
 31
0.0
  0
ARC
  5
2BD4D
330
1F
100
AcDbEntity
  8
Web
  6
HIDDEN
100
AcDbCircle
 10
72.4814996399542
 20
45.99287880099163
 30
0.0
 40
0.03
100
AcDbArc
 50
180.0
 51
270.0000000000033
  0
LINE
  5
2BD4E
330
1F
100
AcDbEntity
  8
Web
  6
HIDDEN
100
AcDbLine
 10
71.82248063995415
 20
45.96287880099166
 30
0.0
 11
71.91346163995421
 21
45.96287880099163
 31
0.0
  0
LINE
  5
2BD4F
330
1F
100
AcDbEntity
  8
Web
  6
HIDDEN
100
AcDbLine
 10
71.82248063995415
 20
46.23287880099164
 30
0.0
 11
71.93945646377425
 21
46.02983102487627
 31
0.0
  0
ARC
  5
2BD50
330
1F
100
AcDbEntity
  8
Web
  6
HIDDEN
100
AcDbCircle
 10
71.91346163995421
 20
46.01485540687355
 30
0.0
 40
0.03
100
AcDbArc
 50
0.0
 51
29.94624455264508
  0
LINE
  5
2BD51
330
1F
100
AcDbEntity
  8
Web
  6
HIDDEN
100
AcDbLine
 10
71.94346163995418
 20
46.01485540687355
 30
0.0
 11
71.94346163995418
 21
45.99287880099163
 31
0.0
  0
ARC
  5
2BD52
330
1F
100
AcDbEntity
  8
Web
  6
HIDDEN
100
AcDbCircle
 10
71.91346163995421
 20
45.99287880099163
 30
0.0
 40
0.03
100
AcDbArc
 50
269.9999999999968
 51
0.0
  0
LINE
  5
2BD53
330
1F
100
AcDbEntity
  8
Block
100
AcDbLine
 10
64.57248063995415
 20
41.33787880099165
 30
0.0
 11
67.32248063995415
 21
41.33787880099165
 31
0.0
  0
LINE
  5
2BD54
330
1F
100
AcDbEntity
  8
Block
100
AcDbLine
 10
64.57248063995415
 20
41.33787880099165
 30
0.0
 11
67.32248063995415
 21
41.33787880099165
 31
0.0
  0
LINE
  5
2BD55
330
1F
100
AcDbEntity
  8
Block
100
AcDbLine
 10
73.57248063995415
 20
41.33787880099165
 30
0.0
 11
76.32248063995415
 21
41.33787880099165
 31
0.0
  0
LINE
  5
2BD56
330
1F
100
AcDbEntity
  8
Block
100
AcDbLine
 10
64.57248063995415
 20
41.33787880099165
 30
0.0
 11
67.32248063995415
 21
41.33787880099165
 31
0.0
  0
LINE
  5
2BD57
330
1F
100
AcDbEntity
  8
Block
100
AcDbLine
 10
73.57248063995415
 20
41.33787880099165
 30
0.0
 11
76.32248063995415
 21
41.33787880099165
 31
0.0
  0
LINE
  5
2BD58
330
1F
100
AcDbEntity
  8
Block
100
AcDbLine
 10
67.32248063995415
 20
41.33787880099165
 30
0.0
 11
64.57248063995415
 21
41.33787880099165
 31
0.0
  0
LINE
  5
2BD59
330
1F
100
AcDbEntity
  8
Block
100
AcDbLine
 10
76.32248063995415
 20
41.33787880099165
 30
0.0
 11
73.57248063995415
 21
41.33787880099165
 31
0.0
  0
LINE
  5
2BD5A
102
{ACAD_REACTORS
330
2BFDF
102
}
330
1F
100
AcDbEntity
  8
Block
100
AcDbLine
 10
67.32248063995415
 20
57.33787880099163
 30
0.0
 11
67.32248063995415
 21
41.33787880099165
 31
0.0
  0
LINE
  5
2BD5B
330
1F
100
AcDbEntity
  8
Block
100
AcDbLine
 10
64.57248063995415
 20
41.33787880099165
 30
0.0
 11
64.57248063995415
 21
57.33787880099163
 31
0.0
  0
LINE
  5
2BD5C
330
1F
100
AcDbEntity
  8
Block
100
AcDbLine
 10
64.57248063995415
 20
57.33787880099163
 30
0.0
 11
67.32248063995415
 21
57.33787880099163
 31
0.0
  0
LINE
  5
2BD5D
330
1F
100
AcDbEntity
  8
Block
100
AcDbLine
 10
64.57248063995415
 20
57.33787880099163
 30
0.0
 11
67.32248063995415
 21
57.33787880099163
 31
0.0
  0
LINE
  5
2BD5E
102
{ACAD_REACTORS
330
2BFDF
102
}
330
1F
100
AcDbEntity
  8
Block
100
AcDbLine
 10
73.57248063995415
 20
41.33787880099165
 30
0.0
 11
73.57248063995415
 21
57.33787880099163
 31
0.0
  0
LINE
  5
2BD5F
330
1F
100
AcDbEntity
  8
Block
100
AcDbLine
 10
73.57248063995415
 20
57.33787880099163
 30
0.0
 11
76.32248063995415
 21
57.33787880099163
 31
0.0
  0
LINE
  5
2BD60
330
1F
100
AcDbEntity
  8
Block
100
AcDbLine
 10
76.32248063995415
 20
57.33787880099163
 30
0.0
 11
76.32248063995415
 21
41.33787880099165
 31
0.0
  0
LINE
  5
2BD61
330
1F
100
AcDbEntity
  8
Block
100
AcDbLine
 10
64.57248063995415
 20
57.33787880099163
 30
0.0
 11
67.32248063995415
 21
57.33787880099163
 31
0.0
  0
LINE
  5
2BD62
330
1F
100
AcDbEntity
  8
Block
100
AcDbLine
 10
73.57248063995415
 20
57.33787880099163
 30
0.0
 11
76.32248063995415
 21
57.33787880099163
 31
0.0
  0
LINE
  5
2BD63
330
1F
100
AcDbEntity
  8
Web
  6
HIDDEN
100
AcDbLine
 10
67.32248063995415
 20
68.71287880099163
 30
0.0
 11
68.32248063995415
 21
68.7128788009916
 31
0.0
  0
LINE
  5
2BD64
330
1F
100
AcDbEntity
  8
Web
  6
HIDDEN
100
AcDbLine
 10
69.07248063995415
 20
68.7128788009916
 30
0.0
 11
69.53498063995424
 21
68.71287880099163
 31
0.0
  0
LINE
  5
2BD65
330
1F
100
AcDbEntity
  8
Web
  6
HIDDEN
100
AcDbLine
 10
70.03498063995424
 20
68.71287880099163
 30
0.0
 11
70.13498063995415
 21
68.7128788009916
 31
0.0
  0
LINE
  5
2BD66
330
1F
100
AcDbEntity
  8
Web
  6
HIDDEN
100
AcDbLine
 10
70.44748063995415
 20
67.21287880099163
 30
0.0
 11
68.07248063995415
 21
67.21287880099163
 31
0.0
  0
ARC
  5
2BD67
330
1F
100
AcDbEntity
  8
Web
  6
HIDDEN
100
AcDbCircle
 10
68.07248063995415
 20
66.46287880099163
 30
0.0
 40
0.75
100
AcDbArc
 50
90.0
 51
180.0
  0
ARC
  5
2BD68
330
1F
100
AcDbEntity
  8
Web
  6
HIDDEN
100
AcDbCircle
 10
70.44748063995415
 20
68.27537880099163
 30
0.0
 40
0.3125
100
AcDbArc
 50
180.0
 51
270.0
  0
LINE
  5
2BD69
330
1F
100
AcDbEntity
  8
Web
  6
HIDDEN
100
AcDbLine
 10
70.13498063995415
 20
68.27537880099163
 30
0.0
 11
70.13498063995415
 21
68.71287880099163
 31
0.0
  0
ARC
  5
2BD6A
330
1F
100
AcDbEntity
  8
Web
  6
HIDDEN
100
AcDbCircle
 10
69.78498063995424
 20
68.46287880099163
 30
0.0
 40
0.25
100
AcDbArc
 50
180.0
 51
0.0
  0
LINE
  5
2BD6B
330
1F
100
AcDbEntity
  8
Web
  6
HIDDEN
100
AcDbLine
 10
69.53498063995424
 20
68.46287880099163
 30
0.0
 11
69.53498063995424
 21
68.71287880099163
 31
0.0
  0
LINE
  5
2BD6C
330
1F
100
AcDbEntity
  8
Web
  6
HIDDEN
100
AcDbLine
 10
70.03498063995424
 20
68.46287880099163
 30
0.0
 11
70.03498063995424
 21
68.71287880099163
 31
0.0
  0
LINE
  5
2BD6D
330
1F
100
AcDbEntity
  8
Web
  6
HIDDEN
100
AcDbLine
 10
68.32248063995415
 20
68.33787880099163
 30
0.0
 11
68.32248063995415
 21
68.71287880099163
 31
0.0
  0
LINE
  5
2BD6E
330
1F
100
AcDbEntity
  8
Web
  6
HIDDEN
100
AcDbLine
 10
69.07248063995415
 20
68.33787880099163
 30
0.0
 11
69.07248063995415
 21
68.71287880099163
 31
0.0
  0
ARC
  5
2BD6F
330
1F
100
AcDbEntity
  8
Web
  6
HIDDEN
100
AcDbCircle
 10
68.69748063995415
 20
68.33787880099163
 30
0.0
 40
0.375
100
AcDbArc
 50
180.0
 51
0.0
  0
LINE
  5
2BD70
330
1F
100
AcDbEntity
  8
Web
  6
HIDDEN
100
AcDbLine
 10
68.32248063995415
 20
68.7128788009916
 30
0.0
 11
68.41346163995421
 21
68.71287880099163
 31
0.0
  0
LINE
  5
2BD71
330
1F
100
AcDbEntity
  8
Web
  6
HIDDEN
100
AcDbLine
 10
68.32248063995415
 20
68.44287880099162
 30
0.0
 11
68.43945646377425
 21
68.64592657710699
 31
0.0
  0
ARC
  5
2BD72
330
1F
100
AcDbEntity
  8
Web
  6
HIDDEN
100
AcDbCircle
 10
68.41346163995421
 20
68.66090219510971
 30
0.0
 40
0.03
100
AcDbArc
 50
330.053755447355
 51
0.0
  0
LINE
  5
2BD73
330
1F
100
AcDbEntity
  8
Web
  6
HIDDEN
100
AcDbLine
 10
68.44346163995417
 20
68.66090219510971
 30
0.0
 11
68.44346163995417
 21
68.68287880099163
 31
0.0
  0
ARC
  5
2BD74
330
1F
100
AcDbEntity
  8
Web
  6
HIDDEN
100
AcDbCircle
 10
68.41346163995421
 20
68.68287880099163
 30
0.0
 40
0.03
100
AcDbArc
 50
0.0
 51
90.00000000000321
  0
LINE
  5
2BD75
330
1F
100
AcDbEntity
  8
Web
  6
HIDDEN
100
AcDbLine
 10
69.07248063995415
 20
68.7128788009916
 30
0.0
 11
68.98149963995421
 21
68.71287880099163
 31
0.0
  0
LINE
  5
2BD76
330
1F
100
AcDbEntity
  8
Web
  6
HIDDEN
100
AcDbLine
 10
69.07248063995415
 20
68.44287880099162
 30
0.0
 11
68.95550481613416
 21
68.64592657710699
 31
0.0
  0
ARC
  5
2BD77
330
1F
100
AcDbEntity
  8
Web
  6
HIDDEN
100
AcDbCircle
 10
68.98149963995421
 20
68.66090219510971
 30
0.0
 40
0.03
100
AcDbArc
 50
180.0
 51
209.9462445526451
  0
LINE
  5
2BD78
330
1F
100
AcDbEntity
  8
Web
  6
HIDDEN
100
AcDbLine
 10
68.95149963995412
 20
68.66090219510971
 30
0.0
 11
68.95149963995412
 21
68.68287880099163
 31
0.0
  0
ARC
  5
2BD79
330
1F
100
AcDbEntity
  8
Web
  6
HIDDEN
100
AcDbCircle
 10
68.98149963995421
 20
68.68287880099163
 30
0.0
 40
0.03
100
AcDbArc
 50
89.99999999999674
 51
180.0
  0
LINE
  5
2BD7A
330
1F
100
AcDbEntity
  8
Web
  6
HIDDEN
100
AcDbLine
 10
73.57248063995415
 20
68.71287880099163
 30
0.0
 11
72.57248063995415
 21
68.7128788009916
 31
0.0
  0
LINE
  5
2BD7B
330
1F
100
AcDbEntity
  8
Web
  6
HIDDEN
100
AcDbLine
 10
71.82248063995415
 20
68.7128788009916
 30
0.0
 11
71.35998063995417
 21
68.71287880099163
 31
0.0
  0
LINE
  5
2BD7C
330
1F
100
AcDbEntity
  8
Web
  6
HIDDEN
100
AcDbLine
 10
70.85998063995417
 20
68.71287880099163
 30
0.0
 11
70.75998063995415
 21
68.7128788009916
 31
0.0
  0
LINE
  5
2BD7D
330
1F
100
AcDbEntity
  8
Web
  6
HIDDEN
100
AcDbLine
 10
70.44748063995415
 20
67.21287880099163
 30
0.0
 11
72.82248063995415
 21
67.21287880099163
 31
0.0
  0
ARC
  5
2BD7E
330
1F
100
AcDbEntity
  8
Web
  6
HIDDEN
100
AcDbCircle
 10
72.82248063995415
 20
66.46287880099163
 30
0.0
 40
0.75
100
AcDbArc
 50
0.0
 51
90.0
  0
ARC
  5
2BD7F
330
1F
100
AcDbEntity
  8
Web
  6
HIDDEN
100
AcDbCircle
 10
70.44748063995415
 20
68.27537880099163
 30
0.0
 40
0.3125
100
AcDbArc
 50
270.0
 51
0.0
  0
LINE
  5
2BD80
330
1F
100
AcDbEntity
  8
Web
  6
HIDDEN
100
AcDbLine
 10
70.75998063995415
 20
68.27537880099163
 30
0.0
 11
70.75998063995415
 21
68.71287880099163
 31
0.0
  0
ARC
  5
2BD81
330
1F
100
AcDbEntity
  8
Web
  6
HIDDEN
100
AcDbCircle
 10
71.10998063995417
 20
68.46287880099163
 30
0.0
 40
0.25
100
AcDbArc
 50
180.0
 51
0.0
  0
LINE
  5
2BD82
330
1F
100
AcDbEntity
  8
Web
  6
HIDDEN
100
AcDbLine
 10
71.35998063995417
 20
68.46287880099163
 30
0.0
 11
71.35998063995417
 21
68.71287880099163
 31
0.0
  0
LINE
  5
2BD83
330
1F
100
AcDbEntity
  8
Web
  6
HIDDEN
100
AcDbLine
 10
70.85998063995417
 20
68.46287880099163
 30
0.0
 11
70.85998063995417
 21
68.71287880099163
 31
0.0
  0
LINE
  5
2BD84
330
1F
100
AcDbEntity
  8
Web
  6
HIDDEN
100
AcDbLine
 10
72.57248063995415
 20
68.33787880099163
 30
0.0
 11
72.57248063995415
 21
68.71287880099163
 31
0.0
  0
LINE
  5
2BD85
330
1F
100
AcDbEntity
  8
Web
  6
HIDDEN
100
AcDbLine
 10
71.82248063995415
 20
68.33787880099163
 30
0.0
 11
71.82248063995415
 21
68.71287880099163
 31
0.0
  0
ARC
  5
2BD86
330
1F
100
AcDbEntity
  8
Web
  6
HIDDEN
100
AcDbCircle
 10
72.19748063995415
 20
68.33787880099163
 30
0.0
 40
0.375
100
AcDbArc
 50
180.0
 51
0.0
  0
LINE
  5
2BD87
330
1F
100
AcDbEntity
  8
Web
  6
HIDDEN
100
AcDbLine
 10
72.57248063995415
 20
68.7128788009916
 30
0.0
 11
72.4814996399542
 21
68.71287880099163
 31
0.0
  0
LINE
  5
2BD88
330
1F
100
AcDbEntity
  8
Web
  6
HIDDEN
100
AcDbLine
 10
72.57248063995415
 20
68.44287880099162
 30
0.0
 11
72.45550481613417
 21
68.64592657710699
 31
0.0
  0
ARC
  5
2BD89
330
1F
100
AcDbEntity
  8
Web
  6
HIDDEN
100
AcDbCircle
 10
72.4814996399542
 20
68.66090219510971
 30
0.0
 40
0.03
100
AcDbArc
 50
180.0
 51
209.9462445526451
  0
LINE
  5
2BD8A
330
1F
100
AcDbEntity
  8
Web
  6
HIDDEN
100
AcDbLine
 10
72.45149963995412
 20
68.66090219510971
 30
0.0
 11
72.45149963995412
 21
68.68287880099163
 31
0.0
  0
ARC
  5
2BD8B
330
1F
100
AcDbEntity
  8
Web
  6
HIDDEN
100
AcDbCircle
 10
72.4814996399542
 20
68.68287880099163
 30
0.0
 40
0.03
100
AcDbArc
 50
89.99999999999674
 51
180.0
  0
LINE
  5
2BD8C
330
1F
100
AcDbEntity
  8
Web
  6
HIDDEN
100
AcDbLine
 10
71.82248063995415
 20
68.7128788009916
 30
0.0
 11
71.91346163995421
 21
68.71287880099163
 31
0.0
  0
LINE
  5
2BD8D
330
1F
100
AcDbEntity
  8
Web
  6
HIDDEN
100
AcDbLine
 10
71.82248063995415
 20
68.44287880099162
 30
0.0
 11
71.93945646377425
 21
68.64592657710699
 31
0.0
  0
ARC
  5
2BD8E
330
1F
100
AcDbEntity
  8
Web
  6
HIDDEN
100
AcDbCircle
 10
71.91346163995421
 20
68.66090219510971
 30
0.0
 40
0.03
100
AcDbArc
 50
330.053755447355
 51
0.0
  0
LINE
  5
2BD8F
330
1F
100
AcDbEntity
  8
Web
  6
HIDDEN
100
AcDbLine
 10
71.94346163995418
 20
68.66090219510971
 30
0.0
 11
71.94346163995418
 21
68.68287880099163
 31
0.0
  0
ARC
  5
2BD90
330
1F
100
AcDbEntity
  8
Web
  6
HIDDEN
100
AcDbCircle
 10
71.91346163995421
 20
68.68287880099163
 30
0.0
 40
0.03
100
AcDbArc
 50
0.0
 51
90.00000000000321
  0
LINE
  5
2BD91
330
1F
100
AcDbEntity
  8
Web
  6
HIDDEN
100
AcDbLine
 10
67.32248063995415
 20
61.96287880099163
 30
0.0
 11
68.32248063995415
 21
61.96287880099163
 31
0.0
  0
LINE
  5
2BD92
330
1F
100
AcDbEntity
  8
Web
  6
HIDDEN
100
AcDbLine
 10
69.07248063995415
 20
61.96287880099163
 30
0.0
 11
69.53498063995424
 21
61.96287880099163
 31
0.0
  0
LINE
  5
2BD93
330
1F
100
AcDbEntity
  8
Web
  6
HIDDEN
100
AcDbLine
 10
70.03498063995424
 20
61.9628788009916
 30
0.0
 11
70.13498063995415
 21
61.96287880099163
 31
0.0
  0
LINE
  5
2BD94
330
1F
100
AcDbEntity
  8
Web
  6
HIDDEN
100
AcDbLine
 10
70.44748063995415
 20
63.4628788009916
 30
0.0
 11
68.07248063995415
 21
63.46287880099163
 31
0.0
  0
ARC
  5
2BD95
330
1F
100
AcDbEntity
  8
Web
  6
HIDDEN
100
AcDbCircle
 10
68.07248063995415
 20
64.21287880099163
 30
0.0
 40
0.75
100
AcDbArc
 50
180.0
 51
270.0
  0
ARC
  5
2BD96
330
1F
100
AcDbEntity
  8
Web
  6
HIDDEN
100
AcDbCircle
 10
70.44748063995415
 20
62.4003788009916
 30
0.0
 40
0.3125
100
AcDbArc
 50
90.0
 51
180.0
  0
LINE
  5
2BD97
330
1F
100
AcDbEntity
  8
Web
  6
HIDDEN
100
AcDbLine
 10
70.13498063995415
 20
62.4003788009916
 30
0.0
 11
70.13498063995415
 21
61.9628788009916
 31
0.0
  0
ARC
  5
2BD98
330
1F
100
AcDbEntity
  8
Web
  6
HIDDEN
100
AcDbCircle
 10
69.78498063995424
 20
62.21287880099163
 30
0.0
 40
0.25
100
AcDbArc
 50
0.0
 51
180.0
  0
LINE
  5
2BD99
330
1F
100
AcDbEntity
  8
Web
  6
HIDDEN
100
AcDbLine
 10
69.53498063995424
 20
62.21287880099163
 30
0.0
 11
69.53498063995424
 21
61.96287880099163
 31
0.0
  0
LINE
  5
2BD9A
330
1F
100
AcDbEntity
  8
Web
  6
HIDDEN
100
AcDbLine
 10
70.03498063995424
 20
62.2128788009916
 30
0.0
 11
70.03498063995424
 21
61.9628788009916
 31
0.0
  0
LINE
  5
2BD9B
330
1F
100
AcDbEntity
  8
Web
  6
HIDDEN
100
AcDbLine
 10
68.32248063995415
 20
62.33787880099163
 30
0.0
 11
68.32248063995415
 21
61.96287880099163
 31
0.0
  0
LINE
  5
2BD9C
330
1F
100
AcDbEntity
  8
Web
  6
HIDDEN
100
AcDbLine
 10
69.07248063995415
 20
62.33787880099163
 30
0.0
 11
69.07248063995415
 21
61.96287880099163
 31
0.0
  0
ARC
  5
2BD9D
330
1F
100
AcDbEntity
  8
Web
  6
HIDDEN
100
AcDbCircle
 10
68.69748063995415
 20
62.33787880099163
 30
0.0
 40
0.375
100
AcDbArc
 50
0.0
 51
180.0
  0
LINE
  5
2BD9E
330
1F
100
AcDbEntity
  8
Web
  6
HIDDEN
100
AcDbLine
 10
68.32248063995415
 20
61.96287880099163
 30
0.0
 11
68.41346163995421
 21
61.96287880099163
 31
0.0
  0
LINE
  5
2BD9F
330
1F
100
AcDbEntity
  8
Web
  6
HIDDEN
100
AcDbLine
 10
68.32248063995415
 20
62.23287880099164
 30
0.0
 11
68.43945646377425
 21
62.02983102487625
 31
0.0
  0
ARC
  5
2BDA0
330
1F
100
AcDbEntity
  8
Web
  6
HIDDEN
100
AcDbCircle
 10
68.41346163995421
 20
62.01485540687352
 30
0.0
 40
0.03
100
AcDbArc
 50
0.0
 51
29.9462445526451
  0
LINE
  5
2BDA1
330
1F
100
AcDbEntity
  8
Web
  6
HIDDEN
100
AcDbLine
 10
68.44346163995417
 20
62.01485540687352
 30
0.0
 11
68.44346163995417
 21
61.99287880099163
 31
0.0
  0
ARC
  5
2BDA2
330
1F
100
AcDbEntity
  8
Web
  6
HIDDEN
100
AcDbCircle
 10
68.41346163995421
 20
61.99287880099163
 30
0.0
 40
0.03
100
AcDbArc
 50
269.9999999999968
 51
0.0
  0
LINE
  5
2BDA3
330
1F
100
AcDbEntity
  8
Web
  6
HIDDEN
100
AcDbLine
 10
69.07248063995415
 20
61.96287880099163
 30
0.0
 11
68.98149963995421
 21
61.96287880099163
 31
0.0
  0
LINE
  5
2BDA4
330
1F
100
AcDbEntity
  8
Web
  6
HIDDEN
100
AcDbLine
 10
69.07248063995415
 20
62.23287880099164
 30
0.0
 11
68.95550481613416
 21
62.02983102487625
 31
0.0
  0
ARC
  5
2BDA5
330
1F
100
AcDbEntity
  8
Web
  6
HIDDEN
100
AcDbCircle
 10
68.98149963995421
 20
62.01485540687352
 30
0.0
 40
0.03
100
AcDbArc
 50
150.0537554473549
 51
180.0
  0
LINE
  5
2BDA6
330
1F
100
AcDbEntity
  8
Web
  6
HIDDEN
100
AcDbLine
 10
68.95149963995412
 20
62.01485540687352
 30
0.0
 11
68.95149963995412
 21
61.99287880099163
 31
0.0
  0
ARC
  5
2BDA7
330
1F
100
AcDbEntity
  8
Web
  6
HIDDEN
100
AcDbCircle
 10
68.98149963995421
 20
61.99287880099163
 30
0.0
 40
0.03
100
AcDbArc
 50
180.0
 51
270.0000000000033
  0
LINE
  5
2BDA8
330
1F
100
AcDbEntity
  8
Web
  6
HIDDEN
100
AcDbLine
 10
73.57248063995415
 20
61.9628788009916
 30
0.0
 11
72.57248063995415
 21
61.96287880099163
 31
0.0
  0
LINE
  5
2BDA9
330
1F
100
AcDbEntity
  8
Web
  6
HIDDEN
100
AcDbLine
 10
71.82248063995415
 20
61.96287880099163
 30
0.0
 11
71.35998063995417
 21
61.9628788009916
 31
0.0
  0
LINE
  5
2BDAA
330
1F
100
AcDbEntity
  8
Web
  6
HIDDEN
100
AcDbLine
 10
70.85998063995417
 20
61.9628788009916
 30
0.0
 11
70.75998063995415
 21
61.96287880099163
 31
0.0
  0
LINE
  5
2BDAB
330
1F
100
AcDbEntity
  8
Web
  6
HIDDEN
100
AcDbLine
 10
70.44748063995415
 20
63.4628788009916
 30
0.0
 11
72.82248063995415
 21
63.4628788009916
 31
0.0
  0
ARC
  5
2BDAC
330
1F
100
AcDbEntity
  8
Web
  6
HIDDEN
100
AcDbCircle
 10
72.82248063995415
 20
64.21287880099161
 30
0.0
 40
0.75
100
AcDbArc
 50
270.0
 51
0.0
  0
ARC
  5
2BDAD
330
1F
100
AcDbEntity
  8
Web
  6
HIDDEN
100
AcDbCircle
 10
70.44748063995415
 20
62.4003788009916
 30
0.0
 40
0.3125
100
AcDbArc
 50
0.0
 51
90.0
  0
LINE
  5
2BDAE
330
1F
100
AcDbEntity
  8
Web
  6
HIDDEN
100
AcDbLine
 10
70.75998063995415
 20
62.4003788009916
 30
0.0
 11
70.75998063995415
 21
61.9628788009916
 31
0.0
  0
ARC
  5
2BDAF
330
1F
100
AcDbEntity
  8
Web
  6
HIDDEN
100
AcDbCircle
 10
71.10998063995417
 20
62.2128788009916
 30
0.0
 40
0.25
100
AcDbArc
 50
0.0
 51
180.0
  0
LINE
  5
2BDB0
330
1F
100
AcDbEntity
  8
Web
  6
HIDDEN
100
AcDbLine
 10
71.35998063995417
 20
62.2128788009916
 30
0.0
 11
71.35998063995417
 21
61.9628788009916
 31
0.0
  0
LINE
  5
2BDB1
330
1F
100
AcDbEntity
  8
Web
  6
HIDDEN
100
AcDbLine
 10
70.85998063995417
 20
62.2128788009916
 30
0.0
 11
70.85998063995417
 21
61.9628788009916
 31
0.0
  0
LINE
  5
2BDB2
330
1F
100
AcDbEntity
  8
Web
  6
HIDDEN
100
AcDbLine
 10
72.57248063995415
 20
62.33787880099161
 30
0.0
 11
72.57248063995415
 21
61.9628788009916
 31
0.0
  0
LINE
  5
2BDB3
330
1F
100
AcDbEntity
  8
Web
  6
HIDDEN
100
AcDbLine
 10
71.82248063995415
 20
62.33787880099161
 30
0.0
 11
71.82248063995415
 21
61.9628788009916
 31
0.0
  0
ARC
  5
2BDB4
330
1F
100
AcDbEntity
  8
Web
  6
HIDDEN
100
AcDbCircle
 10
72.19748063995415
 20
62.33787880099161
 30
0.0
 40
0.375
100
AcDbArc
 50
0.0
 51
180.0
  0
LINE
  5
2BDB5
330
1F
100
AcDbEntity
  8
Web
  6
HIDDEN
100
AcDbLine
 10
72.57248063995415
 20
61.96287880099163
 30
0.0
 11
72.4814996399542
 21
61.9628788009916
 31
0.0
  0
LINE
  5
2BDB6
330
1F
100
AcDbEntity
  8
Web
  6
HIDDEN
100
AcDbLine
 10
72.57248063995415
 20
62.23287880099161
 30
0.0
 11
72.45550481613417
 21
62.02983102487625
 31
0.0
  0
ARC
  5
2BDB7
330
1F
100
AcDbEntity
  8
Web
  6
HIDDEN
100
AcDbCircle
 10
72.4814996399542
 20
62.01485540687352
 30
0.0
 40
0.03
100
AcDbArc
 50
150.0537554473549
 51
180.0
  0
LINE
  5
2BDB8
330
1F
100
AcDbEntity
  8
Web
  6
HIDDEN
100
AcDbLine
 10
72.45149963995412
 20
62.01485540687352
 30
0.0
 11
72.45149963995412
 21
61.9928788009916
 31
0.0
  0
ARC
  5
2BDB9
330
1F
100
AcDbEntity
  8
Web
  6
HIDDEN
100
AcDbCircle
 10
72.4814996399542
 20
61.9928788009916
 30
0.0
 40
0.03
100
AcDbArc
 50
180.0
 51
270.0000000000033
  0
LINE
  5
2BDBA
330
1F
100
AcDbEntity
  8
Web
  6
HIDDEN
100
AcDbLine
 10
71.82248063995415
 20
61.96287880099163
 30
0.0
 11
71.91346163995421
 21
61.9628788009916
 31
0.0
  0
LINE
  5
2BDBB
330
1F
100
AcDbEntity
  8
Web
  6
HIDDEN
100
AcDbLine
 10
71.82248063995415
 20
62.23287880099161
 30
0.0
 11
71.93945646377425
 21
62.02983102487625
 31
0.0
  0
ARC
  5
2BDBC
330
1F
100
AcDbEntity
  8
Web
  6
HIDDEN
100
AcDbCircle
 10
71.91346163995421
 20
62.01485540687352
 30
0.0
 40
0.03
100
AcDbArc
 50
0.0
 51
29.9462445526451
  0
LINE
  5
2BDBD
330
1F
100
AcDbEntity
  8
Web
  6
HIDDEN
100
AcDbLine
 10
71.94346163995418
 20
62.01485540687352
 30
0.0
 11
71.94346163995418
 21
61.9928788009916
 31
0.0
  0
ARC
  5
2BDBE
330
1F
100
AcDbEntity
  8
Web
  6
HIDDEN
100
AcDbCircle
 10
71.91346163995421
 20
61.9928788009916
 30
0.0
 40
0.03
100
AcDbArc
 50
269.9999999999968
 51
0.0
  0
LINE
  5
2BDBF
330
1F
100
AcDbEntity
  8
Block
100
AcDbLine
 10
64.57248063995415
 20
57.33787880099163
 30
0.0
 11
67.32248063995415
 21
57.33787880099163
 31
0.0
  0
LINE
  5
2BDC0
330
1F
100
AcDbEntity
  8
Block
100
AcDbLine
 10
64.57248063995415
 20
57.33787880099163
 30
0.0
 11
67.32248063995415
 21
57.33787880099163
 31
0.0
  0
LINE
  5
2BDC1
330
1F
100
AcDbEntity
  8
Block
100
AcDbLine
 10
73.57248063995415
 20
57.33787880099163
 30
0.0
 11
76.32248063995415
 21
57.33787880099163
 31
0.0
  0
LINE
  5
2BDC2
330
1F
100
AcDbEntity
  8
Block
100
AcDbLine
 10
64.57248063995415
 20
57.33787880099163
 30
0.0
 11
67.32248063995415
 21
57.33787880099163
 31
0.0
  0
LINE
  5
2BDC3
330
1F
100
AcDbEntity
  8
Block
100
AcDbLine
 10
73.57248063995415
 20
57.33787880099163
 30
0.0
 11
76.32248063995415
 21
57.33787880099163
 31
0.0
  0
LINE
  5
2BDC4
330
1F
100
AcDbEntity
  8
Block
100
AcDbLine
 10
67.32248063995415
 20
57.33787880099163
 30
0.0
 11
64.57248063995415
 21
57.33787880099163
 31
0.0
  0
LINE
  5
2BDC5
330
1F
100
AcDbEntity
  8
Block
100
AcDbLine
 10
76.32248063995415
 20
57.33787880099163
 30
0.0
 11
73.57248063995415
 21
57.33787880099163
 31
0.0
  0
LINE
  5
2BDC6
330
1F
100
AcDbEntity
  8
Block
100
AcDbLine
 10
67.32248063995415
 20
73.3378788009916
 30
0.0
 11
67.32248063995415
 21
57.33787880099163
 31
0.0
  0
LINE
  5
2BDC7
330
1F
100
AcDbEntity
  8
Block
100
AcDbLine
 10
64.57248063995415
 20
57.33787880099163
 30
0.0
 11
64.57248063995415
 21
73.3378788009916
 31
0.0
  0
LINE
  5
2BDC8
330
1F
100
AcDbEntity
  8
Block
100
AcDbLine
 10
64.57248063995415
 20
73.3378788009916
 30
0.0
 11
67.32248063995415
 21
73.3378788009916
 31
0.0
  0
LINE
  5
2BDC9
330
1F
100
AcDbEntity
  8
Block
100
AcDbLine
 10
64.57248063995415
 20
73.3378788009916
 30
0.0
 11
67.32248063995415
 21
73.3378788009916
 31
0.0
  0
LINE
  5
2BDCA
330
1F
100
AcDbEntity
  8
Block
100
AcDbLine
 10
73.57248063995415
 20
57.33787880099163
 30
0.0
 11
73.57248063995415
 21
73.3378788009916
 31
0.0
  0
LINE
  5
2BDCB
330
1F
100
AcDbEntity
  8
Block
100
AcDbLine
 10
73.57248063995415
 20
73.3378788009916
 30
0.0
 11
76.32248063995415
 21
73.3378788009916
 31
0.0
  0
LINE
  5
2BDCC
330
1F
100
AcDbEntity
  8
Block
100
AcDbLine
 10
76.32248063995415
 20
73.3378788009916
 30
0.0
 11
76.32248063995415
 21
57.33787880099163
 31
0.0
  0
LINE
  5
2BDCD
330
1F
100
AcDbEntity
  8
Block
100
AcDbLine
 10
64.57248063995415
 20
73.3378788009916
 30
0.0
 11
67.32248063995415
 21
73.3378788009916
 31
0.0
  0
LINE
  5
2BDCE
330
1F
100
AcDbEntity
  8
Block
100
AcDbLine
 10
73.57248063995415
 20
73.3378788009916
 30
0.0
 11
76.32248063995415
 21
73.3378788009916
 31
0.0
  0
LINE
  5
2BDCF
330
1F
100
AcDbEntity
  8
Web
  6
HIDDEN
100
AcDbLine
 10
67.32248063995415
 20
84.7128788009916
 30
0.0
 11
68.32248063995415
 21
84.71287880099158
 31
0.0
  0
LINE
  5
2BDD0
330
1F
100
AcDbEntity
  8
Web
  6
HIDDEN
100
AcDbLine
 10
69.07248063995415
 20
84.71287880099158
 30
0.0
 11
69.53498063995424
 21
84.7128788009916
 31
0.0
  0
LINE
  5
2BDD1
330
1F
100
AcDbEntity
  8
Web
  6
HIDDEN
100
AcDbLine
 10
70.03498063995424
 20
84.7128788009916
 30
0.0
 11
70.13498063995415
 21
84.71287880099158
 31
0.0
  0
LINE
  5
2BDD2
330
1F
100
AcDbEntity
  8
Web
  6
HIDDEN
100
AcDbLine
 10
70.44748063995415
 20
83.21287880099161
 30
0.0
 11
68.07248063995415
 21
83.21287880099161
 31
0.0
  0
ARC
  5
2BDD3
330
1F
100
AcDbEntity
  8
Web
  6
HIDDEN
100
AcDbCircle
 10
68.07248063995415
 20
82.4628788009916
 30
0.0
 40
0.75
100
AcDbArc
 50
90.0
 51
180.0
  0
ARC
  5
2BDD4
330
1F
100
AcDbEntity
  8
Web
  6
HIDDEN
100
AcDbCircle
 10
70.44748063995415
 20
84.2753788009916
 30
0.0
 40
0.3125
100
AcDbArc
 50
180.0
 51
270.0
  0
LINE
  5
2BDD5
330
1F
100
AcDbEntity
  8
Web
  6
HIDDEN
100
AcDbLine
 10
70.13498063995415
 20
84.2753788009916
 30
0.0
 11
70.13498063995415
 21
84.7128788009916
 31
0.0
  0
ARC
  5
2BDD6
330
1F
100
AcDbEntity
  8
Web
  6
HIDDEN
100
AcDbCircle
 10
69.78498063995424
 20
84.46287880099161
 30
0.0
 40
0.25
100
AcDbArc
 50
180.0
 51
0.0
  0
LINE
  5
2BDD7
330
1F
100
AcDbEntity
  8
Web
  6
HIDDEN
100
AcDbLine
 10
69.53498063995424
 20
84.46287880099161
 30
0.0
 11
69.53498063995424
 21
84.7128788009916
 31
0.0
  0
LINE
  5
2BDD8
330
1F
100
AcDbEntity
  8
Web
  6
HIDDEN
100
AcDbLine
 10
70.03498063995424
 20
84.46287880099161
 30
0.0
 11
70.03498063995424
 21
84.7128788009916
 31
0.0
  0
LINE
  5
2BDD9
330
1F
100
AcDbEntity
  8
Web
  6
HIDDEN
100
AcDbLine
 10
68.32248063995415
 20
84.3378788009916
 30
0.0
 11
68.32248063995415
 21
84.7128788009916
 31
0.0
  0
LINE
  5
2BDDA
330
1F
100
AcDbEntity
  8
Web
  6
HIDDEN
100
AcDbLine
 10
69.07248063995415
 20
84.3378788009916
 30
0.0
 11
69.07248063995415
 21
84.7128788009916
 31
0.0
  0
ARC
  5
2BDDB
330
1F
100
AcDbEntity
  8
Web
  6
HIDDEN
100
AcDbCircle
 10
68.69748063995415
 20
84.3378788009916
 30
0.0
 40
0.375
100
AcDbArc
 50
180.0
 51
0.0
  0
LINE
  5
2BDDC
330
1F
100
AcDbEntity
  8
Web
  6
HIDDEN
100
AcDbLine
 10
68.32248063995415
 20
84.71287880099158
 30
0.0
 11
68.41346163995421
 21
84.7128788009916
 31
0.0
  0
LINE
  5
2BDDD
330
1F
100
AcDbEntity
  8
Web
  6
HIDDEN
100
AcDbLine
 10
68.32248063995415
 20
84.44287880099158
 30
0.0
 11
68.43945646377425
 21
84.64592657710696
 31
0.0
  0
ARC
  5
2BDDE
330
1F
100
AcDbEntity
  8
Web
  6
HIDDEN
100
AcDbCircle
 10
68.41346163995421
 20
84.66090219510968
 30
0.0
 40
0.03
100
AcDbArc
 50
330.0537554473549
 51
0.0
  0
LINE
  5
2BDDF
330
1F
100
AcDbEntity
  8
Web
  6
HIDDEN
100
AcDbLine
 10
68.44346163995417
 20
84.66090219510968
 30
0.0
 11
68.44346163995417
 21
84.68287880099159
 31
0.0
  0
ARC
  5
2BDE0
330
1F
100
AcDbEntity
  8
Web
  6
HIDDEN
100
AcDbCircle
 10
68.41346163995421
 20
84.68287880099159
 30
0.0
 40
0.03
100
AcDbArc
 50
0.0
 51
90.00000000000321
  0
LINE
  5
2BDE1
330
1F
100
AcDbEntity
  8
Web
  6
HIDDEN
100
AcDbLine
 10
69.07248063995415
 20
84.71287880099158
 30
0.0
 11
68.98149963995421
 21
84.7128788009916
 31
0.0
  0
LINE
  5
2BDE2
330
1F
100
AcDbEntity
  8
Web
  6
HIDDEN
100
AcDbLine
 10
69.07248063995415
 20
84.44287880099158
 30
0.0
 11
68.95550481613416
 21
84.64592657710696
 31
0.0
  0
ARC
  5
2BDE3
330
1F
100
AcDbEntity
  8
Web
  6
HIDDEN
100
AcDbCircle
 10
68.98149963995421
 20
84.66090219510968
 30
0.0
 40
0.03
100
AcDbArc
 50
180.0
 51
209.9462445526451
  0
LINE
  5
2BDE4
330
1F
100
AcDbEntity
  8
Web
  6
HIDDEN
100
AcDbLine
 10
68.95149963995412
 20
84.66090219510968
 30
0.0
 11
68.95149963995412
 21
84.68287880099159
 31
0.0
  0
ARC
  5
2BDE5
330
1F
100
AcDbEntity
  8
Web
  6
HIDDEN
100
AcDbCircle
 10
68.98149963995421
 20
84.68287880099159
 30
0.0
 40
0.03
100
AcDbArc
 50
89.99999999999674
 51
180.0
  0
LINE
  5
2BDE6
330
1F
100
AcDbEntity
  8
Web
  6
HIDDEN
100
AcDbLine
 10
73.57248063995415
 20
84.7128788009916
 30
0.0
 11
72.57248063995415
 21
84.71287880099158
 31
0.0
  0
LINE
  5
2BDE7
330
1F
100
AcDbEntity
  8
Web
  6
HIDDEN
100
AcDbLine
 10
71.82248063995415
 20
84.71287880099158
 30
0.0
 11
71.35998063995417
 21
84.7128788009916
 31
0.0
  0
LINE
  5
2BDE8
330
1F
100
AcDbEntity
  8
Web
  6
HIDDEN
100
AcDbLine
 10
70.85998063995417
 20
84.7128788009916
 30
0.0
 11
70.75998063995415
 21
84.71287880099158
 31
0.0
  0
LINE
  5
2BDE9
330
1F
100
AcDbEntity
  8
Web
  6
HIDDEN
100
AcDbLine
 10
70.44748063995415
 20
83.21287880099161
 30
0.0
 11
72.82248063995415
 21
83.21287880099161
 31
0.0
  0
ARC
  5
2BDEA
330
1F
100
AcDbEntity
  8
Web
  6
HIDDEN
100
AcDbCircle
 10
72.82248063995415
 20
82.4628788009916
 30
0.0
 40
0.75
100
AcDbArc
 50
0.0
 51
90.0
  0
ARC
  5
2BDEB
330
1F
100
AcDbEntity
  8
Web
  6
HIDDEN
100
AcDbCircle
 10
70.44748063995415
 20
84.2753788009916
 30
0.0
 40
0.3125
100
AcDbArc
 50
270.0
 51
0.0
  0
LINE
  5
2BDEC
330
1F
100
AcDbEntity
  8
Web
  6
HIDDEN
100
AcDbLine
 10
70.75998063995415
 20
84.2753788009916
 30
0.0
 11
70.75998063995415
 21
84.7128788009916
 31
0.0
  0
ARC
  5
2BDED
330
1F
100
AcDbEntity
  8
Web
  6
HIDDEN
100
AcDbCircle
 10
71.10998063995417
 20
84.46287880099161
 30
0.0
 40
0.25
100
AcDbArc
 50
180.0
 51
0.0
  0
LINE
  5
2BDEE
330
1F
100
AcDbEntity
  8
Web
  6
HIDDEN
100
AcDbLine
 10
71.35998063995417
 20
84.46287880099161
 30
0.0
 11
71.35998063995417
 21
84.7128788009916
 31
0.0
  0
LINE
  5
2BDEF
330
1F
100
AcDbEntity
  8
Web
  6
HIDDEN
100
AcDbLine
 10
70.85998063995417
 20
84.46287880099161
 30
0.0
 11
70.85998063995417
 21
84.7128788009916
 31
0.0
  0
LINE
  5
2BDF0
330
1F
100
AcDbEntity
  8
Web
  6
HIDDEN
100
AcDbLine
 10
72.57248063995415
 20
84.3378788009916
 30
0.0
 11
72.57248063995415
 21
84.7128788009916
 31
0.0
  0
LINE
  5
2BDF1
330
1F
100
AcDbEntity
  8
Web
  6
HIDDEN
100
AcDbLine
 10
71.82248063995415
 20
84.3378788009916
 30
0.0
 11
71.82248063995415
 21
84.7128788009916
 31
0.0
  0
ARC
  5
2BDF2
330
1F
100
AcDbEntity
  8
Web
  6
HIDDEN
100
AcDbCircle
 10
72.19748063995415
 20
84.3378788009916
 30
0.0
 40
0.375
100
AcDbArc
 50
180.0
 51
0.0
  0
LINE
  5
2BDF3
330
1F
100
AcDbEntity
  8
Web
  6
HIDDEN
100
AcDbLine
 10
72.57248063995415
 20
84.71287880099158
 30
0.0
 11
72.4814996399542
 21
84.7128788009916
 31
0.0
  0
LINE
  5
2BDF4
330
1F
100
AcDbEntity
  8
Web
  6
HIDDEN
100
AcDbLine
 10
72.57248063995415
 20
84.44287880099158
 30
0.0
 11
72.45550481613417
 21
84.64592657710696
 31
0.0
  0
ARC
  5
2BDF5
330
1F
100
AcDbEntity
  8
Web
  6
HIDDEN
100
AcDbCircle
 10
72.4814996399542
 20
84.66090219510968
 30
0.0
 40
0.03
100
AcDbArc
 50
180.0
 51
209.9462445526451
  0
LINE
  5
2BDF6
330
1F
100
AcDbEntity
  8
Web
  6
HIDDEN
100
AcDbLine
 10
72.45149963995412
 20
84.66090219510968
 30
0.0
 11
72.45149963995412
 21
84.68287880099159
 31
0.0
  0
ARC
  5
2BDF7
330
1F
100
AcDbEntity
  8
Web
  6
HIDDEN
100
AcDbCircle
 10
72.4814996399542
 20
84.68287880099159
 30
0.0
 40
0.03
100
AcDbArc
 50
89.99999999999674
 51
180.0
  0
LINE
  5
2BDF8
330
1F
100
AcDbEntity
  8
Web
  6
HIDDEN
100
AcDbLine
 10
71.82248063995415
 20
84.71287880099158
 30
0.0
 11
71.91346163995421
 21
84.7128788009916
 31
0.0
  0
LINE
  5
2BDF9
330
1F
100
AcDbEntity
  8
Web
  6
HIDDEN
100
AcDbLine
 10
71.82248063995415
 20
84.44287880099158
 30
0.0
 11
71.93945646377425
 21
84.64592657710696
 31
0.0
  0
ARC
  5
2BDFA
330
1F
100
AcDbEntity
  8
Web
  6
HIDDEN
100
AcDbCircle
 10
71.91346163995421
 20
84.66090219510968
 30
0.0
 40
0.03
100
AcDbArc
 50
330.0537554473549
 51
0.0
  0
LINE
  5
2BDFB
330
1F
100
AcDbEntity
  8
Web
  6
HIDDEN
100
AcDbLine
 10
71.94346163995418
 20
84.66090219510968
 30
0.0
 11
71.94346163995418
 21
84.68287880099159
 31
0.0
  0
ARC
  5
2BDFC
330
1F
100
AcDbEntity
  8
Web
  6
HIDDEN
100
AcDbCircle
 10
71.91346163995421
 20
84.68287880099159
 30
0.0
 40
0.03
100
AcDbArc
 50
0.0
 51
90.00000000000321
  0
LINE
  5
2BDFD
330
1F
100
AcDbEntity
  8
Web
  6
HIDDEN
100
AcDbLine
 10
67.32248063995415
 20
77.96287880099161
 30
0.0
 11
68.32248063995415
 21
77.96287880099161
 31
0.0
  0
LINE
  5
2BDFE
330
1F
100
AcDbEntity
  8
Web
  6
HIDDEN
100
AcDbLine
 10
69.07248063995415
 20
77.96287880099161
 30
0.0
 11
69.53498063995424
 21
77.96287880099161
 31
0.0
  0
LINE
  5
2BDFF
330
1F
100
AcDbEntity
  8
Web
  6
HIDDEN
100
AcDbLine
 10
70.03498063995424
 20
77.96287880099157
 30
0.0
 11
70.13498063995415
 21
77.96287880099161
 31
0.0
  0
LINE
  5
2BE00
330
1F
100
AcDbEntity
  8
Web
  6
HIDDEN
100
AcDbLine
 10
70.44748063995415
 20
79.46287880099157
 30
0.0
 11
68.07248063995415
 21
79.4628788009916
 31
0.0
  0
ARC
  5
2BE01
330
1F
100
AcDbEntity
  8
Web
  6
HIDDEN
100
AcDbCircle
 10
68.07248063995415
 20
80.2128788009916
 30
0.0
 40
0.75
100
AcDbArc
 50
180.0
 51
270.0
  0
ARC
  5
2BE02
330
1F
100
AcDbEntity
  8
Web
  6
HIDDEN
100
AcDbCircle
 10
70.44748063995415
 20
78.40037880099157
 30
0.0
 40
0.3125
100
AcDbArc
 50
90.0
 51
180.0
  0
LINE
  5
2BE03
330
1F
100
AcDbEntity
  8
Web
  6
HIDDEN
100
AcDbLine
 10
70.13498063995415
 20
78.40037880099157
 30
0.0
 11
70.13498063995415
 21
77.96287880099157
 31
0.0
  0
ARC
  5
2BE04
330
1F
100
AcDbEntity
  8
Web
  6
HIDDEN
100
AcDbCircle
 10
69.78498063995424
 20
78.2128788009916
 30
0.0
 40
0.25
100
AcDbArc
 50
0.0
 51
180.0
  0
LINE
  5
2BE05
330
1F
100
AcDbEntity
  8
Web
  6
HIDDEN
100
AcDbLine
 10
69.53498063995424
 20
78.2128788009916
 30
0.0
 11
69.53498063995424
 21
77.96287880099161
 31
0.0
  0
LINE
  5
2BE06
330
1F
100
AcDbEntity
  8
Web
  6
HIDDEN
100
AcDbLine
 10
70.03498063995424
 20
78.21287880099157
 30
0.0
 11
70.03498063995424
 21
77.96287880099157
 31
0.0
  0
LINE
  5
2BE07
330
1F
100
AcDbEntity
  8
Web
  6
HIDDEN
100
AcDbLine
 10
68.32248063995415
 20
78.3378788009916
 30
0.0
 11
68.32248063995415
 21
77.96287880099161
 31
0.0
  0
LINE
  5
2BE08
330
1F
100
AcDbEntity
  8
Web
  6
HIDDEN
100
AcDbLine
 10
69.07248063995415
 20
78.3378788009916
 30
0.0
 11
69.07248063995415
 21
77.96287880099161
 31
0.0
  0
ARC
  5
2BE09
330
1F
100
AcDbEntity
  8
Web
  6
HIDDEN
100
AcDbCircle
 10
68.69748063995415
 20
78.3378788009916
 30
0.0
 40
0.375
100
AcDbArc
 50
0.0
 51
180.0
  0
LINE
  5
2BE0A
330
1F
100
AcDbEntity
  8
Web
  6
HIDDEN
100
AcDbLine
 10
68.32248063995415
 20
77.96287880099161
 30
0.0
 11
68.41346163995421
 21
77.96287880099161
 31
0.0
  0
LINE
  5
2BE0B
330
1F
100
AcDbEntity
  8
Web
  6
HIDDEN
100
AcDbLine
 10
68.32248063995415
 20
78.23287880099162
 30
0.0
 11
68.43945646377425
 21
78.02983102487622
 31
0.0
  0
ARC
  5
2BE0C
330
1F
100
AcDbEntity
  8
Web
  6
HIDDEN
100
AcDbCircle
 10
68.41346163995421
 20
78.01485540687349
 30
0.0
 40
0.03
100
AcDbArc
 50
0.0
 51
29.94624455264506
  0
LINE
  5
2BE0D
330
1F
100
AcDbEntity
  8
Web
  6
HIDDEN
100
AcDbLine
 10
68.44346163995417
 20
78.01485540687349
 30
0.0
 11
68.44346163995417
 21
77.99287880099161
 31
0.0
  0
ARC
  5
2BE0E
330
1F
100
AcDbEntity
  8
Web
  6
HIDDEN
100
AcDbCircle
 10
68.41346163995421
 20
77.99287880099161
 30
0.0
 40
0.03
100
AcDbArc
 50
269.9999999999968
 51
0.0
  0
LINE
  5
2BE0F
330
1F
100
AcDbEntity
  8
Web
  6
HIDDEN
100
AcDbLine
 10
69.07248063995415
 20
77.96287880099161
 30
0.0
 11
68.98149963995421
 21
77.96287880099161
 31
0.0
  0
LINE
  5
2BE10
330
1F
100
AcDbEntity
  8
Web
  6
HIDDEN
100
AcDbLine
 10
69.07248063995415
 20
78.23287880099162
 30
0.0
 11
68.95550481613416
 21
78.02983102487622
 31
0.0
  0
ARC
  5
2BE11
330
1F
100
AcDbEntity
  8
Web
  6
HIDDEN
100
AcDbCircle
 10
68.98149963995421
 20
78.01485540687349
 30
0.0
 40
0.03
100
AcDbArc
 50
150.0537554473549
 51
180.0
  0
LINE
  5
2BE12
330
1F
100
AcDbEntity
  8
Web
  6
HIDDEN
100
AcDbLine
 10
68.95149963995412
 20
78.01485540687349
 30
0.0
 11
68.95149963995412
 21
77.99287880099161
 31
0.0
  0
ARC
  5
2BE13
330
1F
100
AcDbEntity
  8
Web
  6
HIDDEN
100
AcDbCircle
 10
68.98149963995421
 20
77.99287880099161
 30
0.0
 40
0.03
100
AcDbArc
 50
180.0
 51
270.0000000000033
  0
LINE
  5
2BE14
330
1F
100
AcDbEntity
  8
Web
  6
HIDDEN
100
AcDbLine
 10
73.57248063995415
 20
77.96287880099157
 30
0.0
 11
72.57248063995415
 21
77.96287880099161
 31
0.0
  0
LINE
  5
2BE15
330
1F
100
AcDbEntity
  8
Web
  6
HIDDEN
100
AcDbLine
 10
71.82248063995415
 20
77.96287880099161
 30
0.0
 11
71.35998063995417
 21
77.96287880099157
 31
0.0
  0
LINE
  5
2BE16
330
1F
100
AcDbEntity
  8
Web
  6
HIDDEN
100
AcDbLine
 10
70.85998063995417
 20
77.96287880099157
 30
0.0
 11
70.75998063995415
 21
77.96287880099161
 31
0.0
  0
LINE
  5
2BE17
330
1F
100
AcDbEntity
  8
Web
  6
HIDDEN
100
AcDbLine
 10
70.44748063995415
 20
79.46287880099157
 30
0.0
 11
72.82248063995415
 21
79.46287880099157
 31
0.0
  0
ARC
  5
2BE18
330
1F
100
AcDbEntity
  8
Web
  6
HIDDEN
100
AcDbCircle
 10
72.82248063995415
 20
80.21287880099157
 30
0.0
 40
0.75
100
AcDbArc
 50
270.0
 51
0.0
  0
ARC
  5
2BE19
330
1F
100
AcDbEntity
  8
Web
  6
HIDDEN
100
AcDbCircle
 10
70.44748063995415
 20
78.40037880099157
 30
0.0
 40
0.3125
100
AcDbArc
 50
0.0
 51
90.0
  0
LINE
  5
2BE1A
330
1F
100
AcDbEntity
  8
Web
  6
HIDDEN
100
AcDbLine
 10
70.75998063995415
 20
78.40037880099157
 30
0.0
 11
70.75998063995415
 21
77.96287880099157
 31
0.0
  0
ARC
  5
2BE1B
330
1F
100
AcDbEntity
  8
Web
  6
HIDDEN
100
AcDbCircle
 10
71.10998063995417
 20
78.21287880099157
 30
0.0
 40
0.25
100
AcDbArc
 50
0.0
 51
180.0
  0
LINE
  5
2BE1C
330
1F
100
AcDbEntity
  8
Web
  6
HIDDEN
100
AcDbLine
 10
71.35998063995417
 20
78.21287880099157
 30
0.0
 11
71.35998063995417
 21
77.96287880099157
 31
0.0
  0
LINE
  5
2BE1D
330
1F
100
AcDbEntity
  8
Web
  6
HIDDEN
100
AcDbLine
 10
70.85998063995417
 20
78.21287880099157
 30
0.0
 11
70.85998063995417
 21
77.96287880099157
 31
0.0
  0
LINE
  5
2BE1E
330
1F
100
AcDbEntity
  8
Web
  6
HIDDEN
100
AcDbLine
 10
72.57248063995415
 20
78.33787880099158
 30
0.0
 11
72.57248063995415
 21
77.96287880099157
 31
0.0
  0
LINE
  5
2BE1F
330
1F
100
AcDbEntity
  8
Web
  6
HIDDEN
100
AcDbLine
 10
71.82248063995415
 20
78.33787880099158
 30
0.0
 11
71.82248063995415
 21
77.96287880099157
 31
0.0
  0
ARC
  5
2BE20
330
1F
100
AcDbEntity
  8
Web
  6
HIDDEN
100
AcDbCircle
 10
72.19748063995415
 20
78.33787880099158
 30
0.0
 40
0.375
100
AcDbArc
 50
0.0
 51
180.0
  0
LINE
  5
2BE21
330
1F
100
AcDbEntity
  8
Web
  6
HIDDEN
100
AcDbLine
 10
72.57248063995415
 20
77.96287880099161
 30
0.0
 11
72.4814996399542
 21
77.96287880099157
 31
0.0
  0
LINE
  5
2BE22
330
1F
100
AcDbEntity
  8
Web
  6
HIDDEN
100
AcDbLine
 10
72.57248063995415
 20
78.23287880099158
 30
0.0
 11
72.45550481613417
 21
78.02983102487622
 31
0.0
  0
ARC
  5
2BE23
330
1F
100
AcDbEntity
  8
Web
  6
HIDDEN
100
AcDbCircle
 10
72.4814996399542
 20
78.01485540687349
 30
0.0
 40
0.03
100
AcDbArc
 50
150.0537554473549
 51
180.0
  0
LINE
  5
2BE24
330
1F
100
AcDbEntity
  8
Web
  6
HIDDEN
100
AcDbLine
 10
72.45149963995412
 20
78.01485540687349
 30
0.0
 11
72.45149963995412
 21
77.99287880099157
 31
0.0
  0
ARC
  5
2BE25
330
1F
100
AcDbEntity
  8
Web
  6
HIDDEN
100
AcDbCircle
 10
72.4814996399542
 20
77.99287880099157
 30
0.0
 40
0.03
100
AcDbArc
 50
180.0
 51
270.0000000000033
  0
LINE
  5
2BE26
330
1F
100
AcDbEntity
  8
Web
  6
HIDDEN
100
AcDbLine
 10
71.82248063995415
 20
77.96287880099161
 30
0.0
 11
71.91346163995421
 21
77.96287880099157
 31
0.0
  0
LINE
  5
2BE27
330
1F
100
AcDbEntity
  8
Web
  6
HIDDEN
100
AcDbLine
 10
71.82248063995415
 20
78.23287880099158
 30
0.0
 11
71.93945646377425
 21
78.02983102487622
 31
0.0
  0
ARC
  5
2BE28
330
1F
100
AcDbEntity
  8
Web
  6
HIDDEN
100
AcDbCircle
 10
71.91346163995421
 20
78.01485540687349
 30
0.0
 40
0.03
100
AcDbArc
 50
0.0
 51
29.94624455264506
  0
LINE
  5
2BE29
330
1F
100
AcDbEntity
  8
Web
  6
HIDDEN
100
AcDbLine
 10
71.94346163995418
 20
78.01485540687349
 30
0.0
 11
71.94346163995418
 21
77.99287880099157
 31
0.0
  0
ARC
  5
2BE2A
330
1F
100
AcDbEntity
  8
Web
  6
HIDDEN
100
AcDbCircle
 10
71.91346163995421
 20
77.99287880099157
 30
0.0
 40
0.03
100
AcDbArc
 50
269.9999999999968
 51
0.0
  0
LINE
  5
2BE2B
330
1F
100
AcDbEntity
  8
Block
100
AcDbLine
 10
64.57248063995415
 20
73.3378788009916
 30
0.0
 11
67.32248063995415
 21
73.3378788009916
 31
0.0
  0
LINE
  5
2BE2C
330
1F
100
AcDbEntity
  8
Block
100
AcDbLine
 10
64.57248063995415
 20
73.3378788009916
 30
0.0
 11
67.32248063995415
 21
73.3378788009916
 31
0.0
  0
LINE
  5
2BE2D
330
1F
100
AcDbEntity
  8
Block
100
AcDbLine
 10
73.57248063995415
 20
73.3378788009916
 30
0.0
 11
76.32248063995415
 21
73.3378788009916
 31
0.0
  0
LINE
  5
2BE2E
330
1F
100
AcDbEntity
  8
Block
100
AcDbLine
 10
64.57248063995415
 20
73.3378788009916
 30
0.0
 11
67.32248063995415
 21
73.3378788009916
 31
0.0
  0
LINE
  5
2BE2F
330
1F
100
AcDbEntity
  8
Block
100
AcDbLine
 10
73.57248063995415
 20
73.3378788009916
 30
0.0
 11
76.32248063995415
 21
73.3378788009916
 31
0.0
  0
LINE
  5
2BE30
330
1F
100
AcDbEntity
  8
Block
100
AcDbLine
 10
67.32248063995415
 20
73.3378788009916
 30
0.0
 11
64.57248063995415
 21
73.3378788009916
 31
0.0
  0
LINE
  5
2BE31
330
1F
100
AcDbEntity
  8
Block
100
AcDbLine
 10
76.32248063995415
 20
73.3378788009916
 30
0.0
 11
73.57248063995415
 21
73.3378788009916
 31
0.0
  0
LINE
  5
2BE32
330
1F
100
AcDbEntity
  8
Block
100
AcDbLine
 10
67.32248063995415
 20
89.33787880099158
 30
0.0
 11
67.32248063995415
 21
73.3378788009916
 31
0.0
  0
LINE
  5
2BE33
330
1F
100
AcDbEntity
  8
Block
100
AcDbLine
 10
64.57248063995415
 20
73.3378788009916
 30
0.0
 11
64.57248063995415
 21
89.33787880099158
 31
0.0
  0
LINE
  5
2BE34
330
1F
100
AcDbEntity
  8
Block
100
AcDbLine
 10
64.57248063995415
 20
89.33787880099158
 30
0.0
 11
67.32248063995415
 21
89.33787880099158
 31
0.0
  0
LINE
  5
2BE35
330
1F
100
AcDbEntity
  8
Block
100
AcDbLine
 10
64.57248063995415
 20
89.33787880099158
 30
0.0
 11
67.32248063995415
 21
89.33787880099158
 31
0.0
  0
LINE
  5
2BE36
330
1F
100
AcDbEntity
  8
Block
100
AcDbLine
 10
73.57248063995415
 20
73.3378788009916
 30
0.0
 11
73.57248063995415
 21
89.33787880099158
 31
0.0
  0
LINE
  5
2BE37
330
1F
100
AcDbEntity
  8
Block
100
AcDbLine
 10
73.57248063995415
 20
89.33787880099158
 30
0.0
 11
76.32248063995415
 21
89.33787880099158
 31
0.0
  0
LINE
  5
2BE38
330
1F
100
AcDbEntity
  8
Block
100
AcDbLine
 10
76.32248063995415
 20
89.33787880099158
 30
0.0
 11
76.32248063995415
 21
73.3378788009916
 31
0.0
  0
LINE
  5
2BE39
330
1F
100
AcDbEntity
  8
Block
100
AcDbLine
 10
64.57248063995415
 20
89.33787880099158
 30
0.0
 11
67.32248063995415
 21
89.33787880099158
 31
0.0
  0
LINE
  5
2BE3A
330
1F
100
AcDbEntity
  8
Block
100
AcDbLine
 10
73.57248063995415
 20
89.33787880099158
 30
0.0
 11
76.32248063995415
 21
89.33787880099158
 31
0.0
  0
LINE
  5
2BE42
102
{ACAD_REACTORS
330
2BF1C
102
}
330
1F
100
AcDbEntity
  8
Block
100
AcDbLine
 10
76.82248063995415
 20
89.33787880099158
 30
0.0
 11
76.82248063995415
 21
41.33787880099167
 31
0.0
  0
LINE
  5
2BE46
330
1F
100
AcDbEntity
  8
Block
100
AcDbLine
 10
63.07248063995415
 20
41.33787880099167
 30
0.0
 11
63.07248063995415
 21
89.33787880099158
 31
0.0
  0
LINE
  5
2BE4A
102
{ACAD_REACTORS
330
2BF24
102
}
330
1F
100
AcDbEntity
  8
Block
100
AcDbLine
 10
62.44748063995415
 20
41.33787880099167
 30
0.0
 11
62.44748063995415
 21
89.33787880099158
 31
0.0
  0
LINE
  5
2BE4B
330
1F
100
AcDbEntity
  8
Block
100
AcDbLine
 10
61.82248063995416
 20
41.33787880099167
 30
0.0
 11
61.82248063995415
 21
89.33787880099158
 31
0.0
  0
LWPOLYLINE
  5
2BE64
330
1F
100
AcDbEntity
  8
Dim
  6
Continuous
100
AcDbPolyline
 90
        6
 70
     0
 43
0.0
 10
60.82248063995415
 20
89.33787880099158
 10
68.32248063995419
 20
89.33787880099155
 10
68.82248063995416
 20
87.96414009126422
 10
69.82248063995413
 20
90.71161751071887
 10
70.32248063995419
 20
89.33787880099155
 10
77.82248063995415
 20
89.33787880099158
  0
LWPOLYLINE
  5
2BE6E
330
1F
100
AcDbEntity
  8
Dim
  6
Continuous
100
AcDbPolyline
 90
        6
 70
     0
 43
0.0
 10
60.82248063995415
 20
41.33787880099167
 10
68.32248063995419
 20
41.33787880099165
 10
68.82248063995419
 20
39.96414009126431
 10
69.82248063995419
 20
42.71161751071895
 10
70.32248063995419
 20
41.33787880099165
 10
77.82248063995415
 20
41.33787880099167
  0
LINE
  5
2BEA9
330
1F
100
AcDbEntity
  8
Sills
100
AcDbLine
 10
64.57248063995415
 20
76.68403264714545
 30
0.0
 11
63.07248063995415
 21
76.68403264714545
 31
0.0
  0
LINE
  5
2BEAA
330
1F
100
AcDbEntity
  8
Sills
100
AcDbLine
 10
63.07248063995415
 20
76.68403264714545
 30
0.0
 11
63.07248063995415
 21
78.18403264714544
 31
0.0
  0
LINE
  5
2BEAB
330
1F
100
AcDbEntity
  8
Sills
100
AcDbLine
 10
63.07248063995415
 20
78.18403264714544
 30
0.0
 11
64.57248063995415
 21
78.18403264714544
 31
0.0
  0
LINE
  5
2BEAC
330
1F
100
AcDbEntity
  8
Sills
100
AcDbLine
 10
64.57248063995415
 20
78.18403264714544
 30
0.0
 11
64.57248063995415
 21
76.68403264714545
 31
0.0
  0
LINE
  5
2BEAD
330
1F
100
AcDbEntity
  8
Sills
100
AcDbLine
 10
64.57248063995415
 20
76.68403264714545
 30
0.0
 11
63.07248063995415
 21
78.18403264714544
 31
0.0
  0
LINE
  5
2BEAE
102
{ACAD_REACTORS
330
2BF2A
102
}
330
1F
100
AcDbEntity
  8
Sills
100
AcDbLine
 10
63.07248063995415
 20
76.68403264714545
 30
0.0
 11
64.57248063995415
 21
78.18403264714544
 31
0.0
  0
LINE
  5
2BEBE
330
1F
100
AcDbEntity
  8
Sills
100
AcDbLine
 10
64.57248063995415
 20
52.70594998072025
 30
0.0
 11
63.07248063995414
 21
52.70594998072025
 31
0.0
  0
LINE
  5
2BEBF
330
1F
100
AcDbEntity
  8
Sills
100
AcDbLine
 10
63.07248063995414
 20
52.70594998072025
 30
0.0
 11
63.07248063995414
 21
54.20594998072025
 31
0.0
  0
LINE
  5
2BEC0
330
1F
100
AcDbEntity
  8
Sills
100
AcDbLine
 10
63.07248063995414
 20
54.20594998072025
 30
0.0
 11
64.57248063995415
 21
54.20594998072025
 31
0.0
  0
LINE
  5
2BEC1
330
1F
100
AcDbEntity
  8
Sills
100
AcDbLine
 10
64.57248063995415
 20
54.20594998072025
 30
0.0
 11
64.57248063995415
 21
52.70594998072025
 31
0.0
  0
LINE
  5
2BEC2
330
1F
100
AcDbEntity
  8
Sills
100
AcDbLine
 10
64.57248063995415
 20
52.70594998072025
 30
0.0
 11
63.07248063995414
 21
54.20594998072025
 31
0.0
  0
LINE
  5
2BEC3
330
1F
100
AcDbEntity
  8
Sills
100
AcDbLine
 10
63.07248063995414
 20
52.70594998072025
 30
0.0
 11
64.57248063995415
 21
54.20594998072025
 31
0.0
  0
LWPOLYLINE
  5
2BEC5
330
1F
100
AcDbEntity
  8
SteelBars
100
AcDbPolyline
 90
        2
 70
     0
 43
0.3
 10
70.44748063995415
 20
89.33787880099155
 10
70.44748063995424
 20
41.33787880099165
  0
HATCH
  5
2BEDF
330
1F
100
AcDbEntity
  8
Conc
100
AcDbHatch
 10
0.0
 20
0.0
 30
0.0
210
0.0
220
0.0
230
1.0
  2
AR-CONC
 70
     0
 71
     0
 91
        1
 92
        7
 72
     0
 73
     1
 93
       12
 10
73.57248063995417
 20
89.33787880099155
 10
70.32248063995417
 20
89.33787880099158
 10
69.82248063995413
 20
90.71161751071887
 10
68.82248063995415
 20
87.9641400912642
 10
68.32248063995422
 20
89.33787880099155
 10
67.32248063995552
 20
89.33787880099158
 10
67.32248063995415
 20
41.33787880099167
 10
68.32248063995419
 20
41.33787880099165
 10
68.82248063995419
 20
39.96414009126434
 10
69.82248063995418
 20
42.71161751071893
 10
70.32248063995419
 20
41.33787880099164
 10
73.57248063995424
 20
41.33787880099167
 97
        0
 75
     0
 76
     1
 52
0.0
 41
1.0
 77
     0
 78
    13
 53
50.0
 43
-0.0000000000000142
 44
-78.50908925338311
 45
7.172601826007534
 46
-0.6275213498259511
 79
     2
 49
0.75
 49
-8.25
 53
355.0
 43
-0.0000000000000142
 44
-78.50908925338311
 45
-1.38751333613
 46
7.521921337000118
 79
     2
 49
0.6
 49
-6.599999999999999
 53
100.4514
 43
0.5977167999999859
 44
-78.5613826533831
 45
5.785093817140215
 46
6.894395420609535
 79
     2
 49
0.6374019000000001
 49
-7.011421119999999
 53
46.1842
 43
-0.0000000000000142
 44
-76.50908925338311
 45
10.67241048625644
 46
-1.65519014329018
 79
     2
 49
1.125
 49
-12.375
 53
96.63559999999998
 43
0.8893674499999857
 44
-76.64702232338311
 45
9.346627055487033
 46
9.741178709004417
 79
     2
 49
0.9561028799999998
 49
-10.51713
 53
351.1842000000001
 43
-0.0000000000000142
 44
-76.50908925338311
 45
9.346619451336271
 46
9.741186009253246
 79
     2
 49
0.9
 49
-9.9
 53
21.0
 43
0.9999999999999857
 44
-77.0090892533831
 45
5.969070521184616
 46
-4.026188906653388
 79
     2
 49
0.75
 49
-8.25
 53
326.0
 43
0.9999999999999857
 44
-77.0090892533831
 45
2.433153319215817
 46
7.25150045046853
 79
     2
 49
0.6
 49
-6.599999999999999
 53
71.45140000000001
 43
1.497422329999985
 44
-77.34460531338311
 45
8.402226285814899
 46
3.225304967099523
 79
     2
 49
0.6374019000000001
 49
-7.011421119999999
 53
37.5
 43
-0.0000000000000142
 44
-78.50908925338311
 45
0.1215985531729067
 46
3.328938538313114
 79
     6
 49
0.0
 49
-6.519999999999999
 49
0.0
 49
-6.7
 49
0.0
 49
-6.625
 53
7.499999999999999
 43
-0.0000000000000142
 44
-78.50908925338311
 45
2.630695374421486
 46
3.944117118823602
 79
     6
 49
0.0
 49
-3.819999999999999
 49
0.0
 49
-6.37
 49
0.0
 49
-2.524999999999999
 53
327.5
 43
-2.230000000000014
 44
-78.50908925338311
 45
5.33822436172409
 46
-0.225548717343798
 79
     6
 49
0.0
 49
-2.5
 49
0.0
 49
-7.799999999999999
 49
0.0
 49
-10.35
 53
317.5
 43
-3.230000000000014
 44
-78.50908925338311
 45
5.831861693423862
 46
1.001049823323176
 79
     6
 49
0.0
 49
-3.25
 49
0.0
 49
-5.179999999999999
 49
0.0
 49
-7.349999999999999
 47
0.1301395198913182
 98
        1
 10
71.84963588670483
 20
74.0076914994888
1001
ACAD
1010
0.0
1020
0.0
1030
0.0
  0
HATCH
  5
2BEF9
330
1F
100
AcDbEntity
  8
Hatch
100
AcDbHatch
 10
0.0
 20
0.0
 30
0.0
210
0.0
220
0.0
230
1.0
  2
SACNCR
 70
     0
 71
     0
 91
        6
 92
        7
 72
     0
 73
     1
 93
        4
 10
67.32248063995415
 20
89.33787880099155
 10
64.57248063995415
 20
89.33787880099158
 10
64.57248063995415
 20
73.3378788009916
 10
67.32248063995415
 20
73.3378788009916
 97
        0
 92
        7
 72
     0
 73
     1
 93
        4
 10
76.32248063995416
 20
89.33787880099158
 10
73.57248063995415
 20
89.33787880099155
 10
73.57248063995415
 20
73.3378788009916
 10
76.32248063995414
 20
73.3378788009916
 97
        0
 92
        7
 72
     0
 73
     1
 93
        4
 10
67.32248063995415
 20
73.33787880099163
 10
64.57248063995415
 20
73.33787880099158
 10
64.57248063995415
 20
57.33787880099163
 10
67.32248063995415
 20
57.33787880099161
 97
        0
 92
        7
 72
     0
 73
     1
 93
        4
 10
76.32248063995415
 20
73.33787880099163
 10
73.57248063995415
 20
73.3378788009916
 10
73.57248063995415
 20
57.33787880099161
 10
76.32248063995414
 20
57.33787880099161
 97
        0
 92
        7
 72
     0
 73
     1
 93
        4
 10
76.32248063995415
 20
57.33787880099163
 10
73.57248063995415
 20
57.33787880099161
 10
73.57248063995415
 20
41.33787880099165
 10
76.32248063995412
 20
41.33787880099165
 97
        0
 92
        7
 72
     0
 73
     1
 93
        4
 10
67.32248063995415
 20
57.33787880099163
 10
64.57248063995415
 20
57.33787880099161
 10
64.57248063995415
 20
41.33787880099167
 10
67.32248063995415
 20
41.33787880099165
 97
        0
 75
     0
 76
     1
 52
0.0
 41
10.0
 77
     0
 78
     2
 53
45.0
 43
-0.0000000000000142
 44
-78.50908925338311
 45
-0.6629126073623883
 46
0.6629126073623884
 79
     0
 53
45.0
 43
0.6629126099999857
 44
-78.50908925338311
 45
-0.6629126073623883
 46
0.6629126073623884
 79
     2
 49
0.0
 49
-0.9375
 47
0.1604941517768779
 98
        6
 10
66.20541085359274
 20
84.55616706178838
 10
74.05429459115429
 20
83.9916244727029
 10
65.71879476224705
 20
63.07084804423133
 10
74.71565248004615
 20
64.19430701355466
 10
75.03696855217661
 20
52.15724549726755
 10
66.04011160419223
 20
52.47823383075112
1001
ACAD
1010
0.0
1020
0.0
1030
0.0
  0
HATCH
  5
2BF08
330
1F
100
AcDbEntity
  8
Drywall
100
AcDbHatch
 10
0.0
 20
0.0
 30
0.0
210
0.0
220
0.0
230
1.0
  2
AR-SAND
 70
     0
 71
     0
 91
        3
 92
        7
 72
     0
 73
     1
 93
        4
 10
62.44748063995415
 20
89.33787880099158
 10
61.82248063995415
 20
89.33787880099155
 10
61.82248063995416
 20
41.33787880099167
 10
62.44748063995415
 20
41.33787880099165
 97
        0
 92
        7
 72
     0
 73
     1
 93
        4
 10
63.07248063995416
 20
89.3378788009916
 10
62.44748063995416
 20
89.33787880099158
 10
62.44748063995415
 20
41.33787880099169
 10
63.07248063995414
 20
41.33787880099169
 97
        0
 92
        7
 72
     0
 73
     1
 93
        6
 10
76.82248063995415
 20
89.33787880099158
 10
76.32248063995415
 20
89.33787880099158
 10
76.32248063995415
 20
73.3378788009916
 10
76.32248063995415
 20
57.33787880099163
 10
76.32248063995415
 20
41.33787880099169
 10
76.82248063995413
 20
41.33787880099167
 97
        0
 75
     0
 76
     1
 52
0.0
 41
0.5
 77
     0
 78
     4
 53
37.5
 43
-0.0000000000000142
 44
-78.50908925338311
 45
-0.0314966790548041
 46
0.9634118845065792
 79
     6
 49
0.0
 49
-0.76
 49
0.0
 49
-0.85
 49
0.0
 49
-0.8125
 53
7.499999999999999
 43
-0.0000000000000142
 44
-78.50908925338311
 45
0.8848883526338635
 46
1.41107303261487
 79
     6
 49
0.0
 49
-0.41
 49
0.0
 49
-0.6850000000000001
 49
0.0
 49
-0.2625
 53
327.5
 43
-0.6150000000000143
 44
-78.50908925338311
 45
1.557070930875747
 46
0.0028295267684823
 79
     6
 49
0.0
 49
-0.25
 49
0.0
 49
-0.9
 49
0.0
 49
-1.175
 53
317.5
 43
-0.6150000000000143
 44
-78.50908925338311
 45
1.503063302286146
 46
0.4388377824671246
 79
     6
 49
0.0
 49
-0.125
 49
0.0
 49
-0.59
 49
0.0
 49
-0.675
 47
0.2265560737460486
 98
        3
 10
61.98792820971355
 20
78.77437931259968
 10
62.70829779053518
 20
79.21723084692522
 10
76.50614236251225
 20
77.9440324878702
1001
ACAD
1010
0.0
1020
0.0
1030
0.0
  0
HATCH
  5
2BF12
330
1F
100
AcDbEntity
  8
SteelBars
100
AcDbHatch
 10
0.0
 20
0.0
 30
0.0
210
0.0
220
0.0
230
1.0
  2
SOLID
 70
     1
 71
     1
 91
        1
 92
        1
 93
        1
 72
     2
 10
72.19748063995415
 20
84.3378788009916
 40
0.3
 50
0.0
 51
360.0
 73
     1
 97
        1
330
2BF13
 75
     0
 76
     1
 98
        1
 10
-242.5103658170341
 20
11.92952443018664
450
        0
451
        0
460
0.0
461
0.0
452
        0
462
0.0
453
        0
470

1001
ACAD
1010
0.0
1020
0.0
1030
0.0
  0
CIRCLE
  5
2BF13
102
{ACAD_REACTORS
330
2BF12
102
}
330
1F
100
AcDbEntity
  8
SteelBars
100
AcDbCircle
 10
72.19748063995415
 20
84.3378788009916
 30
0.0
 40
0.3
  0
HATCH
  5
2BF14
330
1F
100
AcDbEntity
  8
SteelBars
100
AcDbHatch
 10
0.0
 20
0.0
 30
0.0
210
0.0
220
0.0
230
1.0
  2
SOLID
 70
     1
 71
     1
 91
        1
 92
        1
 93
        1
 72
     2
 10
68.69748063995415
 20
68.33787880099163
 40
0.3
 50
0.0
 51
360.0
 73
     1
 97
        1
330
2BF15
 75
     0
 76
     1
 98
        1
 10
-246.0103658170341
 20
-4.070475569813325
450
        0
451
        0
460
0.0
461
0.0
452
        0
462
0.0
453
        0
470

1001
ACAD
1010
0.0
1020
0.0
1030
0.0
  0
CIRCLE
  5
2BF15
102
{ACAD_REACTORS
330
2BF14
102
}
330
1F
100
AcDbEntity
  8
SteelBars
100
AcDbCircle
 10
68.69748063995415
 20
68.33787880099163
 30
0.0
 40
0.3
  0
HATCH
  5
2BF16
330
1F
100
AcDbEntity
  8
SteelBars
100
AcDbHatch
 10
0.0
 20
0.0
 30
0.0
210
0.0
220
0.0
230
1.0
  2
SOLID
 70
     1
 71
     1
 91
        1
 92
        1
 93
        1
 72
     2
 10
72.19748063995415
 20
52.33787880099166
 40
0.3
 50
0.0
 51
360.0
 73
     1
 97
        1
330
2BF17
 75
     0
 76
     1
 98
        1
 10
-242.5103658170341
 20
-20.0704755698133
450
        0
451
        0
460
0.0
461
0.0
452
        0
462
0.0
453
        0
470

1001
ACAD
1010
0.0
1020
0.0
1030
0.0
  0
CIRCLE
  5
2BF17
102
{ACAD_REACTORS
330
2BF16
102
}
330
1F
100
AcDbEntity
  8
SteelBars
100
AcDbCircle
 10
72.19748063995415
 20
52.33787880099166
 30
0.0
 40
0.3
  0
LEADER
  5
2BF19
102
{ACAD_XDICTIONARY
360
2BF1B
102
}
102
{ACAD_REACTORS
330
2BF1C
102
}
330
1F
100
AcDbEntity
  8
Text
100
AcDbLeader
  3
FBR
 73
     0
 40
1.966666666666666
 41
14.13809523809523
 76
     2
 10
76.82248063995416
 20
83.29425277947848
 30
0.0
 10
96.46636573178508
 20
83.29425277947848
 30
0.0
340
2BF1A
  0
MTEXT
  5
2BF1A
102
{ACAD_REACTORS
330
2BF19
102
}
330
1F
100
AcDbEntity
  8
Text
100
AcDbMText
 10
96.76636573178507
 20
83.29425277947848
 30
0.0
 40
1.0
 41
0.0
 46
0.0
 71
     4
 72
     1
  1
\A1;{\H0.7x;\S1/2;}" (13mm) drywall
  7
Logix
 73
     1
 44
1.0
1001
ACAD
1000
ACAD_MTEXT_DEFINED_HEIGHT_BEGIN
1070
    46
1040
0.0
1000
ACAD_MTEXT_DEFINED_HEIGHT_END
  0
LEADER
  5
2BF1E
330
1F
100
AcDbEntity
  8
Text
100
AcDbLeader
  3
FBR
 73
     0
 40
2.966666666666667
 41
16.7142857142857
 76
     2
 10
75.50940619482275
 20
69.07787093572309
 30
0.0
 10
94.01853211620439
 20
69.07787093572309
 30
0.0
340
2BF1F
  0
MTEXT
  5
2BF1F
102
{ACAD_REACTORS
330
2BF1E
102
}
330
1F
100
AcDbEntity
  8
Text
100
AcDbMText
 10
94.31853211620438
 20
69.07787093572309
 30
0.0
 40
1.0
 41
0.0
 46
0.0
 71
     4
 72
     1
  1
\A1;6{\H0.7x;\S1/4;}" (159mm) LOGIX \PStandard Form shown
  7
Logix
 73
     1
 44
1.0
1001
ACAD
1000
ACAD_MTEXT_DEFINED_HEIGHT_BEGIN
1070
    46
1040
0.0
1000
ACAD_MTEXT_DEFINED_HEIGHT_END
  0
LEADER
  5
2BF21
102
{ACAD_XDICTIONARY
360
2BF23
102
}
102
{ACAD_REACTORS
330
2BF24
102
}
330
1F
100
AcDbEntity
  8
Text
100
AcDbLeader
  3
FBR
 73
     0
 40
1.966666666666666
 41
23.75714285714285
 76
     2
 10
62.44748063995416
 20
85.08493571632939
 30
0.0
 10
52.96867667908582
 20
85.08493571632939
 30
0.0
340
2BF22
  0
MTEXT
  5
2BF22
102
{ACAD_REACTORS
330
2BF21
102
}
330
1F
100
AcDbEntity
  8
Text
100
AcDbMText
 10
52.66867667908582
 20
85.08493571632939
 30
0.0
 40
1.0
 41
0.0
 46
0.0
 71
     6
 72
     1
  1
\A1;2 layers of {\H0.7x;\S5/8;}" (16mm) drywall
  7
Logix
 73
     1
 44
1.0
1001
ACAD
1000
ACAD_MTEXT_DEFINED_HEIGHT_BEGIN
1070
    46
1040
0.0
1000
ACAD_MTEXT_DEFINED_HEIGHT_END
  0
LEADER
  5
2BF27
102
{ACAD_XDICTIONARY
360
2BF29
102
}
102
{ACAD_REACTORS
330
2BF2A
102
}
330
1F
100
AcDbEntity
  8
Text
100
AcDbLeader
  3
FBR
 73
     0
 40
4.523809523809524
 41
16.42857142857142
 76
     2
 10
63.82248063995415
 20
77.43403264714544
 30
0.0
 10
45.46250601558772
 20
77.43403264714544
 30
0.0
340
2BF28
  0
MTEXT
  5
2BF28
102
{ACAD_REACTORS
330
2BF27
102
}
330
1F
100
AcDbEntity
  8
Text
100
AcDbMText
 10
45.16250601558772
 20
77.43403264714544
 30
0.0
 40
1.0
 41
0.0
 46
0.0
 71
     6
 72
     1
  1
2x2 wood strips \P@ 24" (610mm) o/c \Pfasten to webs
  7
Logix
 73
     1
 44
1.0
1001
ACAD
1000
ACAD_MTEXT_DEFINED_HEIGHT_BEGIN
1070
    46
1040
0.0
1000
ACAD_MTEXT_DEFINED_HEIGHT_END
  0
DIMENSION
  5
2BFC6
102
{ACAD_XDICTIONARY
360
2BFD4
102
}
102
{ACAD_REACTORS
330
2BFDF
102
}
330
1F
100
AcDbEntity
  8
Text
100
AcDbDimension
280
     0
  2
*D12
 10
73.57248063995415
 20
35.04086230865733
 30
0.0
 11
70.44748063995415
 21
27.40514802294304
 31
0.0
 70
    32
 71
     5
 42
6.25
 73
     0
 74
     0
 75
     0
  3
FBR
100
AcDbAlignedDimension
 13
67.32248063995415
 23
41.33787880099165
 33
0.0
 14
73.57248063995415
 24
41.33787880099165
 34
0.0
100
AcDbRotatedDimension
  0
MTEXT
  5
2C140
330
1F
100
AcDbEntity
  8
Title Block
100
AcDbMText
 10
36.80142024196546
 20
7.764784200012067
 30
0.0
 40
3.007588226546747
 41
15.56946784513218
 46
0.0
 71
     5
 72
     5
  1
{\fSansSerif|b1|i0|c2|p2;LOGIX}
 73
     1
 44
1.0
  0
HATCH
  5
2C141
330
1F
100
AcDbEntity
  8
Title Block
 62
    12
420
 14024704
100
AcDbHatch
 10
0.0
 20
0.0
 30
0.0
210
0.0
220
0.0
230
1.0
  2
SOLID
 70
     1
 71
     0
 91
        1
 92
        1
 93
        4
 72
     1
 10
40.06148046733351
 20
9.667717395362664
 11
40.06148046733355
 21
10.29349519823718
 72
     1
 10
40.06148046733355
 20
10.29349519823718
 11
39.43212788242934
 21
10.29784174925668
 72
     1
 10
39.43212788242934
 20
10.29784174925668
 11
39.43212788242934
 21
9.672063946382166
 72
     1
 10
39.43212788242934
 20
9.672063946382165
 11
40.06148046733351
 21
9.667717395362664
 97
        0
 75
     0
 76
     1
 98
        1
 10
40.23719809470963
 20
9.888229720086332
450
        0
451
        0
460
0.0
461
0.0
452
        0
462
0.0
453
        0
470

  0
TEXT
  5
2C142
330
1F
100
AcDbEntity
  8
Title Block
100
AcDbText
 10
32.40684760860415
 20
5.670585470192468
 30
0.0
 40
0.4784799451324372
  1
INSULATED CONCRETE FORMS
  7
TITLE
100
AcDbText
  0
LWPOLYLINE
  5
2C143
330
1F
100
AcDbEntity
  8
Title Block
100
AcDbPolyline
 90
        3
 70
     0
 43
0.5468342230084997
 10
29.64121328948634
 20
6.985159371451645
 10
29.64121328948634
 20
5.394831039654119
 10
32.48823761265456
 20
5.394831039654119
  0
HATCH
  5
2C144
330
1F
100
AcDbEntity
  8
Title Block
 62
    12
420
 14024704
100
AcDbHatch
 10
0.0
 20
0.0
 30
0.0
210
0.0
220
0.0
230
1.0
  2
SOLID
 70
     1
 71
     0
 91
        1
 92
        1
 93
        4
 72
     1
 10
30.55128105989371
 20
5.665502261828102
 11
30.55128105989371
 21
6.300482525252052
 72
     1
 10
30.55128105989371
 20
6.300482525252053
 11
29.91008578825942
 21
6.300482525252053
 72
     1
 10
29.91008578825942
 20
6.300482525252053
 11
29.91008578825942
 21
5.665502261828104
 72
     1
 10
29.91008578825942
 20
5.665502261828102
 11
30.5512810598937
 21
5.665502261828102
 97
        0
 75
     0
 76
     1
 98
        1
 10
30.33257886593992
 20
5.962880311255881
450
        0
451
        0
460
0.0
461
0.0
452
        0
462
0.0
453
        0
470

  0
LWPOLYLINE
  5
2C145
330
1F
100
AcDbEntity
  8
Title Block
 62
    10
100
AcDbPolyline
 90
        4
 70
     1
 43
0.0
 10
30.55128105989371
 20
5.665502261828105
 10
29.91008578825942
 20
5.665502261828105
 10
29.91008578825942
 20
6.300482525252057
 10
30.55128105989371
 20
6.300482525252057
  0
MTEXT
  5
2C146
102
{ACAD_XDICTIONARY
360
2C147
102
}
330
1F
100
AcDbEntity
  8
Title Block
100
AcDbMText
 10
44.41341271311492
 20
9.263863770231649
 30
0.0
 40
0.7291122973446662
 41
1.434444221211763
 46
0.0
 71
     3
 72
     5
  1
{\fArial|b0|i0|c0|p34;\H1.0833x;®}
 73
     1
 44
1.0
  0
MTEXT
  5
2C148
102
{ACAD_XDICTIONARY
360
2C149
102
}
330
1F
100
AcDbEntity
  8
0
 48
0.01
100
AcDbMText
 10
29.34068713757962
 20
4.434261153705559
 30
0.0
 40
0.9302832220866575
 41
15.04930642254516
 46
0.0
 71
     1
 72
     5
  1
\pi0.07421;{\C256;\c16777215;Build Anything \fCalibri|b1|i0|c0|p34;Better.}
  7
Logix
 73
     1
 44
1.0
 90
        1
 63
    83
 45
1.5
441
        0
1001
AcadAnnotative
1000
AnnotativeData
1002
{
1070
     1
1070
     1
1002
}
  0
MTEXT
  5
2C14D
330
1F
100
AcDbEntity
  8
Title Block
100
AcDbMText
 10
36.40439396871116
 20
0.6451897388826509
 30
0.0
 40
0.7291122973446662
 41
21.0123188684256
 46
0.0
 71
     5
 72
     5
  1
{\fArial|b0|i0|c0|p34;1-866-944-0153}
 73
     1
 44
1.0
  0
MTEXT
  5
2C14E
330
1F
100
AcDbEntity
  8
Title Block
100
AcDbMText
 10
36.40439396871116
 20
1.779627172265648
 30
0.0
 40
0.7291122973446662
 41
21.0123188684256
 46
0.0
 71
     5
 72
     5
  1
{\fArial|b0|i0|c0|p34;www.logixicf.com}
 73
     1
 44
1.0
  0
VIEWPORT
  5
11F07
330
5D
100
AcDbEntity
 67
     1
  8
0
100
AcDbViewport
 10
5.249999639556163
 20
3.999999883606677
 30
0.0
 40
21.60469660038833
 41
8.992999745766947
 68
     1
 69
     1
 12
5.249999639556163
 22
3.999999883606677
 13
0.0
 23
0.0
 14
0.5
 24
0.5
 15
0.5
 25
0.5
 16
0.0
 26
0.0
 36
1.0
 17
0.0
 27
0.0
 37
0.0
 42
50.0
 43
0.0
 44
0.0
 45
8.992999745766947
 50
0.0
 51
0.0
 72
  1000
 90
    32800
  1

281
     0
 71
     1
 74
     0
110
0.0
120
0.0
130
0.0
111
1.0
121
0.0
131
0.0
112
0.0
122
1.0
132
0.0
 79
     0
146
0.0
170
     0
 61
     5
348
2C00E
292
     1
282
     1
141
0.0
142
0.0
 63
   250
421
  3355443
  0
VIEWPORT
  5
11F09
330
5D
100
AcDbEntity
 67
     1
  8
Dim
100
AcDbViewport
 10
5.24999976158142
 20
3.99999976158142
 30
0.0
 40
8.399999618530271
 41
6.399999618530272
 68
     2
 69
     2
 12
70.24570646213799
 22
55.11630672257945
 13
0.0
 23
0.0
 14
0.5
 24
0.5
 15
0.5
 25
0.5
 16
0.0
 26
0.0
 36
1.0
 17
0.0
 27
0.0
 37
0.0
 42
50.0
 43
0.0
 44
0.0
 45
113.4515982453417
 50
0.0
 51
0.0
 72
  1000
 90
    32864
  1

281
     0
 71
     1
 74
     0
110
0.0
120
0.0
130
0.0
111
1.0
121
0.0
131
0.0
112
0.0
122
1.0
132
0.0
 79
     0
146
0.0
170
     0
 61
     5
348
2C00E
292
     1
282
     1
141
0.0
142
0.0
 63
   250
421
  3355443
  0
ENDSEC
  0
SECTION
  2
OBJECTS
  0
DICTIONARY
  5
C
330
0
100
AcDbDictionary
281
     1
  3
ACAD_CIP_PREVIOUS_PRODUCT_INFO
350
2C112
  3
ACAD_COLOR
350
73
  3
ACAD_DETAILVIEWSTYLE
350
2C102
  3
ACAD_FIELDLIST
350
7B86
  3
ACAD_GROUP
350
D
  3
ACAD_LAYOUT
350
1A
  3
ACAD_MATERIAL
350
72
  3
ACAD_MLEADERSTYLE
350
2C03B
  3
ACAD_MLINESTYLE
350
17
  3
ACAD_PLOTSETTINGS
350
19
  3
ACAD_PLOTSTYLENAME
350
E
  3
ACAD_SCALELIST
350
2C019
  3
ACAD_SECTIONVIEWSTYLE
350
2C100
  3
ACAD_TABLESTYLE
350
86
  3
ACAD_VISUALSTYLE
350
2C008
  3
AcadDim
350
1F7C0
  3
ACDB_RECOMPOSE_DATA
350
2C188
  3
AcDbVariableDictionary
350
66
  3
AcDsDecomposeData
350
2C18E
  3
AEC_CLASSIFICATION_SYSTEM_DEFS
350
7B87
  3
AEC_PROPERTY_SET_DEFS
350
2B467
  3
ASE_INDEX_DICTIONARY
350
2C0CC
  3
AVE_ACITABLE
350
197B4
  3
BNS_VARIABLES
350
1401
  0
DICTIONARY
  5
8D
330
2
100
AcDbDictionary
280
     1
281
     1
  3
ACAD_LAYERFILTERS
360
2B89F
  3
ACAD_LAYERSTATES
360
11EFF
  3
ACLYDICTIONARY
360
2B89E
  0
DICTIONARY
  5
2C074
330
10
100
AcDbDictionary
280
     1
281
     1
  3
ADSK_XREC_LAYER_RECONCILED
360
2C075
  0
DICTIONARY
  5
2C076
330
8B
100
AcDbDictionary
280
     1
281
     1
  3
ADSK_XREC_LAYER_RECONCILED
360
2C077
  0
DICTIONARY
  5
2C078
330
770
100
AcDbDictionary
280
     1
281
     1
  3
ADSK_XREC_LAYER_RECONCILED
360
2C079
  0
DICTIONARY
  5
2C07A
330
13AF
100
AcDbDictionary
280
     1
281
     1
  3
ADSK_XREC_LAYER_RECONCILED
360
2C07B
  0
DICTIONARY
  5
2C07C
330
32CE
100
AcDbDictionary
280
     1
281
     1
  3
ADSK_XREC_LAYER_RECONCILED
360
2C07D
  0
DICTIONARY
  5
2C07E
330
11F4A
100
AcDbDictionary
280
     1
281
     1
  3
ADSK_XREC_LAYER_RECONCILED
360
2C07F
  0
DICTIONARY
  5
2C080
330
121C7
100
AcDbDictionary
280
     1
281
     1
  3
ADSK_XREC_LAYER_RECONCILED
360
2C081
  0
DICTIONARY
  5
2C082
330
121CA
100
AcDbDictionary
280
     1
281
     1
  3
ADSK_XREC_LAYER_RECONCILED
360
2C083
  0
DICTIONARY
  5
2C084
330
121CF
100
AcDbDictionary
280
     1
281
     1
  3
ADSK_XREC_LAYER_RECONCILED
360
2C085
  0
DICTIONARY
  5
2C086
330
121E2
100
AcDbDictionary
280
     1
281
     1
  3
ADSK_XREC_LAYER_RECONCILED
360
2C087
  0
DICTIONARY
  5
2C088
330
121F7
100
AcDbDictionary
280
     1
281
     1
  3
ADSK_XREC_LAYER_RECONCILED
360
2C089
  0
DICTIONARY
  5
2C08A
330
12238
100
AcDbDictionary
280
     1
281
     1
  3
ADSK_XREC_LAYER_RECONCILED
360
2C08B
  0
DICTIONARY
  5
2C08C
330
12273
100
AcDbDictionary
280
     1
281
     1
  3
ADSK_XREC_LAYER_RECONCILED
360
2C08D
  0
DICTIONARY
  5
2C08E
330
1233D
100
AcDbDictionary
280
     1
281
     1
  3
ADSK_XREC_LAYER_RECONCILED
360
2C08F
  0
DICTIONARY
  5
2C090
330
1958B
100
AcDbDictionary
280
     1
281
     1
  3
ADSK_XREC_LAYER_RECONCILED
360
2C091
  0
DICTIONARY
  5
2C092
330
197A1
100
AcDbDictionary
280
     1
281
     1
  3
ADSK_XREC_LAYER_RECONCILED
360
2C093
  0
DICTIONARY
  5
2C094
330
197C9
100
AcDbDictionary
280
     1
281
     1
  3
ADSK_XREC_LAYER_RECONCILED
360
2C095
  0
DICTIONARY
  5
2C096
330
1A74F
100
AcDbDictionary
280
     1
281
     1
  3
ADSK_XREC_LAYER_RECONCILED
360
2C097
  0
DICTIONARY
  5
2C098
330
1B20B
100
AcDbDictionary
280
     1
281
     1
  3
ADSK_XREC_LAYER_RECONCILED
360
2C099
  0
DICTIONARY
  5
2C09A
330
1CF9D
100
AcDbDictionary
280
     1
281
     1
  3
ADSK_XREC_LAYER_RECONCILED
360
2C09B
  0
DICTIONARY
  5
2C09C
330
1D689
100
AcDbDictionary
280
     1
281
     1
  3
ADSK_XREC_LAYER_RECONCILED
360
2C09D
  0
DICTIONARY
  5
2C09E
330
1D68A
100
AcDbDictionary
280
     1
281
     1
  3
ADSK_XREC_LAYER_RECONCILED
360
2C09F
  0
DICTIONARY
  5
2C0A0
330
1E3D0
100
AcDbDictionary
280
     1
281
     1
  3
ADSK_XREC_LAYER_RECONCILED
360
2C0A1
  0
DICTIONARY
  5
2C0A2
330
1E3D2
100
AcDbDictionary
280
     1
281
     1
  3
ADSK_XREC_LAYER_RECONCILED
360
2C0A3
  0
DICTIONARY
  5
2C0A4
330
1F3E8
100
AcDbDictionary
280
     1
281
     1
  3
ADSK_XREC_LAYER_RECONCILED
360
2C0A5
  0
DICTIONARY
  5
2C0A6
330
29DB1
100
AcDbDictionary
280
     1
281
     1
  3
ADSK_XREC_LAYER_RECONCILED
360
2C0A7
  0
DICTIONARY
  5
2C0A8
330
2B03B
100
AcDbDictionary
280
     1
281
     1
  3
ADSK_XREC_LAYER_RECONCILED
360
2C0A9
  0
DICTIONARY
  5
2C0AA
330
2B03C
100
AcDbDictionary
280
     1
281
     1
  3
ADSK_XREC_LAYER_RECONCILED
360
2C0AB
  0
DICTIONARY
  5
2C0AC
330
2B89D
100
AcDbDictionary
280
     1
281
     1
  3
ADSK_XREC_LAYER_RECONCILED
360
2C0AD
  0
DICTIONARY
  5
2C115
330
2C114
100
AcDbDictionary
280
     1
281
     1
  0
DICTIONARY
  5
39A
330
1F
100
AcDbDictionary
280
     1
281
     1
  3
ACAD_SORTENTS
360
39B
  0
DICTIONARY
  5
2C050
330
7B76
100
AcDbDictionary
280
     1
281
     1
  0
DICTIONARY
  5
21CC4
330
21CC2
100
AcDbDictionary
280
     1
281
     1
  3
ACAD_SORTENTS
360
21CC5
  0
DICTIONARY
  5
2BF1B
330
2BF19
100
AcDbDictionary
280
     1
281
     1
  3
ACAD_DIMASSOC
360
2BF1C
  0
DICTIONARY
  5
2BF23
330
2BF21
100
AcDbDictionary
280
     1
281
     1
  3
ACAD_DIMASSOC
360
2BF24
  0
DICTIONARY
  5
2BF29
330
2BF27
100
AcDbDictionary
280
     1
281
     1
  3
ACAD_DIMASSOC
360
2BF2A
  0
DICTIONARY
  5
2BFD4
330
2BFC6
100
AcDbDictionary
280
     1
281
     1
  3
ACAD_DIMASSOC
360
2BFDF
  0
DICTIONARY
  5
2C147
330
2C146
100
AcDbDictionary
280
     1
281
     1
  3
ACAD_MTEXT_2008_RT
360
2C186
  0
DICTIONARY
  5
2C149
330
2C148
100
AcDbDictionary
280
     1
281
     1
  3
ACAD_MTEXT_2008_RT
360
2C187
  3
AcDbContextDataManager
360
2C14A
  0
XRECORD
  5
2C112
102
{ACAD_REACTORS
330
C
102
}
330
C
100
AcDbXrecord
280
     1
300
ACD
300
2022
300

  0
DICTIONARY
  5
73
102
{ACAD_REACTORS
330
C
102
}
330
C
100
AcDbDictionary
281
     1
  0
DICTIONARY
  5
2C102
102
{ACAD_REACTORS
330
C
102
}
330
C
100
AcDbDictionary
281
     1
  3
Imperial24
350
2C103
  0
FIELDLIST
  5
7B86
102
{ACAD_REACTORS
330
C
102
}
330
C
100
AcDbIdSet
 90
        0
100
AcDbFieldList
  0
DICTIONARY
  5
D
102
{ACAD_REACTORS
330
C
102
}
330
C
100
AcDbDictionary
281
     1
  0
DICTIONARY
  5
1A
102
{ACAD_REACTORS
330
C
102
}
330
C
100
AcDbDictionary
281
     1
  3
Layout1
350
59
  3
Layout2
350
5E
  3
Model
350
22
  0
DICTIONARY
  5
72
102
{ACAD_REACTORS
330
C
102
}
330
C
100
AcDbDictionary
281
     1
  3
ByBlock
350
2BFF8
  3
ByLayer
350
2BFF0
  3
Global
350
2C000
  0
DICTIONARY
  5
2C03B
102
{ACAD_REACTORS
330
C
102
}
330
C
100
AcDbDictionary
281
     1
  3
Standard
350
2C03C
  0
DICTIONARY
  5
17
102
{ACAD_REACTORS
330
C
102
}
330
C
100
AcDbDictionary
281
     1
  3
Standard
350
18
  0
DICTIONARY
  5
19
102
{ACAD_REACTORS
330
C
102
}
330
C
100
AcDbDictionary
281
     1
  0
ACDBDICTIONARYWDFLT
  5
E
102
{ACAD_REACTORS
330
C
102
}
330
C
100
AcDbDictionary
281
     1
  3
Normal
350
F
100
AcDbDictionaryWithDefault
340
F
  0
DICTIONARY
  5
2C019
102
{ACAD_REACTORS
330
C
102
}
330
C
100
AcDbDictionary
281
     1
  3
A0
350
2C01A
  3
A1
350
2C01B
  3
A2
350
2C01C
  3
A3
350
2C01D
  3
A4
350
2C01E
  3
A5
350
2C01F
  3
A6
350
2C020
  3
A7
350
2C021
  3
A8
350
2C022
  3
A9
350
2C023
  3
B0
350
2C024
  3
B1
350
2C025
  3
B2
350
2C026
  3
B3
350
2C027
  3
B4
350
2C028
  3
B5
350
2C029
  3
B6
350
2C02A
  3
B7
350
2C02B
  3
B8
350
2C02C
  3
B9
350
2C02D
  3
C0
350
2C02E
  3
C1
350
2C02F
  3
C2
350
2C030
  3
C3
350
2C031
  3
C4
350
2C032
  3
C5
350
2C033
  3
C6
350
2C034
  3
C7
350
2C035
  3
C8
350
2C036
  3
C9
350
2C037
  3
D0
350
2C038
  3
D1
350
2C039
  3
D2
350
2C03A
  0
DICTIONARY
  5
2C100
102
{ACAD_REACTORS
330
C
102
}
330
C
100
AcDbDictionary
281
     1
  3
Imperial24
350
2C101
  0
DICTIONARY
  5
86
102
{ACAD_REACTORS
330
C
102
}
330
C
100
AcDbDictionary
281
     1
  3
Example1
350
37C9
  3
Example2
350
36AB
  3
Standard
350
87
  0
DICTIONARY
  5
2C008
102
{ACAD_REACTORS
330
C
102
}
330
C
100
AcDbDictionary
281
     1
  3
2dWireframe
350
2C00E
  3
3D Hidden
350
2C010
  3
3dWireframe
350
2C00F
  3
Basic
350
2C00D
  3
Brighten
350
2C014
  3
ColorChange
350
2C018
  3
Conceptual
350
2C011
  3
Dim
350
2C013
  3
EdgeColorOff
350
2C0BD
  3
Facepattern
350
2C017
  3
Flat
350
2C009
  3
FlatWithEdges
350
2C00A
  3
Gouraud
350
2C00B
  3
GouraudWithEdges
350
2C00C
  3
Hidden
350
2C0FA
  3
JitterOff
350
2C0BB
  3
Linepattern
350
2C016
  3
OverhangOff
350
2C0BC
  3
Realistic
350
2C012
  3
Shaded
350
2C0FF
  3
Shaded with edges
350
2C0FE
  3
Shades of Gray
350
2C0FB
  3
Sketchy
350
2C0FC
  3
Thicken
350
2C015
  3
Wireframe
350
2C0F9
  3
X-Ray
350
2C0FD
  0
XRECORD
  5
1F7C0
102
{ACAD_REACTORS
330
C
102
}
330
C
100
AcDbXrecord
280
     1
 90
   990106
  3

 60
     0
 61
     0
 62
     1
 63
     3
 64
     0
 65
     0
 66
     0
 67
     3
 68
     1
 69
     0
 70
     0
 71
     0
 72
     0
 40
0.0
170
     0
340
0
  0
XRECORD
  5
2C188
102
{ACAD_REACTORS
330
C
102
}
330
C
100
AcDbXrecord
280
     1
 90
        1
330
87
330
36AB
330
37C9
330
2C146
330
2C148
  0
DICTIONARY
  5
66
102
{ACAD_REACTORS
330
C
102
}
330
C
100
AcDbDictionary
281
     1
  3
CANNOSCALE
350
2C060
  3
CMLEADERSTYLE
350
2C05E
  3
CTABLESTYLE
350
364
  3
CVIEWDETAILSTYLE
350
2C170
  3
CVIEWSECTIONSTYLE
350
2C171
  3
DIMASSOC
350
67
  3
HIDETEXT
350
6B
  3
LAYEREVAL
350
2C0D7
  3
LAYERNOTIFY
350
2C0D8
  3
LIGHTINGUNITS
350
2C061
  3
MSLTSCALE
350
2C05F
  3
PROJECTNAME
350
8305
  0
DICTIONARY
  5
2C18E
102
{ACAD_REACTORS
330
C
102
}
330
C
100
AcDbDictionary
281
     1
  3
AcDsRecords
350
2C190
  3
AcDsSchemas
350
2C18F
1001
ACAD
1070
     2
  0
DICTIONARY
  5
7B87
102
{ACAD_REACTORS
330
C
102
}
330
C
100
AcDbDictionary
281
     1
  0
DICTIONARY
  5
2B467
102
{ACAD_REACTORS
330
C
102
}
330
C
100
AcDbDictionary
281
     1
  0
DICTIONARY
  5
2C0CC
102
{ACAD_REACTORS
330
C
102
}
330
C
100
AcDbDictionary
281
     1
  3
ASEBlockHierarchyIndexRecord
350
2C0CD
1001
DCO15
1040
1788862098.744
  0
DICTIONARY
  5
197B4
102
{ACAD_REACTORS
330
C
102
}
330
C
100
AcDbDictionary
281
     1
  0
DICTIONARY
  5
1401
102
{ACAD_REACTORS
330
C
102
}
330
C
100
AcDbDictionary
281
     1
  3
ACET.BREAKLINE-BLKEXE
350
1402
  0
DICTIONARY
  5
2B89F
102
{ACAD_REACTORS
330
8D
102
}
330
8D
100
AcDbDictionary
281
     1
  0
DICTIONARY
  5
11EFF
102
{ACAD_REACTORS
330
8D
102
}
330
8D
100
AcDbDictionary
281
     1
  0
DICTIONARY
  5
2B89E
102
{ACAD_REACTORS
330
8D
102
}
330
8D
100
AcDbDictionary
281
     1
1001
ACAD
1000
<All
  0
XRECORD
  5
2C075
102
{ACAD_REACTORS
330
2C074
102
}
330
2C074
100
AcDbXrecord
280
     1
290
     1
  0
XRECORD
  5
2C077
102
{ACAD_REACTORS
330
2C076
102
}
330
2C076
100
AcDbXrecord
280
     1
290
     1
  0
XRECORD
  5
2C079
102
{ACAD_REACTORS
330
2C078
102
}
330
2C078
100
AcDbXrecord
280
     1
290
     1
  0
XRECORD
  5
2C07B
102
{ACAD_REACTORS
330
2C07A
102
}
330
2C07A
100
AcDbXrecord
280
     1
290
     1
  0
XRECORD
  5
2C07D
102
{ACAD_REACTORS
330
2C07C
102
}
330
2C07C
100
AcDbXrecord
280
     1
290
     1
  0
XRECORD
  5
2C07F
102
{ACAD_REACTORS
330
2C07E
102
}
330
2C07E
100
AcDbXrecord
280
     1
290
     1
  0
XRECORD
  5
2C081
102
{ACAD_REACTORS
330
2C080
102
}
330
2C080
100
AcDbXrecord
280
     1
290
     1
  0
XRECORD
  5
2C083
102
{ACAD_REACTORS
330
2C082
102
}
330
2C082
100
AcDbXrecord
280
     1
290
     1
  0
XRECORD
  5
2C085
102
{ACAD_REACTORS
330
2C084
102
}
330
2C084
100
AcDbXrecord
280
     1
290
     1
  0
XRECORD
  5
2C087
102
{ACAD_REACTORS
330
2C086
102
}
330
2C086
100
AcDbXrecord
280
     1
290
     1
  0
XRECORD
  5
2C089
102
{ACAD_REACTORS
330
2C088
102
}
330
2C088
100
AcDbXrecord
280
     1
290
     1
  0
XRECORD
  5
2C08B
102
{ACAD_REACTORS
330
2C08A
102
}
330
2C08A
100
AcDbXrecord
280
     1
290
     1
  0
XRECORD
  5
2C08D
102
{ACAD_REACTORS
330
2C08C
102
}
330
2C08C
100
AcDbXrecord
280
     1
290
     1
  0
XRECORD
  5
2C08F
102
{ACAD_REACTORS
330
2C08E
102
}
330
2C08E
100
AcDbXrecord
280
     1
290
     1
  0
XRECORD
  5
2C091
102
{ACAD_REACTORS
330
2C090
102
}
330
2C090
100
AcDbXrecord
280
     1
290
     1
  0
XRECORD
  5
2C093
102
{ACAD_REACTORS
330
2C092
102
}
330
2C092
100
AcDbXrecord
280
     1
290
     1
  0
XRECORD
  5
2C095
102
{ACAD_REACTORS
330
2C094
102
}
330
2C094
100
AcDbXrecord
280
     1
290
     1
  0
XRECORD
  5
2C097
102
{ACAD_REACTORS
330
2C096
102
}
330
2C096
100
AcDbXrecord
280
     1
290
     1
  0
XRECORD
  5
2C099
102
{ACAD_REACTORS
330
2C098
102
}
330
2C098
100
AcDbXrecord
280
     1
290
     1
  0
XRECORD
  5
2C09B
102
{ACAD_REACTORS
330
2C09A
102
}
330
2C09A
100
AcDbXrecord
280
     1
290
     1
  0
XRECORD
  5
2C09D
102
{ACAD_REACTORS
330
2C09C
102
}
330
2C09C
100
AcDbXrecord
280
     1
290
     1
  0
XRECORD
  5
2C09F
102
{ACAD_REACTORS
330
2C09E
102
}
330
2C09E
100
AcDbXrecord
280
     1
290
     1
  0
XRECORD
  5
2C0A1
102
{ACAD_REACTORS
330
2C0A0
102
}
330
2C0A0
100
AcDbXrecord
280
     1
290
     1
  0
XRECORD
  5
2C0A3
102
{ACAD_REACTORS
330
2C0A2
102
}
330
2C0A2
100
AcDbXrecord
280
     1
290
     1
  0
XRECORD
  5
2C0A5
102
{ACAD_REACTORS
330
2C0A4
102
}
330
2C0A4
100
AcDbXrecord
280
     1
290
     1
  0
XRECORD
  5
2C0A7
102
{ACAD_REACTORS
330
2C0A6
102
}
330
2C0A6
100
AcDbXrecord
280
     1
290
     1
  0
XRECORD
  5
2C0A9
102
{ACAD_REACTORS
330
2C0A8
102
}
330
2C0A8
100
AcDbXrecord
280
     1
290
     1
  0
XRECORD
  5
2C0AB
102
{ACAD_REACTORS
330
2C0AA
102
}
330
2C0AA
100
AcDbXrecord
280
     1
290
     1
  0
XRECORD
  5
2C0AD
102
{ACAD_REACTORS
330
2C0AC
102
}
330
2C0AC
100
AcDbXrecord
280
     1
290
     1
  0
SORTENTSTABLE
  5
39B
102
{ACAD_REACTORS
330
39A
102
}
330
39A
100
AcDbSortentsTable
330
1F
331
7B8A
  5
7BA9
331
7B8C
  5
7BAB
331
7B96
  5
7BAD
331
7B97
  5
7BAF
331
7BA4
  5
80CD
331
7BA5
  5
80EB
331
7BA7
  5
81F0
331
7BA9
  5
81F1
331
7BAB
  5
81F2
331
7BAC
  5
11F9B
331
7BAD
  5
197AA
331
7BAF
  5
197AB
331
81F1
  5
7B97
331
81F2
  5
7BA4
331
81F3
  5
7BA5
331
81F4
  5
7BA7
331
197A5
  5
197AC
331
197A6
  5
197B3
331
197A7
  5
19ED9
331
197A8
  5
1AA65
331
197A9
  5
1AFCC
331
197AA
  5
1AFCE
331
197AB
  5
1AFCF
331
197AC
  5
1AFD9
331
197B3
  5
1B0EC
331
1A591
  5
1C15C
331
1AFCB
  5
1C1D2
331
1AFCC
  5
1C1D3
331
1AFCE
  5
1C1D4
331
1AFCF
  5
1E8C8
331
1AFD9
  5
2A920
331
1D2E6
  5
2AC7B
331
2A91C
  5
2AC7C
331
2AE7A
  5
2AF83
331
2BCF7
  5
2BCF9
331
2BCF8
  5
2BCFA
331
2BCF9
  5
2BCFB
331
2BCFA
  5
2BCFC
331
2BCFB
  5
2BCFD
331
2BCFC
  5
2BCFE
331
2BCFD
  5
2BCFF
331
2BCFE
  5
2BD00
331
2BCFF
  5
2BD01
331
2BD00
  5
2BD02
331
2BD01
  5
2BD03
331
2BD02
  5
2BD04
331
2BD03
  5
2BD05
331
2BD04
  5
2BD06
331
2BD05
  5
2BD07
331
2BD06
  5
2BD08
331
2BD07
  5
2BD09
331
2BD08
  5
2BD0A
331
2BD09
  5
2BD0B
331
2BD0A
  5
2BD0C
331
2BD0B
  5
2BD0D
331
2BD0C
  5
2BD0E
331
2BD0D
  5
2BD0F
331
2BD0E
  5
2BD10
331
2BD0F
  5
2BD11
331
2BD10
  5
2BD12
331
2BD11
  5
2BD13
331
2BD12
  5
2BD14
331
2BD13
  5
2BD15
331
2BD14
  5
2BD16
331
2BD15
  5
2BD17
331
2BD16
  5
2BD18
331
2BD17
  5
2BD19
331
2BD18
  5
2BD1A
331
2BD19
  5
2BD1B
331
2BD1A
  5
2BD1C
331
2BD1B
  5
2BD1D
331
2BD1C
  5
2BD1E
331
2BD1D
  5
2BD1F
331
2BD1E
  5
2BD20
331
2BD1F
  5
2BD21
331
2BD20
  5
2BD22
331
2BD21
  5
2BD23
331
2BD22
  5
2BD24
331
2BD23
  5
2BD25
331
2BD24
  5
2BD26
331
2BD25
  5
2BD27
331
2BD26
  5
2BD28
331
2BD27
  5
2BD29
331
2BD28
  5
2BD2A
331
2BD29
  5
2BD2B
331
2BD2A
  5
2BD2C
331
2BD2B
  5
2BD2D
331
2BD2C
  5
2BD2E
331
2BD2D
  5
2BD2F
331
2BD2E
  5
2BD30
331
2BD2F
  5
2BD31
331
2BD30
  5
2BD32
331
2BD31
  5
2BD33
331
2BD32
  5
2BD34
331
2BD33
  5
2BD35
331
2BD34
  5
2BD36
331
2BD35
  5
2BD37
331
2BD36
  5
2BD38
331
2BD37
  5
2BD39
331
2BD38
  5
2BD3A
331
2BD39
  5
2BD3B
331
2BD3A
  5
2BD3C
331
2BD3B
  5
2BD3D
331
2BD3C
  5
2BD3E
331
2BD3D
  5
2BD3F
331
2BD3E
  5
2BD40
331
2BD3F
  5
2BD41
331
2BD40
  5
2BD42
331
2BD41
  5
2BD43
331
2BD42
  5
2BD44
331
2BD43
  5
2BD45
331
2BD44
  5
2BD46
331
2BD45
  5
2BD47
331
2BD46
  5
2BD48
331
2BD47
  5
2BD49
331
2BD48
  5
2BD4A
331
2BD49
  5
2BD4B
331
2BD4A
  5
2BD4C
331
2BD4B
  5
2BD4D
331
2BD4C
  5
2BD4E
331
2BD4D
  5
2BD4F
331
2BD4E
  5
2BD50
331
2BD4F
  5
2BD51
331
2BD50
  5
2BD52
331
2BD51
  5
2BD53
331
2BD52
  5
2BD54
331
2BD53
  5
2BD55
331
2BD54
  5
2BD56
331
2BD55
  5
2BD57
331
2BD56
  5
2BD58
331
2BD57
  5
2BD59
331
2BD58
  5
2BD5A
331
2BD59
  5
2BD5B
331
2BD5A
  5
2BD5F
331
2BD5B
  5
2BD60
331
2BD5C
  5
2BD61
331
2BD5D
  5
2BD62
331
2BD5E
  5
2BD63
331
2BD5F
  5
2BD65
331
2BD60
  5
2BD67
331
2BD61
  5
2BD68
331
2BD62
  5
2BD69
331
2BD63
  5
2BD6A
331
2BD64
  5
2BD6B
331
2BD65
  5
2BD6C
331
2BD66
  5
2BD6D
331
2BD67
  5
2BD6E
331
2BD68
  5
2BD6F
331
2BD69
  5
2BD70
331
2BD6A
  5
2BD71
331
2BD6B
  5
2BD72
331
2BD6C
  5
2BD73
331
2BD6D
  5
2BD74
331
2BD6E
  5
2BD75
331
2BD6F
  5
2BD76
331
2BD70
  5
2BD77
331
2BD71
  5
2BD78
331
2BD72
  5
2BD79
331
2BD73
  5
2BD7A
331
2BD74
  5
2BD7B
331
2BD75
  5
2BD7C
331
2BD76
  5
2BD7D
331
2BD77
  5
2BD7E
331
2BD78
  5
2BD7F
331
2BD79
  5
2BD80
331
2BD7A
  5
2BD81
331
2BD7B
  5
2BD82
331
2BD7C
  5
2BD83
331
2BD7D
  5
2BD84
331
2BD7E
  5
2BD85
331
2BD7F
  5
2BD86
331
2BD80
  5
2BD87
331
2BD81
  5
2BD88
331
2BD82
  5
2BD89
331
2BD83
  5
2BD8A
331
2BD84
  5
2BD8B
331
2BD85
  5
2BD8C
331
2BD86
  5
2BD8D
331
2BD87
  5
2BD8E
331
2BD88
  5
2BD8F
331
2BD89
  5
2BD90
331
2BD8A
  5
2BD91
331
2BD8B
  5
2BD92
331
2BD8C
  5
2BD93
331
2BD8D
  5
2BD94
331
2BD8E
  5
2BD95
331
2BD8F
  5
2BD96
331
2BD90
  5
2BD97
331
2BD91
  5
2BD98
331
2BD92
  5
2BD99
331
2BD93
  5
2BD9A
331
2BD94
  5
2BD9B
331
2BD95
  5
2BD9C
331
2BD96
  5
2BD9D
331
2BD97
  5
2BD9E
331
2BD98
  5
2BD9F
331
2BD99
  5
2BDA0
331
2BD9A
  5
2BDA1
331
2BD9B
  5
2BDA2
331
2BD9C
  5
2BDA3
331
2BD9D
  5
2BDA4
331
2BD9E
  5
2BDA5
331
2BD9F
  5
2BDA6
331
2BDA0
  5
2BDA7
331
2BDA1
  5
2BDA8
331
2BDA2
  5
2BDA9
331
2BDA3
  5
2BDAA
331
2BDA4
  5
2BDAB
331
2BDA5
  5
2BDAC
331
2BDA6
  5
2BDAD
331
2BDA7
  5
2BDAE
331
2BDA8
  5
2BDAF
331
2BDA9
  5
2BDB0
331
2BDAA
  5
2BDB1
331
2BDAB
  5
2BDB2
331
2BDAC
  5
2BDB3
331
2BDAD
  5
2BDB4
331
2BDAE
  5
2BDB5
331
2BDAF
  5
2BDB6
331
2BDB0
  5
2BDB7
331
2BDB1
  5
2BDB8
331
2BDB2
  5
2BDB9
331
2BDB3
  5
2BDBA
331
2BDB4
  5
2BDBB
331
2BDB5
  5
2BDBC
331
2BDB6
  5
2BDBD
331
2BDB7
  5
2BDBE
331
2BDB8
  5
2BDBF
331
2BDB9
  5
2BDC0
331
2BDBA
  5
2BDC1
331
2BDBB
  5
2BDC2
331
2BDBC
  5
2BDC3
331
2BDBD
  5
2BDC4
331
2BDBE
  5
2BDC5
331
2BDBF
  5
2BDC6
331
2BDC0
  5
2BDC7
331
2BDC1
  5
2BDC8
331
2BDC2
  5
2BDC9
331
2BDC3
  5
2BDCA
331
2BDC4
  5
2BDCD
331
2BDC5
  5
2BDD0
331
2BDC6
  5
2BDD1
331
2BDC7
  5
2BDD2
331
2BDC8
  5
2BDD3
331
2BDC9
  5
2BDD4
331
2BDCA
  5
2BDD6
331
2BDCB
  5
2BDD7
331
2BDCC
  5
2BDD8
331
2BDCD
  5
2BDD9
331
2BDCE
  5
2BDDA
331
2BDCF
  5
2BDDB
331
2BDD0
  5
2BDDC
331
2BDD1
  5
2BDDD
331
2BDD2
  5
2BDDE
331
2BDD3
  5
2BDDF
331
2BDD4
  5
2BDE0
331
2BDD5
  5
2BDE1
331
2BDD6
  5
2BDE2
331
2BDD7
  5
2BDE3
331
2BDD8
  5
2BDE4
331
2BDD9
  5
2BDE5
331
2BDDA
  5
2BDE6
331
2BDDB
  5
2BDE7
331
2BDDC
  5
2BDE8
331
2BDDD
  5
2BDE9
331
2BDDE
  5
2BDEA
331
2BDDF
  5
2BDEB
331
2BDE0
  5
2BDEC
331
2BDE1
  5
2BDED
331
2BDE2
  5
2BDEE
331
2BDE3
  5
2BDEF
331
2BDE4
  5
2BDF0
331
2BDE5
  5
2BDF1
331
2BDE6
  5
2BDF2
331
2BDE7
  5
2BDF3
331
2BDE8
  5
2BDF4
331
2BDE9
  5
2BDF5
331
2BDEA
  5
2BDF6
331
2BDEB
  5
2BDF7
331
2BDEC
  5
2BDF8
331
2BDED
  5
2BDF9
331
2BDEE
  5
2BDFA
331
2BDEF
  5
2BDFB
331
2BDF0
  5
2BDFC
331
2BDF1
  5
2BDFD
331
2BDF2
  5
2BDFE
331
2BDF3
  5
2BDFF
331
2BDF4
  5
2BE00
331
2BDF5
  5
2BE01
331
2BDF6
  5
2BE02
331
2BDF7
  5
2BE03
331
2BDF8
  5
2BE04
331
2BDF9
  5
2BE05
331
2BDFA
  5
2BE06
331
2BDFB
  5
2BE07
331
2BDFC
  5
2BE08
331
2BDFD
  5
2BE09
331
2BDFE
  5
2BE0A
331
2BDFF
  5
2BE0B
331
2BE00
  5
2BE0C
331
2BE01
  5
2BE0D
331
2BE02
  5
2BE0E
331
2BE03
  5
2BE0F
331
2BE04
  5
2BE10
331
2BE05
  5
2BE11
331
2BE06
  5
2BE12
331
2BE07
  5
2BE13
331
2BE08
  5
2BE14
331
2BE09
  5
2BE15
331
2BE0A
  5
2BE16
331
2BE0B
  5
2BE17
331
2BE0C
  5
2BE18
331
2BE0D
  5
2BE19
331
2BE0E
  5
2BE1A
331
2BE0F
  5
2BE1B
331
2BE10
  5
2BE1C
331
2BE11
  5
2BE1D
331
2BE12
  5
2BE1E
331
2BE13
  5
2BE1F
331
2BE14
  5
2BE20
331
2BE15
  5
2BE21
331
2BE16
  5
2BE22
331
2BE17
  5
2BE23
331
2BE18
  5
2BE24
331
2BE19
  5
2BE25
331
2BE1A
  5
2BE26
331
2BE1B
  5
2BE27
331
2BE1C
  5
2BE28
331
2BE1D
  5
2BE29
331
2BE1E
  5
2BE2A
331
2BE1F
  5
2BE2B
331
2BE20
  5
2BE2C
331
2BE21
  5
2BE2D
331
2BE22
  5
2BE2E
331
2BE23
  5
2BE2F
331
2BE24
  5
2BE30
331
2BE25
  5
2BE31
331
2BE26
  5
2BE32
331
2BE27
  5
2BE33
331
2BE28
  5
2BE34
331
2BE29
  5
2BE35
331
2BE2A
  5
2BE36
331
2BE2B
  5
2BE37
331
2BE2C
  5
2BE38
331
2BE2D
  5
2BE39
331
2BE2E
  5
2BE3C
331
2BE2F
  5
2BE3D
331
2BE30
  5
2BE3E
331
2BE31
  5
2BE3F
331
2BE32
  5
2BE40
331
2BE33
  5
2BE41
331
2BE34
  5
2BE46
331
2BE35
  5
2BE47
331
2BE36
  5
2BE48
331
2BE37
  5
2BE4A
331
2BE38
  5
2BE4B
331
2BE39
  5
2BE64
331
2BE3A
  5
2BE6E
331
2BE42
  5
2BE4C
331
2BE46
  5
2BE42
331
2BE4A
  5
2BE43
331
2BE4B
  5
2BE44
331
2BE64
  5
2BEE0
331
2BE6E
  5
2BEFA
331
2BEA9
  5
2BEAA
331
2BEAA
  5
2BEAB
331
2BEAB
  5
2BEAC
331
2BEAC
  5
2BEAD
331
2BEAD
  5
2BEAE
331
2BEAE
  5
2BEBE
331
2BEBE
  5
2BEBF
331
2BEBF
  5
2BEC0
331
2BEC0
  5
2BEC1
331
2BEC1
  5
2BEC3
331
2BEC2
  5
2BEC4
331
2BEC3
  5
2BEC5
331
2BEC5
  5
2BEC7
331
2BEDF
  5
7B96
331
2BEF9
  5
7B95
331
2BF08
  5
2BD66
  0
SORTENTSTABLE
  5
21CC5
102
{ACAD_REACTORS
330
21CC4
102
}
330
21CC4
100
AcDbSortentsTable
330
21CC2
  0
DIMASSOC
  5
2BF1C
102
{ACAD_REACTORS
330
2BF1B
102
}
330
2BF1B
100
AcDbDimAssoc
330
2BF19
 90
        1
 70
     0
 71
     0
  1
AcDbOsnapPointRef
 72
    10
331
2BE42
 73
     2
 91
        0
 40
0.1259088754481896
 10
0.0
 20
0.0
 30
0.0
 75
     0
  0
DIMASSOC
  5
2BF24
102
{ACAD_REACTORS
330
2BF23
102
}
330
2BF23
100
AcDbDimAssoc
330
2BF21
 90
        1
 70
     0
 71
     0
  1
AcDbOsnapPointRef
 72
    10
331
2BE4A
 73
     2
 91
        0
 40
0.9113970190695377
 10
0.0
 20
0.0
 30
0.0
 75
     0
  0
DIMASSOC
  5
2BF2A
102
{ACAD_REACTORS
330
2BF29
102
}
330
2BF29
100
AcDbDimAssoc
330
2BF27
 90
        1
 70
     0
 71
     0
  1
AcDbOsnapPointRef
 72
     2
331
2BEAE
 73
     2
 91
        0
 40
0.5000000000000001
 10
0.0
 20
0.0
 30
0.0
 75
     0
  0
DIMASSOC
  5
2BFDF
102
{ACAD_REACTORS
330
2BFD4
102
}
330
2BFD4
100
AcDbDimAssoc
330
2BFC6
 90
        3
 70
     0
 71
     0
  1
AcDbOsnapPointRef
 72
     1
331
2BD5A
 73
     2
 91
        0
 40
1.0
 10
0.0
 20
0.0
 30
2.000000000000000E+50
 75
     0
  1
AcDbOsnapPointRef
 72
    13
331
2BD5E
 73
     2
 91
        0
 40
0.0
 10
0.0
 20
0.0
 30
2.000000000000000E+50
 75
     0
  0
XRECORD
  5
2C186
102
{ACAD_REACTORS
330
2C147
102
}
330
2C147
100
AcDbXrecord
280
     1
 40
49533.0
  1
\pxql;{\fArial|b0|i0|c0|p34;\H1.0833x;®}
  0
XRECORD
  5
2C187
102
{ACAD_REACTORS
330
2C149
102
}
330
2C149
100
AcDbXrecord
280
     1
 40
250958.0
  1
\pxqc;{\C256;\c16777215;Build Anything \fCalibri|b1|i0|c0|p34;Better.}
  0
DICTIONARY
  5
2C14A
102
{ACAD_REACTORS
330
2C149
102
}
330
2C149
100
AcDbDictionary
281
     1
  3
ACDB_ANNOTATIONSCALES
350
2C14B
  0
ACDBDETAILVIEWSTYLE
  5
2C103
102
{ACAD_XDICTIONARY
360
2C1C7
102
}
102
{ACAD_REACTORS
330
2C102
102
}
330
2C102
100
AcDbModelDocViewStyle
 70
     0
  3
Imperial24
290
     0
100
AcDbDetailViewStyle
 70
     0
 71
     0
 90
        3
 71
     1
340
11
 62
   256
 40
0.24
340
0
 62
   256
 40
0.24
300

 40
0.36
280
     3
 71
     2
340
16
 90
       25
 62
   256
 71
     3
340
11
 62
   256
 40
0.24
 90
        1
 40
0.75
 90
        1
300
%<\AcVar ViewType \f "%tc1">% %<\AcVar ViewDetailId>%\PSCALE %<\AcVar ViewScale \f "%sn">%
 71
     4
340
16
 90
       25
 62
   256
340
16
 90
       25
 62
   256
280
     0
  0
LAYOUT
  5
59
102
{ACAD_XDICTIONARY
360
11F01
102
}
102
{ACAD_REACTORS
330
1A
102
}
330
1A
100
AcDbPlotSettings
  1

  2
none_device
  4
Letter_(8.50_x_11.00_Inches)
  6

 40
6.349999904632568
 41
6.349999904632568
 42
6.350006103515625
 43
6.350006103515625
 44
215.8999938964844
 45
279.3999938964844
 46
0.0
 47
0.0
 48
0.0
 49
0.0
140
0.0
141
0.0
142
1.0
143
1.0
 70
   688
 72
     0
 73
     1
 74
     5
  7
acad.ctb
 75
    16
147
1.0
 76
     0
 77
     2
 78
   300
148
0.0
149
0.0
100
AcDbLayout
  1
Layout1
 70
     1
 71
     1
 10
-0.2500002402958907
 20
-0.2499999962453767
 11
10.74999951940821
 21
8.249999763458731
 12
0.0
 22
0.0
 32
0.0
 14
1.049999952316284
 24
0.7999999523162842
 34
0.0
 15
9.449999570846555
 25
7.199999570846556
 35
0.0
146
0.0
 13
0.0
 23
0.0
 33
0.0
 16
1.0
 26
0.0
 36
0.0
 17
0.0
 27
1.0
 37
0.0
 76
     0
330
58
331
11EF8
1001
ACAD_PSEXT
1000
None
1000
None
1000
Not applicable
1000
The layout will not be plotted unless a new plotter configuration name is selected.
1070
     0
  0
LAYOUT
  5
5E
102
{ACAD_XDICTIONARY
360
11F0E
102
}
102
{ACAD_REACTORS
330
1A
102
}
330
1A
100
AcDbPlotSettings
  1

  2
none_device
  4
Letter_(8.50_x_11.00_Inches)
  6

 40
6.349999904632568
 41
6.349999904632568
 42
6.350006103515625
 43
6.350006103515625
 44
215.8999938964844
 45
279.3999938964844
 46
0.0
 47
0.0
 48
0.0
 49
0.0
140
0.0
141
0.0
142
1.0
143
1.0
 70
   688
 72
     0
 73
     1
 74
     5
  7
acad.ctb
 75
    16
147
1.0
 76
     0
 77
     2
 78
   300
148
0.0
149
0.0
100
AcDbLayout
  1
Layout2
 70
     1
 71
     2
 10
-0.2500002402958907
 20
-0.2499999962453767
 11
10.74999951940821
 21
8.249999763458731
 12
0.0
 22
0.0
 32
0.0
 14
1.049999952316284
 24
0.7999999523162842
 34
0.0
 15
9.449999570846555
 25
7.199999570846556
 35
0.0
146
0.0
 13
0.0
 23
0.0
 33
0.0
 16
1.0
 26
0.0
 36
0.0
 17
0.0
 27
1.0
 37
0.0
 76
     0
330
5D
331
11F07
1001
ACAD_PSEXT
1000
None
1000
None
1000
Not applicable
1000
The layout will not be plotted unless a new plotter configuration name is selected.
1070
     0
  0
LAYOUT
  5
22
102
{ACAD_XDICTIONARY
360
2C0D5
102
}
102
{ACAD_REACTORS
330
1A
102
}
330
1A
100
AcDbPlotSettings
  1

  2
Adobe PDF
  4
Letter
  6

 40
3.174999952316284
 41
3.174999952316284
 42
3.175003051757812
 43
3.17498779296875
 44
215.8999938964844
 45
279.3999938964844
 46
0.0
 47
1.052083992558644
 48
27.09837136382942
 49
-0.7465694939592141
140
113.4754913651642
141
111.0424789585042
142
1.0
143
10.48054132812224
 70
  3764
 72
     0
 73
     0
 74
     1
  7
acad.ctb
 75
     0
147
0.0954149188188132
 76
     0
 77
     4
 78
   300
148
-686.1715512826317
149
19.17291427722701
100
AcDbLayout
  1
Model
 70
     1
 71
     0
 10
0.0
 20
0.0
 11
12.0
 21
9.0
 12
0.0
 22
0.0
 32
0.0
 14
0.0
 24
0.0
 34
0.0
 15
0.0
 25
0.0
 35
0.0
146
0.0
 13
0.0
 23
0.0
 33
0.0
 16
1.0
 26
0.0
 36
0.0
 17
0.0
 27
1.0
 37
0.0
 76
     0
330
1F
331
2BFE1
1001
ACAD_PSEXT
1000
Adobe PDF
1000
Adobe PDF Converter
1000
Documents\*.pdf
1000

1070
     0
  0
MATERIAL
  5
2BFF8
102
{ACAD_XDICTIONARY
360
2BFF9
102
}
102
{ACAD_REACTORS
330
72
102
}
330
72
100
AcDbMaterial
  1
ByBlock
 72
     0
 43
0.0208333333333333
 43
0.0
 43
0.0
 43
0.0
 43
0.0
 43
0.0208333333333333
 43
0.0
 43
0.0
 43
0.0
 43
0.0
 43
1.0
 43
0.0
 43
0.0
 43
0.0
 43
0.0
 43
1.0
 77
     0
 47
0.0208333333333333
 47
0.0
 47
0.0
 47
0.0
 47
0.0
 47
0.0208333333333333
 47
0.0
 47
0.0
 47
0.0
 47
0.0
 47
1.0
 47
0.0
 47
0.0
 47
0.0
 47
0.0
 47
1.0
171
     0
 49
0.0208333333333333
 49
0.0
 49
0.0
 49
0.0
 49
0.0
 49
0.0208333333333333
 49
0.0
 49
0.0
 49
0.0
 49
0.0
 49
1.0
 49
0.0
 49
0.0
 49
0.0
 49
0.0
 49
1.0
175
     0
142
0.0208333333333333
142
0.0
142
0.0
142
0.0
142
0.0
142
0.0208333333333333
142
0.0
142
0.0
142
0.0
142
0.0
142
1.0
142
0.0
142
0.0
142
0.0
142
0.0
142
1.0
179
     0
144
0.0208333333333333
144
0.0
144
0.0
144
0.0
144
0.0
144
0.0208333333333333
144
0.0
144
0.0
144
0.0
144
0.0
144
1.0
144
0.0
144
0.0
144
0.0
144
0.0
144
1.0
147
0.0208333333333333
147
0.0
147
0.0
147
0.0
147
0.0
147
0.0208333333333333
147
0.0
147
0.0
147
0.0
147
0.0
147
1.0
147
0.0
147
0.0
147
0.0
147
0.0
147
1.0
  0
MATERIAL
  5
2BFF0
102
{ACAD_XDICTIONARY
360
2BFF1
102
}
102
{ACAD_REACTORS
330
72
102
}
330
72
100
AcDbMaterial
  1
ByLayer
 72
     0
 43
0.0208333333333333
 43
0.0
 43
0.0
 43
0.0
 43
0.0
 43
0.0208333333333333
 43
0.0
 43
0.0
 43
0.0
 43
0.0
 43
1.0
 43
0.0
 43
0.0
 43
0.0
 43
0.0
 43
1.0
 77
     0
 47
0.0208333333333333
 47
0.0
 47
0.0
 47
0.0
 47
0.0
 47
0.0208333333333333
 47
0.0
 47
0.0
 47
0.0
 47
0.0
 47
1.0
 47
0.0
 47
0.0
 47
0.0
 47
0.0
 47
1.0
171
     0
 49
0.0208333333333333
 49
0.0
 49
0.0
 49
0.0
 49
0.0
 49
0.0208333333333333
 49
0.0
 49
0.0
 49
0.0
 49
0.0
 49
1.0
 49
0.0
 49
0.0
 49
0.0
 49
0.0
 49
1.0
175
     0
142
0.0208333333333333
142
0.0
142
0.0
142
0.0
142
0.0
142
0.0208333333333333
142
0.0
142
0.0
142
0.0
142
0.0
142
1.0
142
0.0
142
0.0
142
0.0
142
0.0
142
1.0
179
     0
144
0.0208333333333333
144
0.0
144
0.0
144
0.0
144
0.0
144
0.0208333333333333
144
0.0
144
0.0
144
0.0
144
0.0
144
1.0
144
0.0
144
0.0
144
0.0
144
0.0
144
1.0
147
0.0208333333333333
147
0.0
147
0.0
147
0.0
147
0.0
147
0.0208333333333333
147
0.0
147
0.0
147
0.0
147
0.0
147
1.0
147
0.0
147
0.0
147
0.0
147
0.0
147
1.0
  0
MATERIAL
  5
2C000
102
{ACAD_XDICTIONARY
360
2C001
102
}
102
{ACAD_REACTORS
330
72
102
}
330
72
100
AcDbMaterial
  1
Global
 72
     0
 43
0.0208333333333333
 43
0.0
 43
0.0
 43
0.0
 43
0.0
 43
0.0208333333333333
 43
0.0
 43
0.0
 43
0.0
 43
0.0
 43
1.0
 43
0.0
 43
0.0
 43
0.0
 43
0.0
 43
1.0
 77
     0
 47
0.0208333333333333
 47
0.0
 47
0.0
 47
0.0
 47
0.0
 47
0.0208333333333333
 47
0.0
 47
0.0
 47
0.0
 47
0.0
 47
1.0
 47
0.0
 47
0.0
 47
0.0
 47
0.0
 47
1.0
171
     0
 49
0.0208333333333333
 49
0.0
 49
0.0
 49
0.0
 49
0.0
 49
0.0208333333333333
 49
0.0
 49
0.0
 49
0.0
 49
0.0
 49
1.0
 49
0.0
 49
0.0
 49
0.0
 49
0.0
 49
1.0
175
     0
142
0.0208333333333333
142
0.0
142
0.0
142
0.0
142
0.0
142
0.0208333333333333
142
0.0
142
0.0
142
0.0
142
0.0
142
1.0
142
0.0
142
0.0
142
0.0
142
0.0
142
1.0
179
     0
144
0.0208333333333333
144
0.0
144
0.0
144
0.0
144
0.0
144
0.0208333333333333
144
0.0
144
0.0
144
0.0
144
0.0
144
1.0
144
0.0
144
0.0
144
0.0
144
0.0
144
1.0
147
0.0208333333333333
147
0.0
147
0.0
147
0.0
147
0.0
147
0.0208333333333333
147
0.0
147
0.0
147
0.0
147
0.0
147
1.0
147
0.0
147
0.0
147
0.0
147
0.0
147
1.0
  0
MLEADERSTYLE
  5
2C03C
102
{ACAD_REACTORS
330
2C03B
102
}
330
2C03B
100
AcDbMLeaderStyle
179
     2
170
     2
171
     1
172
     0
 90
        2
 40
0.0
 41
0.0
173
     1
 91
-1056964608
340
14
 92
       -2
290
     1
 42
0.09
291
     1
 43
0.36
  3
Standard
 44
0.18
300

342
11
174
     1
178
     6
175
     1
176
     0
 93
-1056964608
 45
0.18
292
     0
297
     0
 46
0.18
 94
-1056964608
 47
1.0
 49
1.0
140
1.0
293
     1
141
0.0
294
     1
177
     0
142
1.0
295
     0
296
     0
143
0.125
271
     0
272
     9
273
     9
  0
MLINESTYLE
  5
18
102
{ACAD_REACTORS
330
17
102
}
330
17
100
AcDbMlineStyle
  2
STANDARD
 70
     0
  3

 62
   256
 51
90.0
 52
90.0
 71
     2
 49
0.5
 62
   256
  6
BYLAYER
 49
-0.5
 62
   256
  6
BYLAYER
  0
ACDBPLACEHOLDER
  5
F
102
{ACAD_REACTORS
330
E
102
}
330
E
  0
SCALE
  5
2C01A
102
{ACAD_REACTORS
330
2C019
102
}
330
2C019
100
AcDbScale
 70
     0
300
1:1
140
1.0
141
1.0
290
     1
  0
SCALE
  5
2C01B
102
{ACAD_REACTORS
330
2C019
102
}
330
2C019
100
AcDbScale
 70
     0
300
1:2
140
1.0
141
2.0
290
     0
  0
SCALE
  5
2C01C
102
{ACAD_REACTORS
330
2C019
102
}
330
2C019
100
AcDbScale
 70
     0
300
1:4
140
1.0
141
4.0
290
     0
  0
SCALE
  5
2C01D
102
{ACAD_REACTORS
330
2C019
102
}
330
2C019
100
AcDbScale
 70
     0
300
1:5
140
1.0
141
5.0
290
     0
  0
SCALE
  5
2C01E
102
{ACAD_REACTORS
330
2C019
102
}
330
2C019
100
AcDbScale
 70
     0
300
1:8
140
1.0
141
8.0
290
     0
  0
SCALE
  5
2C01F
102
{ACAD_REACTORS
330
2C019
102
}
330
2C019
100
AcDbScale
 70
     0
300
1:10
140
1.0
141
10.0
290
     0
  0
SCALE
  5
2C020
102
{ACAD_REACTORS
330
2C019
102
}
330
2C019
100
AcDbScale
 70
     0
300
1:16
140
1.0
141
16.0
290
     0
  0
SCALE
  5
2C021
102
{ACAD_REACTORS
330
2C019
102
}
330
2C019
100
AcDbScale
 70
     0
300
1:20
140
1.0
141
20.0
290
     0
  0
SCALE
  5
2C022
102
{ACAD_REACTORS
330
2C019
102
}
330
2C019
100
AcDbScale
 70
     0
300
1:30
140
1.0
141
30.0
290
     0
  0
SCALE
  5
2C023
102
{ACAD_REACTORS
330
2C019
102
}
330
2C019
100
AcDbScale
 70
     0
300
1:40
140
1.0
141
40.0
290
     0
  0
SCALE
  5
2C024
102
{ACAD_REACTORS
330
2C019
102
}
330
2C019
100
AcDbScale
 70
     0
300
1:50
140
1.0
141
50.0
290
     0
  0
SCALE
  5
2C025
102
{ACAD_REACTORS
330
2C019
102
}
330
2C019
100
AcDbScale
 70
     0
300
1:100
140
1.0
141
100.0
290
     0
  0
SCALE
  5
2C026
102
{ACAD_REACTORS
330
2C019
102
}
330
2C019
100
AcDbScale
 70
     0
300
2:1
140
2.0
141
1.0
290
     0
  0
SCALE
  5
2C027
102
{ACAD_REACTORS
330
2C019
102
}
330
2C019
100
AcDbScale
 70
     0
300
4:1
140
4.0
141
1.0
290
     0
  0
SCALE
  5
2C028
102
{ACAD_REACTORS
330
2C019
102
}
330
2C019
100
AcDbScale
 70
     0
300
8:1
140
8.0
141
1.0
290
     0
  0
SCALE
  5
2C029
102
{ACAD_REACTORS
330
2C019
102
}
330
2C019
100
AcDbScale
 70
     0
300
10:1
140
10.0
141
1.0
290
     0
  0
SCALE
  5
2C02A
102
{ACAD_REACTORS
330
2C019
102
}
330
2C019
100
AcDbScale
 70
     0
300
100:1
140
100.0
141
1.0
290
     0
  0
SCALE
  5
2C02B
102
{ACAD_REACTORS
330
2C019
102
}
330
2C019
100
AcDbScale
 70
     0
300
1/128" = 1'-0"
140
0.0078125
141
12.0
290
     0
  0
SCALE
  5
2C02C
102
{ACAD_REACTORS
330
2C019
102
}
330
2C019
100
AcDbScale
 70
     0
300
1/64" = 1'-0"
140
0.015625
141
12.0
290
     0
  0
SCALE
  5
2C02D
102
{ACAD_REACTORS
330
2C019
102
}
330
2C019
100
AcDbScale
 70
     0
300
1/32" = 1'-0"
140
0.03125
141
12.0
290
     0
  0
SCALE
  5
2C02E
102
{ACAD_REACTORS
330
2C019
102
}
330
2C019
100
AcDbScale
 70
     0
300
1/16" = 1'-0"
140
0.0625
141
12.0
290
     0
  0
SCALE
  5
2C02F
102
{ACAD_REACTORS
330
2C019
102
}
330
2C019
100
AcDbScale
 70
     0
300
3/32" = 1'-0"
140
0.09375
141
12.0
290
     0
  0
SCALE
  5
2C030
102
{ACAD_REACTORS
330
2C019
102
}
330
2C019
100
AcDbScale
 70
     0
300
1/8" = 1'-0"
140
0.125
141
12.0
290
     0
  0
SCALE
  5
2C031
102
{ACAD_REACTORS
330
2C019
102
}
330
2C019
100
AcDbScale
 70
     0
300
3/16" = 1'-0"
140
0.1875
141
12.0
290
     0
  0
SCALE
  5
2C032
102
{ACAD_REACTORS
330
2C019
102
}
330
2C019
100
AcDbScale
 70
     0
300
1/4" = 1'-0"
140
0.25
141
12.0
290
     0
  0
SCALE
  5
2C033
102
{ACAD_REACTORS
330
2C019
102
}
330
2C019
100
AcDbScale
 70
     0
300
3/8" = 1'-0"
140
0.375
141
12.0
290
     0
  0
SCALE
  5
2C034
102
{ACAD_REACTORS
330
2C019
102
}
330
2C019
100
AcDbScale
 70
     0
300
1/2" = 1'-0"
140
0.5
141
12.0
290
     0
  0
SCALE
  5
2C035
102
{ACAD_REACTORS
330
2C019
102
}
330
2C019
100
AcDbScale
 70
     0
300
3/4" = 1'-0"
140
0.75
141
12.0
290
     0
  0
SCALE
  5
2C036
102
{ACAD_REACTORS
330
2C019
102
}
330
2C019
100
AcDbScale
 70
     0
300
1" = 1'-0"
140
1.0
141
12.0
290
     0
  0
SCALE
  5
2C037
102
{ACAD_REACTORS
330
2C019
102
}
330
2C019
100
AcDbScale
 70
     0
300
1-1/2" = 1'-0"
140
1.5
141
12.0
290
     0
  0
SCALE
  5
2C038
102
{ACAD_REACTORS
330
2C019
102
}
330
2C019
100
AcDbScale
 70
     0
300
3" = 1'-0"
140
3.0
141
12.0
290
     0
  0
SCALE
  5
2C039
102
{ACAD_REACTORS
330
2C019
102
}
330
2C019
100
AcDbScale
 70
     0
300
6" = 1'-0"
140
6.0
141
12.0
290
     0
  0
SCALE
  5
2C03A
102
{ACAD_REACTORS
330
2C019
102
}
330
2C019
100
AcDbScale
 70
     0
300
1'-0" = 1'-0"
140
12.0
141
12.0
290
     0
  0
ACDBSECTIONVIEWSTYLE
  5
2C101
102
{ACAD_XDICTIONARY
360
2C1C5
102
}
102
{ACAD_REACTORS
330
2C100
102
}
330
2C100
100
AcDbModelDocViewStyle
 70
     0
  3
Imperial24
290
     0
100
AcDbSectionViewStyle
 70
     0
 71
     0
 90
       78
 71
     1
340
11
 62
   256
 40
0.24
340
0
340
0
 62
   256
 40
0.24
300
I, O, Q, S, X, Z
 40
0.48
 90
        3
 40
0.18
 90
        1
 71
     2
340
16
 90
       25
 62
   256
340
16
 90
       50
 62
   256
 40
0.24
 40
0.0
 40
0.24
 71
     3
340
11
 62
   256
 40
0.24
 90
        1
 40
0.75
 90
        1
300
%<\AcVar ViewType \f "%tc1">% %<\AcVar ViewSectionStartId>%-%<\AcVar ViewSectionEndId>%\PSCALE %<\AcVar ViewScale \f "%sn">%
 71
     4
 62
   256
 62
   257
300
ANSI31
 40
1.0
 90
        0
290
     0
290
     0
 90
        6
 40
0.0
 40
1.570796326794896
 40
0.2617993877991494
 40
1.308996938995747
 40
-0.2617993877991494
 40
1.832595714594046
  0
TABLESTYLE
  5
37C9
102
{ACAD_XDICTIONARY
360
2C05B
102
}
102
{ACAD_REACTORS
330
86
102
}
330
86
100
AcDbTableStyle
280
     0
  3
Standard
 70
     0
 71
     0
 40
0.06
 41
0.06
280
     0
281
     0
  7
Arial
140
0.18
170
     2
 62
     0
 63
     7
283
     0
 90
        4
 91
        0
  1

274
    -2
284
     1
 64
     0
275
    -2
285
     1
 65
     0
276
    -2
286
     1
 66
     0
277
    -2
287
     1
 67
     0
278
    -2
288
     1
 68
     0
279
    -2
289
     1
 69
     0
  7
Arial
140
0.25
170
     5
 62
     1
 63
     7
283
     0
 90
        4
 91
        0
  1

274
    -2
284
     1
 64
     0
275
    -2
285
     1
 65
     0
276
    -2
286
     1
 66
     0
277
    -2
287
     1
 67
     0
278
    -2
288
     1
 68
     0
279
    -2
289
     1
 69
     0
  7
Arial
140
0.18
170
     5
 62
     5
 63
     9
283
     1
 90
        4
 91
        0
  1

274
    -2
284
     1
 64
     0
275
    -2
285
     1
 65
     0
276
    -2
286
     1
 66
     0
277
    -2
287
     1
 67
     0
278
    -2
288
     1
 68
     0
279
    -2
289
     1
 69
     0
  0
TABLESTYLE
  5
36AB
102
{ACAD_XDICTIONARY
360
2C059
102
}
102
{ACAD_REACTORS
330
86
102
}
330
86
100
AcDbTableStyle
280
     0
  3
Standard
 70
     0
 71
     0
 40
1.5
 41
1.5
280
     0
281
     0
  7
Arial
140
4.5
170
     2
 62
     0
 63
     7
283
     0
 90
        4
 91
        0
  1

274
    -2
284
     1
 64
     0
275
    -2
285
     1
 65
     0
276
    -2
286
     1
 66
     0
277
    -2
287
     1
 67
     0
278
    -2
288
     1
 68
     0
279
    -2
289
     1
 69
     0
  7
Arial
140
6.0
170
     5
 62
     1
 63
   254
421
 14079702
283
     1
 90
        4
 91
        0
  1

274
    -2
284
     1
 64
     0
275
    -2
285
     1
 65
     0
276
    -2
286
     1
 66
     0
277
    -2
287
     1
 67
     0
278
    -2
288
     1
 68
     0
279
    -2
289
     1
 69
     0
  7
Arial
140
4.5
170
     5
 62
     5
 63
     7
283
     0
 90
        4
 91
        0
  1

274
    -2
284
     1
 64
     0
275
    -2
285
     1
 65
     0
276
    -2
286
     1
 66
     0
277
    -2
287
     1
 67
     0
278
    -2
288
     1
 68
     0
279
    -2
289
     1
 69
     0
  0
TABLESTYLE
  5
87
102
{ACAD_XDICTIONARY
360
2C057
102
}
102
{ACAD_REACTORS
330
86
102
}
330
86
100
AcDbTableStyle
280
     0
  3
Standard
 70
     0
 71
     0
 40
0.06
 41
0.06
280
     0
281
     0
  7
Standard
140
0.18
170
     2
 62
     0
 63
     7
283
     0
 90
        4
 91
        0
  1

274
    -2
284
     1
 64
     0
275
    -2
285
     1
 65
     0
276
    -2
286
     1
 66
     0
277
    -2
287
     1
 67
     0
278
    -2
288
     1
 68
     0
279
    -2
289
     1
 69
     0
  7
Standard
140
0.25
170
     5
 62
     0
 63
     7
283
     0
 90
        4
 91
        0
  1

274
    -2
284
     1
 64
     0
275
    -2
285
     1
 65
     0
276
    -2
286
     1
 66
     0
277
    -2
287
     1
 67
     0
278
    -2
288
     1
 68
     0
279
    -2
289
     1
 69
     0
  7
Standard
140
0.18
170
     5
 62
     0
 63
     7
283
     0
 90
        4
 91
        0
  1

274
    -2
284
     1
 64
     0
275
    -2
285
     1
 65
     0
276
    -2
286
     1
 66
     0
277
    -2
287
     1
 67
     0
278
    -2
288
     1
 68
     0
279
    -2
289
     1
 69
     0
  0
VISUALSTYLE
  5
2C00E
102
{ACAD_XDICTIONARY
360
2C19B
102
}
102
{ACAD_REACTORS
330
2C008
102
}
330
2C008
100
AcDbVisualStyle
  2
2dWireframe
 70
     4
177
     2
291
     0
 71
     0
176
     1
 72
     2
176
     1
 73
     0
176
     1
 90
        0
176
     1
 40
0.6
176
     1
 41
30.0
176
     1
 63
     7
421
 16777215
176
     1
 74
     1
176
     1
 91
        4
176
     1
 64
     7
176
     1
 65
   257
176
     1
 75
     1
176
     1
175
     1
176
     1
 42
1.0
176
     1
 92
        0
176
     1
 66
   257
176
     1
 43
1.0
176
     1
 76
     1
176
     1
 77
     6
176
     1
 78
     2
176
     1
 67
     7
176
     1
 79
     5
176
     1
170
     0
176
     1
171
     0
176
     1
290
     0
176
     1
 93
        1
176
     1
 44
0.0
176
     1
173
     0
176
     1
1001
ACAD
1000
AcDbSavedByObjectVersion
1070
     0
  0
VISUALSTYLE
  5
2C010
102
{ACAD_XDICTIONARY
360
2C19F
102
}
102
{ACAD_REACTORS
330
2C008
102
}
330
2C008
100
AcDbVisualStyle
  2
3D Hidden
 70
     6
177
     2
291
     0
 71
     1
176
     1
 72
     2
176
     1
 73
     2
176
     1
 90
        0
176
     1
 40
0.6
176
     1
 41
30.0
176
     1
 63
     7
421
 16777215
176
     1
 74
     2
176
     1
 91
        2
176
     1
 64
     7
176
     1
 65
   257
176
     1
 75
     2
176
     1
175
     1
176
     1
 42
40.0
176
     1
 92
        0
176
     1
 66
   257
176
     1
 43
1.0
176
     1
 76
     1
176
     1
 77
     6
176
     1
 78
     2
176
     1
 67
     7
176
     1
 79
     3
176
     1
170
     0
176
     1
171
     0
176
     1
290
     0
176
     1
 93
        1
176
     1
 44
0.0
176
     1
173
     0
176
     1
1001
ACAD
1000
AcDbSavedByObjectVersion
1070
     0
  0
VISUALSTYLE
  5
2C00F
102
{ACAD_XDICTIONARY
360
2C19D
102
}
102
{ACAD_REACTORS
330
2C008
102
}
330
2C008
100
AcDbVisualStyle
  2
3dWireframe
 70
     5
177
     2
291
     0
 71
     0
176
     1
 72
     2
176
     1
 73
     0
176
     1
 90
        0
176
     1
 40
0.6
176
     1
 41
30.0
176
     1
 63
     7
421
 16777215
176
     1
 74
     1
176
     1
 91
        4
176
     1
 64
     7
176
     1
 65
   257
176
     1
 75
     1
176
     1
175
     1
176
     1
 42
1.0
176
     1
 92
        0
176
     1
 66
   257
176
     1
 43
1.0
176
     1
 76
     1
176
     1
 77
     6
176
     1
 78
     2
176
     1
 67
     7
176
     1
 79
     5
176
     1
170
     0
176
     1
171
     0
176
     1
290
     0
176
     1
 93
        1
176
     1
 44
0.0
176
     1
173
     0
176
     1
1001
ACAD
1000
AcDbSavedByObjectVersion
1070
     0
  0
VISUALSTYLE
  5
2C00D
102
{ACAD_XDICTIONARY
360
2C199
102
}
102
{ACAD_REACTORS
330
2C008
102
}
330
2C008
100
AcDbVisualStyle
  2
Basic
 70
     7
177
     2
291
     1
 71
     1
176
     1
 72
     0
176
     1
 73
     1
176
     1
 90
        0
176
     1
 40
0.6
176
     1
 41
30.0
176
     1
 63
     7
421
 16777215
176
     1
 74
     0
176
     1
 91
        4
176
     1
 64
     7
176
     1
 65
   257
176
     1
 75
     1
176
     1
175
     1
176
     1
 42
1.0
176
     1
 92
        8
176
     1
 66
     7
176
     1
 43
1.0
176
     1
 76
     1
176
     1
 77
     6
176
     1
 78
     2
176
     1
 67
     7
176
     1
 79
     5
176
     1
170
     0
176
     1
171
     0
176
     1
290
     0
176
     1
 93
        1
176
     1
 44
0.0
176
     1
173
     0
176
     1
1001
ACAD
1000
AcDbSavedByObjectVersion
1070
     0
  0
VISUALSTYLE
  5
2C014
102
{ACAD_XDICTIONARY
360
2C1A7
102
}
102
{ACAD_REACTORS
330
2C008
102
}
330
2C008
100
AcDbVisualStyle
  2
Brighten
 70
    12
177
     2
291
     1
 71
     2
176
     1
 72
     2
176
     1
 73
     0
176
     1
 90
        0
176
     1
 40
0.6
176
     1
 41
30.0
176
     1
 63
     7
421
 16777215
176
     1
 74
     1
176
     1
 91
        4
176
     1
 64
     7
176
     1
 65
   257
176
     1
 75
     1
176
     1
175
     1
176
     1
 42
1.0
176
     1
 92
        8
176
     1
 66
     7
176
     1
 43
1.0
176
     1
 76
     1
176
     1
 77
     6
176
     1
 78
     2
176
     1
 67
     7
176
     1
 79
     5
176
     1
170
     0
176
     1
171
     0
176
     1
290
     0
176
     1
 93
        1
176
     1
 44
50.0
176
     1
173
     0
176
     1
1001
ACAD
1000
AcDbSavedByObjectVersion
1070
     0
  0
VISUALSTYLE
  5
2C018
102
{ACAD_XDICTIONARY
360
2C1AF
102
}
102
{ACAD_REACTORS
330
2C008
102
}
330
2C008
100
AcDbVisualStyle
  2
ColorChange
 70
    16
177
     2
291
     1
 71
     2
176
     1
 72
     2
176
     1
 73
     3
176
     1
 90
        0
176
     1
 40
0.6
176
     1
 41
30.0
176
     1
 63
     8
421
  8421504
176
     1
 74
     1
176
     1
 91
        4
176
     1
 64
     7
176
     1
 65
   257
176
     1
 75
     1
176
     1
175
     1
176
     1
 42
1.0
176
     1
 92
        8
176
     1
 66
     8
424
  8421504
176
     1
 43
1.0
176
     1
 76
     1
176
     1
 77
     6
176
     1
 78
     2
176
     1
 67
     7
176
     1
 79
     5
176
     1
170
     0
176
     1
171
     0
176
     1
290
     0
176
     1
 93
        1
176
     1
 44
0.0
176
     1
173
     0
176
     1
1001
ACAD
1000
AcDbSavedByObjectVersion
1070
     0
  0
VISUALSTYLE
  5
2C011
102
{ACAD_XDICTIONARY
360
2C1A1
102
}
102
{ACAD_REACTORS
330
2C008
102
}
330
2C008
100
AcDbVisualStyle
  2
Conceptual
 70
     9
177
     2
291
     0
 71
     3
176
     1
 72
     2
176
     1
 73
     0
176
     1
 90
        0
176
     1
 40
0.6
176
     1
 41
30.0
176
     1
 63
     7
421
 16777215
176
     1
 74
     2
176
     1
 91
        2
176
     1
 64
     7
176
     1
 65
   257
176
     1
 75
     1
176
     1
175
     1
176
     1
 42
40.0
176
     1
 92
        8
176
     1
 66
     7
176
     1
 43
1.0
176
     1
 76
     1
176
     1
 77
     6
176
     1
 78
     2
176
     1
 67
     7
176
     1
 79
     3
176
     1
170
     0
176
     1
171
     0
176
     1
290
     0
176
     1
 93
        1
176
     1
 44
0.0
176
     1
173
     0
176
     1
1001
ACAD
1000
AcDbSavedByObjectVersion
1070
     0
  0
VISUALSTYLE
  5
2C013
102
{ACAD_XDICTIONARY
360
2C1A5
102
}
102
{ACAD_REACTORS
330
2C008
102
}
330
2C008
100
AcDbVisualStyle
  2
Dim
 70
    11
177
     2
291
     1
 71
     2
176
     1
 72
     2
176
     1
 73
     0
176
     1
 90
        0
176
     1
 40
0.6
176
     1
 41
30.0
176
     1
 63
     7
421
 16777215
176
     1
 74
     1
176
     1
 91
        4
176
     1
 64
     7
176
     1
 65
   257
176
     1
 75
     1
176
     1
175
     1
176
     1
 42
1.0
176
     1
 92
        8
176
     1
 66
     7
176
     1
 43
1.0
176
     1
 76
     1
176
     1
 77
     6
176
     1
 78
     2
176
     1
 67
     7
176
     1
 79
     5
176
     1
170
     0
176
     1
171
     0
176
     1
290
     0
176
     1
 93
        1
176
     1
 44
-50.0
176
     1
173
     0
176
     1
1001
ACAD
1000
AcDbSavedByObjectVersion
1070
     0
  0
VISUALSTYLE
  5
2C0BD
102
{ACAD_XDICTIONARY
360
2C1B5
102
}
102
{ACAD_REACTORS
330
2C008
102
}
330
2C008
100
AcDbVisualStyle
  2
EdgeColorOff
 70
    22
177
     2
291
     1
 71
     2
176
     0
 72
     2
176
     0
 73
     0
176
     0
 90
        0
176
     0
 40
0.6
176
     0
 41
30.0
176
     0
 63
     7
421
 16777215
176
     0
 74
     1
176
     0
 91
        4
176
     0
 64
     7
176
     0
 65
   257
176
     0
 75
     1
176
     0
175
     1
176
     0
 42
1.0
176
     0
 92
        8
176
     2
 66
     7
176
     0
 43
1.0
176
     0
 76
     1
176
     0
 77
     6
176
     0
 78
     2
176
     0
 67
     7
176
     0
 79
     5
176
     0
170
     0
176
     0
171
     0
176
     0
290
     0
176
     0
 93
        1
176
     0
 44
0.0
176
     0
173
     0
176
     0
1001
ACAD
1000
AcDbSavedByObjectVersion
1070
     0
  0
VISUALSTYLE
  5
2C017
102
{ACAD_XDICTIONARY
360
2C1AD
102
}
102
{ACAD_REACTORS
330
2C008
102
}
330
2C008
100
AcDbVisualStyle
  2
Facepattern
 70
    15
177
     2
291
     1
 71
     2
176
     1
 72
     2
176
     1
 73
     0
176
     1
 90
        0
176
     1
 40
0.6
176
     1
 41
30.0
176
     1
 63
     7
421
 16777215
176
     1
 74
     1
176
     1
 91
        4
176
     1
 64
     7
176
     1
 65
   257
176
     1
 75
     1
176
     1
175
     1
176
     1
 42
1.0
176
     1
 92
        8
176
     1
 66
     7
176
     1
 43
1.0
176
     1
 76
     1
176
     1
 77
     6
176
     1
 78
     2
176
     1
 67
     7
176
     1
 79
     5
176
     1
170
     0
176
     1
171
     0
176
     1
290
     0
176
     1
 93
        1
176
     1
 44
0.0
176
     1
173
     0
176
     1
1001
ACAD
1000
AcDbSavedByObjectVersion
1070
     0
  0
VISUALSTYLE
  5
2C009
102
{ACAD_XDICTIONARY
360
2C191
102
}
102
{ACAD_REACTORS
330
2C008
102
}
330
2C008
100
AcDbVisualStyle
  2
Flat
 70
     0
177
     2
291
     1
 71
     2
176
     1
 72
     1
176
     1
 73
     1
176
     1
 90
        2
176
     1
 40
0.6
176
     1
 41
30.0
176
     1
 63
     7
421
 16777215
176
     1
 74
     0
176
     1
 91
        4
176
     1
 64
     7
176
     1
 65
   257
176
     1
 75
     1
176
     1
175
     1
176
     1
 42
1.0
176
     1
 92
        8
176
     1
 66
     7
176
     1
 43
1.0
176
     1
 76
     1
176
     1
 77
     6
176
     1
 78
     2
176
     1
 67
     7
176
     1
 79
     5
176
     1
170
     0
176
     1
171
     0
176
     1
290
     0
176
     1
 93
       13
176
     1
 44
0.0
176
     1
173
     0
176
     1
1001
ACAD
1000
AcDbSavedByObjectVersion
1070
     0
  0
VISUALSTYLE
  5
2C00A
102
{ACAD_XDICTIONARY
360
2C193
102
}
102
{ACAD_REACTORS
330
2C008
102
}
330
2C008
100
AcDbVisualStyle
  2
FlatWithEdges
 70
     1
177
     2
291
     1
 71
     2
176
     1
 72
     1
176
     1
 73
     1
176
     1
 90
        2
176
     1
 40
0.6
176
     1
 41
30.0
176
     1
 63
     7
421
 16777215
176
     1
 74
     1
176
     1
 91
        4
176
     1
 64
     7
176
     1
 65
   257
176
     1
 75
     1
176
     1
175
     1
176
     1
 42
1.0
176
     1
 92
        0
176
     1
 66
   257
176
     1
 43
1.0
176
     1
 76
     1
176
     1
 77
     6
176
     1
 78
     2
176
     1
 67
     7
176
     1
 79
     5
176
     1
170
     0
176
     1
171
     0
176
     1
290
     0
176
     1
 93
       13
176
     1
 44
0.0
176
     1
173
     0
176
     1
1001
ACAD
1000
AcDbSavedByObjectVersion
1070
     0
  0
VISUALSTYLE
  5
2C00B
102
{ACAD_XDICTIONARY
360
2C195
102
}
102
{ACAD_REACTORS
330
2C008
102
}
330
2C008
100
AcDbVisualStyle
  2
Gouraud
 70
     2
177
     2
291
     1
 71
     2
176
     1
 72
     2
176
     1
 73
     1
176
     1
 90
        2
176
     1
 40
0.6
176
     1
 41
30.0
176
     1
 63
     7
421
 16777215
176
     1
 74
     0
176
     1
 91
        4
176
     1
 64
     7
176
     1
 65
   257
176
     1
 75
     1
176
     1
175
     1
176
     1
 42
1.0
176
     1
 92
        0
176
     1
 66
     7
176
     1
 43
1.0
176
     1
 76
     1
176
     1
 77
     6
176
     1
 78
     2
176
     1
 67
     7
176
     1
 79
     5
176
     1
170
     0
176
     1
171
     0
176
     1
290
     0
176
     1
 93
       13
176
     1
 44
0.0
176
     1
173
     0
176
     1
1001
ACAD
1000
AcDbSavedByObjectVersion
1070
     0
  0
VISUALSTYLE
  5
2C00C
102
{ACAD_XDICTIONARY
360
2C197
102
}
102
{ACAD_REACTORS
330
2C008
102
}
330
2C008
100
AcDbVisualStyle
  2
GouraudWithEdges
 70
     3
177
     2
291
     1
 71
     2
176
     1
 72
     2
176
     1
 73
     1
176
     1
 90
        2
176
     1
 40
0.6
176
     1
 41
30.0
176
     1
 63
     7
421
 16777215
176
     1
 74
     1
176
     1
 91
        4
176
     1
 64
     7
176
     1
 65
   257
176
     1
 75
     1
176
     1
175
     1
176
     1
 42
1.0
176
     1
 92
        0
176
     1
 66
   257
176
     1
 43
1.0
176
     1
 76
     1
176
     1
 77
     6
176
     1
 78
     2
176
     1
 67
     7
176
     1
 79
     5
176
     1
170
     0
176
     1
171
     0
176
     1
290
     0
176
     1
 93
       13
176
     1
 44
0.0
176
     1
173
     0
176
     1
1001
ACAD
1000
AcDbSavedByObjectVersion
1070
     0
  0
VISUALSTYLE
  5
2C0FA
102
{ACAD_XDICTIONARY
360
2C1B9
102
}
102
{ACAD_REACTORS
330
2C008
102
}
330
2C008
100
AcDbVisualStyle
  2
Hidden
 70
     6
177
     2
291
     0
 71
     1
176
     1
 72
     2
176
     1
 73
     2
176
     1
 90
        0
176
     1
 40
0.6
176
     1
 41
30.0
176
     1
 63
     7
421
 16777215
176
     1
 74
     2
176
     1
 91
        2
176
     1
 64
     7
176
     1
 65
   257
176
     1
 75
     2
176
     1
175
     1
176
     1
 42
40.0
176
     1
 92
        0
176
     1
 66
   257
176
     1
 43
1.0
176
     1
 76
     1
176
     1
 77
     6
176
     1
 78
     2
176
     1
 67
     7
176
     1
 79
     3
176
     1
170
     0
176
     1
171
     0
176
     1
290
     0
176
     1
 93
        1
176
     1
 44
0.0
176
     1
173
     0
176
     1
1001
ACAD
1000
AcDbSavedByObjectVersion
1070
     0
  0
VISUALSTYLE
  5
2C0BB
102
{ACAD_XDICTIONARY
360
2C1B1
102
}
102
{ACAD_REACTORS
330
2C008
102
}
330
2C008
100
AcDbVisualStyle
  2
JitterOff
 70
    20
177
     2
291
     1
 71
     2
176
     0
 72
     2
176
     0
 73
     0
176
     0
 90
        0
176
     0
 40
0.6
176
     0
 41
30.0
176
     0
 63
     7
421
 16777215
176
     0
 74
     1
176
     0
 91
        4
176
     0
 64
     7
176
     0
 65
   257
176
     0
 75
     1
176
     0
175
     1
176
     0
 42
1.0
176
     0
 92
       10
176
     2
 66
     7
176
     0
 43
1.0
176
     0
 76
     1
176
     0
 77
     6
176
     0
 78
     2
176
     0
 67
     7
176
     0
 79
     5
176
     0
170
     0
176
     0
171
     0
176
     0
290
     0
176
     0
 93
        1
176
     0
 44
0.0
176
     0
173
     0
176
     0
1001
ACAD
1000
AcDbSavedByObjectVersion
1070
     0
  0
VISUALSTYLE
  5
2C016
102
{ACAD_XDICTIONARY
360
2C1AB
102
}
102
{ACAD_REACTORS
330
2C008
102
}
330
2C008
100
AcDbVisualStyle
  2
Linepattern
 70
    14
177
     2
291
     1
 71
     2
176
     1
 72
     2
176
     1
 73
     0
176
     1
 90
        0
176
     1
 40
0.6
176
     1
 41
30.0
176
     1
 63
     7
421
 16777215
176
     1
 74
     1
176
     1
 91
        4
176
     1
 64
     7
176
     1
 65
   257
176
     1
 75
     7
176
     1
175
     7
176
     1
 42
1.0
176
     1
 92
        8
176
     1
 66
     7
176
     1
 43
1.0
176
     1
 76
     1
176
     1
 77
     6
176
     1
 78
     2
176
     1
 67
     7
176
     1
 79
     5
176
     1
170
     0
176
     1
171
     0
176
     1
290
     0
176
     1
 93
        1
176
     1
 44
0.0
176
     1
173
     0
176
     1
1001
ACAD
1000
AcDbSavedByObjectVersion
1070
     0
  0
VISUALSTYLE
  5
2C0BC
102
{ACAD_XDICTIONARY
360
2C1B3
102
}
102
{ACAD_REACTORS
330
2C008
102
}
330
2C008
100
AcDbVisualStyle
  2
OverhangOff
 70
    21
177
     2
291
     1
 71
     2
176
     0
 72
     2
176
     0
 73
     0
176
     0
 90
        0
176
     0
 40
0.6
176
     0
 41
30.0
176
     0
 63
     7
421
 16777215
176
     0
 74
     1
176
     0
 91
        4
176
     0
 64
     7
176
     0
 65
   257
176
     0
 75
     1
176
     0
175
     1
176
     0
 42
1.0
176
     0
 92
        9
176
     2
 66
     7
176
     0
 43
1.0
176
     0
 76
     1
176
     0
 77
     6
176
     0
 78
     2
176
     0
 67
     7
176
     0
 79
     5
176
     0
170
     0
176
     0
171
     0
176
     0
290
     0
176
     0
 93
        1
176
     0
 44
0.0
176
     0
173
     0
176
     0
1001
ACAD
1000
AcDbSavedByObjectVersion
1070
     0
  0
VISUALSTYLE
  5
2C012
102
{ACAD_XDICTIONARY
360
2C1A3
102
}
102
{ACAD_REACTORS
330
2C008
102
}
330
2C008
100
AcDbVisualStyle
  2
Realistic
 70
     8
177
     2
291
     0
 71
     2
176
     1
 72
     2
176
     1
 73
     0
176
     1
 90
        0
176
     1
 40
0.6
176
     1
 41
30.0
176
     1
 63
     7
421
 16777215
176
     1
 74
     1
176
     1
 91
        0
176
     1
 64
     7
176
     1
 65
   257
176
     1
 75
     1
176
     1
175
     1
176
     1
 42
1.0
176
     1
 92
        8
176
     1
 66
     8
424
  7895160
176
     1
 43
1.0
176
     1
 76
     1
176
     1
 77
     6
176
     1
 78
     2
176
     1
 67
     7
176
     1
 79
     5
176
     1
170
     0
176
     1
171
     0
176
     1
290
     0
176
     1
 93
       13
176
     1
 44
0.0
176
     1
173
     0
176
     1
1001
ACAD
1000
AcDbSavedByObjectVersion
1070
     0
  0
VISUALSTYLE
  5
2C0FF
102
{ACAD_XDICTIONARY
360
2C1C3
102
}
102
{ACAD_REACTORS
330
2C008
102
}
330
2C008
100
AcDbVisualStyle
  2
Shaded
 70
    27
177
     2
291
     0
 71
     2
176
     1
 72
     2
176
     1
 73
     1
176
     1
 90
        2
176
     1
 40
0.6
176
     1
 41
30.0
176
     1
 63
     7
421
 16777215
176
     1
 74
     0
176
     1
 91
        4
176
     1
 64
     7
176
     1
 65
   257
176
     1
 75
     1
176
     1
175
     1
176
     1
 42
1.0
176
     1
 92
        8
176
     1
 66
   257
176
     1
 43
1.0
176
     1
 76
     1
176
     1
 77
     6
176
     1
 78
     2
176
     1
 67
     8
425
  7895160
176
     1
 79
     3
176
     1
170
     0
176
     1
171
     0
176
     1
290
     0
176
     1
 93
        5
176
     1
 44
0.0
176
     1
173
     0
176
     1
1001
ACAD
1000
AcDbSavedByObjectVersion
1070
     0
  0
VISUALSTYLE
  5
2C0FE
102
{ACAD_XDICTIONARY
360
2C1C1
102
}
102
{ACAD_REACTORS
330
2C008
102
}
330
2C008
100
AcDbVisualStyle
  2
Shaded with edges
 70
    26
177
     2
291
     0
 71
     2
176
     1
 72
     2
176
     1
 73
     1
176
     1
 90
        2
176
     1
 40
0.6
176
     1
 41
30.0
176
     1
 63
     7
421
 16777215
176
     1
 74
     1
176
     1
 91
        2
176
     1
 64
     7
176
     1
 65
   257
176
     1
 75
     2
176
     1
175
     1
176
     1
 42
1.0
176
     1
 92
        8
176
     1
 66
   257
176
     1
 43
1.0
176
     1
 76
     1
176
     1
 77
     6
176
     1
 78
     2
176
     1
 67
     7
176
     1
 79
     3
176
     1
170
     0
176
     1
171
     0
176
     1
290
     0
176
     1
 93
        5
176
     1
 44
0.0
176
     1
173
     0
176
     1
1001
ACAD
1000
AcDbSavedByObjectVersion
1070
     0
  0
VISUALSTYLE
  5
2C0FB
102
{ACAD_XDICTIONARY
360
2C1BB
102
}
102
{ACAD_REACTORS
330
2C008
102
}
330
2C008
100
AcDbVisualStyle
  2
Shades of Gray
 70
    23
177
     2
291
     0
 71
     2
176
     1
 72
     2
176
     1
 73
     3
176
     1
 90
        0
176
     1
 40
0.6
176
     1
 41
30.0
176
     1
 63
     7
421
 16777215
176
     1
 74
     2
176
     1
 91
        2
176
     1
 64
     7
176
     1
 65
     7
176
     1
 75
     1
176
     1
175
     1
176
     1
 42
40.0
176
     1
 92
        8
176
     1
 66
     7
176
     1
 43
1.0
176
     1
 76
     1
176
     1
 77
     6
176
     1
 78
     2
176
     1
 67
     7
176
     1
 79
     3
176
     1
170
     0
176
     1
171
     0
176
     1
290
     0
176
     1
 93
        1
176
     1
 44
0.0
176
     1
173
     0
176
     1
1001
ACAD
1000
AcDbSavedByObjectVersion
1070
     0
  0
VISUALSTYLE
  5
2C0FC
102
{ACAD_XDICTIONARY
360
2C1BD
102
}
102
{ACAD_REACTORS
330
2C008
102
}
330
2C008
100
AcDbVisualStyle
  2
Sketchy
 70
    24
177
     2
291
     0
 71
     1
176
     1
 72
     2
176
     1
 73
     2
176
     1
 90
        0
176
     1
 40
0.6
176
     1
 41
30.0
176
     1
 63
     7
421
 16777215
176
     1
 74
     2
176
     1
 91
        2
176
     1
 64
     7
176
     1
 65
     7
176
     1
 75
     1
176
     1
175
     1
176
     1
 42
40.0
176
     1
 92
       11
176
     1
 66
     7
176
     1
 43
1.0
176
     1
 76
     1
176
     1
 77
     6
176
     1
 78
     2
176
     1
 67
     7
176
     1
 79
     6
176
     1
170
     0
176
     1
171
     0
176
     1
290
     0
176
     1
 93
        1
176
     1
 44
0.0
176
     1
173
     0
176
     1
1001
ACAD
1000
AcDbSavedByObjectVersion
1070
     0
  0
VISUALSTYLE
  5
2C015
102
{ACAD_XDICTIONARY
360
2C1A9
102
}
102
{ACAD_REACTORS
330
2C008
102
}
330
2C008
100
AcDbVisualStyle
  2
Thicken
 70
    13
177
     2
291
     1
 71
     2
176
     1
 72
     2
176
     1
 73
     0
176
     1
 90
        0
176
     1
 40
0.6
176
     1
 41
30.0
176
     1
 63
     7
421
 16777215
176
     1
 74
     1
176
     1
 91
        4
176
     1
 64
     7
176
     1
 65
   257
176
     1
 75
     1
176
     1
175
     1
176
     1
 42
1.0
176
     1
 92
       12
176
     1
 66
     7
176
     1
 43
1.0
176
     1
 76
     1
176
     1
 77
     6
176
     1
 78
     2
176
     1
 67
     7
176
     1
 79
     5
176
     1
170
     0
176
     1
171
     0
176
     1
290
     0
176
     1
 93
        1
176
     1
 44
0.0
176
     1
173
     0
176
     1
1001
ACAD
1000
AcDbSavedByObjectVersion
1070
     0
  0
VISUALSTYLE
  5
2C0F9
102
{ACAD_XDICTIONARY
360
2C1B7
102
}
102
{ACAD_REACTORS
330
2C008
102
}
330
2C008
100
AcDbVisualStyle
  2
Wireframe
 70
     5
177
     2
291
     0
 71
     0
176
     1
 72
     2
176
     1
 73
     0
176
     1
 90
        0
176
     1
 40
0.6
176
     1
 41
30.0
176
     1
 63
     7
421
 16777215
176
     1
 74
     1
176
     1
 91
        4
176
     1
 64
     7
176
     1
 65
   257
176
     1
 75
     1
176
     1
175
     1
176
     1
 42
1.0
176
     1
 92
        0
176
     1
 66
   257
176
     1
 43
1.0
176
     1
 76
     1
176
     1
 77
     6
176
     1
 78
     2
176
     1
 67
     7
176
     1
 79
     3
176
     1
170
     0
176
     1
171
     0
176
     1
290
     0
176
     1
 93
        1
176
     1
 44
0.0
176
     1
173
     0
176
     1
1001
ACAD
1000
AcDbSavedByObjectVersion
1070
     0
  0
VISUALSTYLE
  5
2C0FD
102
{ACAD_XDICTIONARY
360
2C1BF
102
}
102
{ACAD_REACTORS
330
2C008
102
}
330
2C008
100
AcDbVisualStyle
  2
X-Ray
 70
    25
177
     2
291
     0
 71
     2
176
     1
 72
     2
176
     1
 73
     1
176
     1
 90
        1
176
     1
 40
0.5
176
     1
 41
30.0
176
     1
 63
     7
421
 16777215
176
     1
 74
     1
176
     1
 91
        0
176
     1
 64
     7
176
     1
 65
   257
176
     1
 75
     1
176
     1
175
     1
176
     1
 42
1.0
176
     1
 92
        8
176
     1
 66
     7
176
     1
 43
1.0
176
     1
 76
     1
176
     1
 77
     6
176
     1
 78
     2
176
     1
 67
     7
176
     1
 79
     3
176
     1
170
     0
176
     1
171
     0
176
     1
290
     0
176
     1
 93
       13
176
     1
 44
0.0
176
     1
173
     0
176
     1
1001
ACAD
1000
AcDbSavedByObjectVersion
1070
     0
  0
DICTIONARYVAR
  5
2C060
102
{ACAD_REACTORS
330
66
102
}
330
66
100
DictionaryVariables
280
     0
  1
1:1
  0
DICTIONARYVAR
  5
2C05E
102
{ACAD_REACTORS
330
66
102
}
330
66
100
DictionaryVariables
280
     0
  1
STANDARD
  0
DICTIONARYVAR
  5
364
102
{ACAD_REACTORS
330
66
102
}
330
66
100
DictionaryVariables
280
     0
  1
STANDARD
  0
DICTIONARYVAR
  5
2C170
102
{ACAD_REACTORS
330
66
102
}
330
66
100
DictionaryVariables
280
     0
  1
Imperial24
  0
DICTIONARYVAR
  5
2C171
102
{ACAD_REACTORS
330
66
102
}
330
66
100
DictionaryVariables
280
     0
  1
Imperial24
  0
DICTIONARYVAR
  5
67
102
{ACAD_REACTORS
330
66
102
}
330
66
100
DictionaryVariables
280
     0
  1
2
  0
DICTIONARYVAR
  5
6B
102
{ACAD_REACTORS
330
66
102
}
330
66
100
DictionaryVariables
280
     0
  1
1
  0
DICTIONARYVAR
  5
2C0D7
102
{ACAD_REACTORS
330
66
102
}
330
66
100
DictionaryVariables
280
     0
  1
1
  0
DICTIONARYVAR
  5
2C0D8
102
{ACAD_REACTORS
330
66
102
}
330
66
100
DictionaryVariables
280
     0
  1
15
  0
DICTIONARYVAR
  5
2C061
102
{ACAD_REACTORS
330
66
102
}
330
66
100
DictionaryVariables
280
     0
  1
0
  0
DICTIONARYVAR
  5
2C05F
102
{ACAD_REACTORS
330
66
102
}
330
66
100
DictionaryVariables
280
     0
  1
0
  0
DICTIONARYVAR
  5
8305
102
{ACAD_REACTORS
330
66
102
}
330
66
100
DictionaryVariables
280
     0
  1

  0
DICTIONARY
  5
2C190
102
{ACAD_REACTORS
330
2C18E
102
}
330
2C18E
100
AcDbDictionary
281
     1
  0
DICTIONARY
  5
2C18F
102
{ACAD_REACTORS
330
2C18E
102
}
330
2C18E
100
AcDbDictionary
281
     1
  3
2238169819280
350
2C189
  3
2238169819296
350
2C18A
  3
2238169819312
350
2C18B
  3
2238169819328
350
2C18C
  3
2238169819344
350
2C18D
  0
XRECORD
  5
2C0CD
102
{ACAD_REACTORS
330
2C0CC
102
}
330
2C0CC
100
AcDbXrecord
280
     1
330
0
330
197B3
330
197A5
330
197A6
330
197A7
330
197A8
330
197A9
330
197AA
330
197AB
330
197AC
330
2C04B
330
2BFDA
330
2BFDB
  0
XRECORD
  5
1402
102
{ACAD_REACTORS
330
1401
102
}
330
1401
100
AcDbXrecord
280
     1
 40
1.0
  0
DICTIONARY
  5
2C14B
102
{ACAD_REACTORS
330
2C14A
102
}
330
2C14A
100
AcDbDictionary
281
     1
  3
*A1
350
2C14C
  0
DICTIONARY
  5
2C1C7
330
2C103
100
AcDbDictionary
280
     1
281
     1
  3
ACAD_XREC_ROUNDTRIP
360
2C1C8
  0
DICTIONARY
  5
11F01
330
59
100
AcDbDictionary
280
     1
281
     1
  0
DICTIONARY
  5
11F0E
330
5E
100
AcDbDictionary
280
     1
281
     1
  0
DICTIONARY
  5
2C0D5
330
22
100
AcDbDictionary
280
     1
281
     1
  0
DICTIONARY
  5
2BFF9
330
2BFF8
100
AcDbDictionary
280
     1
281
     1
  3
BUMPTILE
360
2BFFB
  3
DIFFUSETILE
360
2BFFA
  3
OPACITYTILE
360
2BFFE
  3
REFLECTIONTILE
360
2BFFD
  3
REFRACTIONTILE
360
2BFFF
  3
SPECULARTILE
360
2BFFC
  0
DICTIONARY
  5
2BFF1
330
2BFF0
100
AcDbDictionary
280
     1
281
     1
  3
BUMPTILE
360
2BFF3
  3
DIFFUSETILE
360
2BFF2
  3
OPACITYTILE
360
2BFF6
  3
REFLECTIONTILE
360
2BFF5
  3
REFRACTIONTILE
360
2BFF7
  3
SPECULARTILE
360
2BFF4
  0
DICTIONARY
  5
2C001
330
2C000
100
AcDbDictionary
280
     1
281
     1
  3
BUMPTILE
360
2C003
  3
DIFFUSETILE
360
2C002
  3
OPACITYTILE
360
2C006
  3
REFLECTIONTILE
360
2C005
  3
REFRACTIONTILE
360
2C007
  3
SPECULARTILE
360
2C004
  0
DICTIONARY
  5
2C1C5
330
2C101
100
AcDbDictionary
280
     1
281
     1
  3
ACAD_XREC_ROUNDTRIP
360
2C1C6
  0
DICTIONARY
  5
2C05B
330
37C9
100
AcDbDictionary
280
     1
281
     1
  3
ACAD_ROUNDTRIP_2008_TABLESTYLE_CELLSTYLEMAP
360
2C185
  0
DICTIONARY
  5
2C059
330
36AB
100
AcDbDictionary
280
     1
281
     1
  3
ACAD_ROUNDTRIP_2008_TABLESTYLE_CELLSTYLEMAP
360
2C184
  0
DICTIONARY
  5
2C057
330
87
100
AcDbDictionary
280
     1
281
     1
  3
ACAD_ROUNDTRIP_2008_TABLESTYLE_CELLSTYLEMAP
360
2C183
  0
DICTIONARY
  5
2C19B
330
2C00E
100
AcDbDictionary
280
     1
281
     1
  3
ACAD_XREC_ROUNDTRIP
360
2C19C
  0
DICTIONARY
  5
2C19F
330
2C010
100
AcDbDictionary
280
     1
281
     1
  3
ACAD_XREC_ROUNDTRIP
360
2C1A0
  0
DICTIONARY
  5
2C19D
330
2C00F
100
AcDbDictionary
280
     1
281
     1
  3
ACAD_XREC_ROUNDTRIP
360
2C19E
  0
DICTIONARY
  5
2C199
330
2C00D
100
AcDbDictionary
280
     1
281
     1
  3
ACAD_XREC_ROUNDTRIP
360
2C19A
  0
DICTIONARY
  5
2C1A7
330
2C014
100
AcDbDictionary
280
     1
281
     1
  3
ACAD_XREC_ROUNDTRIP
360
2C1A8
  0
DICTIONARY
  5
2C1AF
330
2C018
100
AcDbDictionary
280
     1
281
     1
  3
ACAD_XREC_ROUNDTRIP
360
2C1B0
  0
DICTIONARY
  5
2C1A1
330
2C011
100
AcDbDictionary
280
     1
281
     1
  3
ACAD_XREC_ROUNDTRIP
360
2C1A2
  0
DICTIONARY
  5
2C1A5
330
2C013
100
AcDbDictionary
280
     1
281
     1
  3
ACAD_XREC_ROUNDTRIP
360
2C1A6
  0
DICTIONARY
  5
2C1B5
330
2C0BD
100
AcDbDictionary
280
     1
281
     1
  3
ACAD_XREC_ROUNDTRIP
360
2C1B6
  0
DICTIONARY
  5
2C1AD
330
2C017
100
AcDbDictionary
280
     1
281
     1
  3
ACAD_XREC_ROUNDTRIP
360
2C1AE
  0
DICTIONARY
  5
2C191
330
2C009
100
AcDbDictionary
280
     1
281
     1
  3
ACAD_XREC_ROUNDTRIP
360
2C192
  0
DICTIONARY
  5
2C193
330
2C00A
100
AcDbDictionary
280
     1
281
     1
  3
ACAD_XREC_ROUNDTRIP
360
2C194
  0
DICTIONARY
  5
2C195
330
2C00B
100
AcDbDictionary
280
     1
281
     1
  3
ACAD_XREC_ROUNDTRIP
360
2C196
  0
DICTIONARY
  5
2C197
330
2C00C
100
AcDbDictionary
280
     1
281
     1
  3
ACAD_XREC_ROUNDTRIP
360
2C198
  0
DICTIONARY
  5
2C1B9
330
2C0FA
100
AcDbDictionary
280
     1
281
     1
  3
ACAD_XREC_ROUNDTRIP
360
2C1BA
  0
DICTIONARY
  5
2C1B1
330
2C0BB
100
AcDbDictionary
280
     1
281
     1
  3
ACAD_XREC_ROUNDTRIP
360
2C1B2
  0
DICTIONARY
  5
2C1AB
330
2C016
100
AcDbDictionary
280
     1
281
     1
  3
ACAD_XREC_ROUNDTRIP
360
2C1AC
  0
DICTIONARY
  5
2C1B3
330
2C0BC
100
AcDbDictionary
280
     1
281
     1
  3
ACAD_XREC_ROUNDTRIP
360
2C1B4
  0
DICTIONARY
  5
2C1A3
330
2C012
100
AcDbDictionary
280
     1
281
     1
  3
ACAD_XREC_ROUNDTRIP
360
2C1A4
  0
DICTIONARY
  5
2C1C3
330
2C0FF
100
AcDbDictionary
280
     1
281
     1
  3
ACAD_XREC_ROUNDTRIP
360
2C1C4
  0
DICTIONARY
  5
2C1C1
330
2C0FE
100
AcDbDictionary
280
     1
281
     1
  3
ACAD_XREC_ROUNDTRIP
360
2C1C2
  0
DICTIONARY
  5
2C1BB
330
2C0FB
100
AcDbDictionary
280
     1
281
     1
  3
ACAD_XREC_ROUNDTRIP
360
2C1BC
  0
DICTIONARY
  5
2C1BD
330
2C0FC
100
AcDbDictionary
280
     1
281
     1
  3
ACAD_XREC_ROUNDTRIP
360
2C1BE
  0
DICTIONARY
  5
2C1A9
330
2C015
100
AcDbDictionary
280
     1
281
     1
  3
ACAD_XREC_ROUNDTRIP
360
2C1AA
  0
DICTIONARY
  5
2C1B7
330
2C0F9
100
AcDbDictionary
280
     1
281
     1
  3
ACAD_XREC_ROUNDTRIP
360
2C1B8
  0
DICTIONARY
  5
2C1BF
330
2C0FD
100
AcDbDictionary
280
     1
281
     1
  3
ACAD_XREC_ROUNDTRIP
360
2C1C0
  0
XRECORD
  5
2C189
102
{ACAD_REACTORS
330
2C18F
102
}
330
2C18F
100
AcDbXrecord
280
     1
  1
AcDb_Thumbnail_Schema
102
{ATTRRECORD
341
2C18A
  2
AcDbDs::TreatedAsObjectData
280
     1
291
     1
102
ATTRRECORD}
102
{ATTRRECORD
341
2C18B
  2
AcDbDs::Legacy
280
     1
291
     1
102
ATTRRECORD}
  2
AcDbDs::ID
280
    10
 91
        8
102
{ATTRRECORD
341
2C18C
  2
AcDs:Indexable
280
     1
291
     1
102
ATTRRECORD}
102
{ATTRRECORD
341
2C18D
  2
AcDbDs::HandleAttribute
280
     7
282
     1
102
ATTRRECORD}
  2
Thumbnail_Data
280
    15
 91
        0
  0
XRECORD
  5
2C18A
102
{ACAD_REACTORS
330
2C18F
102
}
330
2C18F
100
AcDbXrecord
280
     1
  1
AcDbDs::TreatedAsObjectDataSchema
  2
AcDbDs::TreatedAsObjectData
280
     1
 91
        0
  0
XRECORD
  5
2C18B
102
{ACAD_REACTORS
330
2C18F
102
}
330
2C18F
100
AcDbXrecord
280
     1
  1
AcDbDs::LegacySchema
  2
AcDbDs::Legacy
280
     1
 91
        0
  0
XRECORD
  5
2C18C
102
{ACAD_REACTORS
330
2C18F
102
}
330
2C18F
100
AcDbXrecord
280
     1
  1
AcDbDs::IndexedPropertySchema
  2
AcDs:Indexable
280
     1
 91
        0
  0
XRECORD
  5
2C18D
102
{ACAD_REACTORS
330
2C18F
102
}
330
2C18F
100
AcDbXrecord
280
     1
  1
AcDbDs::HandleAttributeSchema
  2
AcDbDs::HandleAttribute
280
     7
 91
        1
284
     1
  0
ACDB_MTEXTOBJECTCONTEXTDATA_CLASS
  5
2C14C
102
{ACAD_REACTORS
330
2C14B
102
}
330
2C14B
100
AcDbObjectContextData
 70
     4
290
     1
100
AcDbAnnotScaleObjectContextData
340
2C01A
 70
     1
 10
1.0
 20
0.0
 30
0.0
 11
29.34068713757962
 21
4.434261153705559
 31
0.0
 40
15.04930642254516
 41
0.0
 42
14.90088818146716
 43
1.240377629448876
 71
     0
  0
XRECORD
  5
2C1C8
102
{ACAD_REACTORS
330
2C1C7
102
}
330
2C1C7
100
AcDbXrecord
280
     1
102
DISPLAYNAME
  1
Imperial24
102
FLAGS
 90
        0
  0
XRECORD
  5
2BFFB
102
{ACAD_REACTORS
330
2BFF9
102
}
330
2BFF9
100
AcDbXrecord
280
     1
270
     1
271
     1
  0
XRECORD
  5
2BFFA
102
{ACAD_REACTORS
330
2BFF9
102
}
330
2BFF9
100
AcDbXrecord
280
     1
270
     1
271
     1
  0
XRECORD
  5
2BFFE
102
{ACAD_REACTORS
330
2BFF9
102
}
330
2BFF9
100
AcDbXrecord
280
     1
270
     1
271
     1
  0
XRECORD
  5
2BFFD
102
{ACAD_REACTORS
330
2BFF9
102
}
330
2BFF9
100
AcDbXrecord
280
     1
270
     1
271
     1
  0
XRECORD
  5
2BFFF
102
{ACAD_REACTORS
330
2BFF9
102
}
330
2BFF9
100
AcDbXrecord
280
     1
270
     1
271
     1
  0
XRECORD
  5
2BFFC
102
{ACAD_REACTORS
330
2BFF9
102
}
330
2BFF9
100
AcDbXrecord
280
     1
270
     1
271
     1
  0
XRECORD
  5
2BFF3
102
{ACAD_REACTORS
330
2BFF1
102
}
330
2BFF1
100
AcDbXrecord
280
     1
270
     1
271
     1
  0
XRECORD
  5
2BFF2
102
{ACAD_REACTORS
330
2BFF1
102
}
330
2BFF1
100
AcDbXrecord
280
     1
270
     1
271
     1
  0
XRECORD
  5
2BFF6
102
{ACAD_REACTORS
330
2BFF1
102
}
330
2BFF1
100
AcDbXrecord
280
     1
270
     1
271
     1
  0
XRECORD
  5
2BFF5
102
{ACAD_REACTORS
330
2BFF1
102
}
330
2BFF1
100
AcDbXrecord
280
     1
270
     1
271
     1
  0
XRECORD
  5
2BFF7
102
{ACAD_REACTORS
330
2BFF1
102
}
330
2BFF1
100
AcDbXrecord
280
     1
270
     1
271
     1
  0
XRECORD
  5
2BFF4
102
{ACAD_REACTORS
330
2BFF1
102
}
330
2BFF1
100
AcDbXrecord
280
     1
270
     1
271
     1
  0
XRECORD
  5
2C003
102
{ACAD_REACTORS
330
2C001
102
}
330
2C001
100
AcDbXrecord
280
     1
270
     1
271
     1
  0
XRECORD
  5
2C002
102
{ACAD_REACTORS
330
2C001
102
}
330
2C001
100
AcDbXrecord
280
     1
270
     1
271
     1
  0
XRECORD
  5
2C006
102
{ACAD_REACTORS
330
2C001
102
}
330
2C001
100
AcDbXrecord
280
     1
270
     1
271
     1
  0
XRECORD
  5
2C005
102
{ACAD_REACTORS
330
2C001
102
}
330
2C001
100
AcDbXrecord
280
     1
270
     1
271
     1
  0
XRECORD
  5
2C007
102
{ACAD_REACTORS
330
2C001
102
}
330
2C001
100
AcDbXrecord
280
     1
270
     1
271
     1
  0
XRECORD
  5
2C004
102
{ACAD_REACTORS
330
2C001
102
}
330
2C001
100
AcDbXrecord
280
     1
270
     1
271
     1
  0
XRECORD
  5
2C1C6
102
{ACAD_REACTORS
330
2C1C5
102
}
330
2C1C5
100
AcDbXrecord
280
     1
102
DISPLAYNAME
  1
Imperial24
102
FLAGS
 90
        0
  0
CELLSTYLEMAP
  5
2C185
102
{ACAD_REACTORS
330
2C05B
102
}
330
2C05B
100
AcDbCellStyleMap
 90
        3
300
CELLSTYLE
  1
TABLEFORMAT_BEGIN
 90
        5
170
     1
 91
        0
 92
    32768
 62
   257
 93
        1
300
CONTENTFORMAT
  1
CONTENTFORMAT_BEGIN
 90
        0
 91
        0
 92
        4
 93
        0
300

 40
0.0
140
1.0
 94
        5
 62
     1
340
36AA
144
0.25
309
CONTENTFORMAT_END
171
     0
 94
        6
 95
        1
302
GRIDFORMAT
  1
GRIDFORMAT_BEGIN
 90
        0
 91
        1
 62
     0
 92
       -2
340
0
 93
        0
 40
0.045
309
GRIDFORMAT_END
 95
        2
302
GRIDFORMAT
  1
GRIDFORMAT_BEGIN
 90
        0
 91
        1
 62
     0
 92
       -2
340
0
 93
        0
 40
0.045
309
GRIDFORMAT_END
 95
        4
302
GRIDFORMAT
  1
GRIDFORMAT_BEGIN
 90
        0
 91
        1
 62
     0
 92
       -2
340
0
 93
        0
 40
0.045
309
GRIDFORMAT_END
 95
        8
302
GRIDFORMAT
  1
GRIDFORMAT_BEGIN
 90
        0
 91
        1
 62
     0
 92
       -2
340
0
 93
        0
 40
0.045
309
GRIDFORMAT_END
 95
       16
302
GRIDFORMAT
  1
GRIDFORMAT_BEGIN
 90
        0
 91
        1
 62
     0
 92
       -2
340
0
 93
        0
 40
0.045
309
GRIDFORMAT_END
 95
       32
302
GRIDFORMAT
  1
GRIDFORMAT_BEGIN
 90
        0
 91
        1
 62
     0
 92
       -2
340
0
 93
        0
 40
0.045
309
GRIDFORMAT_END
309
TABLEFORMAT_END
  1
CELLSTYLE_BEGIN
 90
        1
 91
        1
300
_TITLE
309
CELLSTYLE_END
300
CELLSTYLE
  1
TABLEFORMAT_BEGIN
 90
        5
170
     1
 91
        0
 92
        0
 62
     9
 93
        1
300
CONTENTFORMAT
  1
CONTENTFORMAT_BEGIN
 90
        0
 91
        0
 92
        4
 93
        0
300

 40
0.0
140
1.0
 94
        5
 62
     5
340
36AA
144
0.18
309
CONTENTFORMAT_END
171
     0
 94
        6
 95
        1
302
GRIDFORMAT
  1
GRIDFORMAT_BEGIN
 90
        0
 91
        1
 62
     0
 92
       -2
340
0
 93
        0
 40
0.045
309
GRIDFORMAT_END
 95
        2
302
GRIDFORMAT
  1
GRIDFORMAT_BEGIN
 90
        0
 91
        1
 62
     0
 92
       -2
340
0
 93
        0
 40
0.045
309
GRIDFORMAT_END
 95
        4
302
GRIDFORMAT
  1
GRIDFORMAT_BEGIN
 90
        0
 91
        1
 62
     0
 92
       -2
340
0
 93
        0
 40
0.045
309
GRIDFORMAT_END
 95
        8
302
GRIDFORMAT
  1
GRIDFORMAT_BEGIN
 90
        0
 91
        1
 62
     0
 92
       -2
340
0
 93
        0
 40
0.045
309
GRIDFORMAT_END
 95
       16
302
GRIDFORMAT
  1
GRIDFORMAT_BEGIN
 90
        0
 91
        1
 62
     0
 92
       -2
340
0
 93
        0
 40
0.045
309
GRIDFORMAT_END
 95
       32
302
GRIDFORMAT
  1
GRIDFORMAT_BEGIN
 90
        0
 91
        1
 62
     0
 92
       -2
340
0
 93
        0
 40
0.045
309
GRIDFORMAT_END
309
TABLEFORMAT_END
  1
CELLSTYLE_BEGIN
 90
        2
 91
        1
300
_HEADER
309
CELLSTYLE_END
300
CELLSTYLE
  1
TABLEFORMAT_BEGIN
 90
        5
170
     1
 91
        0
 92
        0
 62
   257
 93
        1
300
CONTENTFORMAT
  1
CONTENTFORMAT_BEGIN
 90
        0
 91
        0
 92
        4
 93
        0
300

 40
0.0
140
1.0
 94
        2
 62
     0
340
36AA
144
0.18
309
CONTENTFORMAT_END
171
     0
 94
        6
 95
        1
302
GRIDFORMAT
  1
GRIDFORMAT_BEGIN
 90
        0
 91
        1
 62
     0
 92
       -2
340
0
 93
        0
 40
0.045
309
GRIDFORMAT_END
 95
        2
302
GRIDFORMAT
  1
GRIDFORMAT_BEGIN
 90
        0
 91
        1
 62
     0
 92
       -2
340
0
 93
        0
 40
0.045
309
GRIDFORMAT_END
 95
        4
302
GRIDFORMAT
  1
GRIDFORMAT_BEGIN
 90
        0
 91
        1
 62
     0
 92
       -2
340
0
 93
        0
 40
0.045
309
GRIDFORMAT_END
 95
        8
302
GRIDFORMAT
  1
GRIDFORMAT_BEGIN
 90
        0
 91
        1
 62
     0
 92
       -2
340
0
 93
        0
 40
0.045
309
GRIDFORMAT_END
 95
       16
302
GRIDFORMAT
  1
GRIDFORMAT_BEGIN
 90
        0
 91
        1
 62
     0
 92
       -2
340
0
 93
        0
 40
0.045
309
GRIDFORMAT_END
 95
       32
302
GRIDFORMAT
  1
GRIDFORMAT_BEGIN
 90
        0
 91
        1
 62
     0
 92
       -2
340
0
 93
        0
 40
0.045
309
GRIDFORMAT_END
309
TABLEFORMAT_END
  1
CELLSTYLE_BEGIN
 90
        3
 91
        2
300
_DATA
309
CELLSTYLE_END
  0
CELLSTYLEMAP
  5
2C184
102
{ACAD_REACTORS
330
2C059
102
}
330
2C059
100
AcDbCellStyleMap
 90
        3
300
CELLSTYLE
  1
TABLEFORMAT_BEGIN
 90
        5
170
     1
 91
        0
 92
    32768
 62
   254
420
 14079702
 93
        1
300
CONTENTFORMAT
  1
CONTENTFORMAT_BEGIN
 90
        0
 91
        0
 92
        4
 93
        0
300

 40
0.0
140
1.0
 94
        5
 62
     1
340
36AA
144
6.0
309
CONTENTFORMAT_END
171
     1
301
MARGIN
  1
CELLMARGIN_BEGIN
 40
1.5
 40
1.5
 40
1.5
 40
1.5
 40
0.18
 40
0.18
309
CELLMARGIN_END
 94
        6
 95
        1
302
GRIDFORMAT
  1
GRIDFORMAT_BEGIN
 90
        0
 91
        1
 62
     0
 92
       -2
340
0
 93
        0
 40
0.045
309
GRIDFORMAT_END
 95
        2
302
GRIDFORMAT
  1
GRIDFORMAT_BEGIN
 90
        0
 91
        1
 62
     0
 92
       -2
340
0
 93
        0
 40
0.045
309
GRIDFORMAT_END
 95
        4
302
GRIDFORMAT
  1
GRIDFORMAT_BEGIN
 90
        0
 91
        1
 62
     0
 92
       -2
340
0
 93
        0
 40
0.045
309
GRIDFORMAT_END
 95
        8
302
GRIDFORMAT
  1
GRIDFORMAT_BEGIN
 90
        0
 91
        1
 62
     0
 92
       -2
340
0
 93
        0
 40
0.045
309
GRIDFORMAT_END
 95
       16
302
GRIDFORMAT
  1
GRIDFORMAT_BEGIN
 90
        0
 91
        1
 62
     0
 92
       -2
340
0
 93
        0
 40
0.045
309
GRIDFORMAT_END
 95
       32
302
GRIDFORMAT
  1
GRIDFORMAT_BEGIN
 90
        0
 91
        1
 62
     0
 92
       -2
340
0
 93
        0
 40
0.045
309
GRIDFORMAT_END
309
TABLEFORMAT_END
  1
CELLSTYLE_BEGIN
 90
        1
 91
        1
300
_TITLE
309
CELLSTYLE_END
300
CELLSTYLE
  1
TABLEFORMAT_BEGIN
 90
        5
170
     1
 91
        0
 92
        0
 62
   257
 93
        1
300
CONTENTFORMAT
  1
CONTENTFORMAT_BEGIN
 90
        0
 91
        0
 92
        4
 93
        0
300

 40
0.0
140
1.0
 94
        5
 62
     5
340
36AA
144
4.5
309
CONTENTFORMAT_END
171
     1
301
MARGIN
  1
CELLMARGIN_BEGIN
 40
1.5
 40
1.5
 40
1.5
 40
1.5
 40
0.18
 40
0.18
309
CELLMARGIN_END
 94
        6
 95
        1
302
GRIDFORMAT
  1
GRIDFORMAT_BEGIN
 90
        0
 91
        1
 62
     0
 92
       -2
340
0
 93
        0
 40
0.045
309
GRIDFORMAT_END
 95
        2
302
GRIDFORMAT
  1
GRIDFORMAT_BEGIN
 90
        0
 91
        1
 62
     0
 92
       -2
340
0
 93
        0
 40
0.045
309
GRIDFORMAT_END
 95
        4
302
GRIDFORMAT
  1
GRIDFORMAT_BEGIN
 90
        0
 91
        1
 62
     0
 92
       -2
340
0
 93
        0
 40
0.045
309
GRIDFORMAT_END
 95
        8
302
GRIDFORMAT
  1
GRIDFORMAT_BEGIN
 90
        0
 91
        1
 62
     0
 92
       -2
340
0
 93
        0
 40
0.045
309
GRIDFORMAT_END
 95
       16
302
GRIDFORMAT
  1
GRIDFORMAT_BEGIN
 90
        0
 91
        1
 62
     0
 92
       -2
340
0
 93
        0
 40
0.045
309
GRIDFORMAT_END
 95
       32
302
GRIDFORMAT
  1
GRIDFORMAT_BEGIN
 90
        0
 91
        1
 62
     0
 92
       -2
340
0
 93
        0
 40
0.045
309
GRIDFORMAT_END
309
TABLEFORMAT_END
  1
CELLSTYLE_BEGIN
 90
        2
 91
        1
300
_HEADER
309
CELLSTYLE_END
300
CELLSTYLE
  1
TABLEFORMAT_BEGIN
 90
        5
170
     1
 91
        0
 92
        0
 62
   257
 93
        1
300
CONTENTFORMAT
  1
CONTENTFORMAT_BEGIN
 90
        0
 91
        0
 92
        4
 93
        0
300

 40
0.0
140
1.0
 94
        2
 62
     0
340
36AA
144
4.5
309
CONTENTFORMAT_END
171
     1
301
MARGIN
  1
CELLMARGIN_BEGIN
 40
1.5
 40
1.5
 40
1.5
 40
1.5
 40
0.18
 40
0.18
309
CELLMARGIN_END
 94
        6
 95
        1
302
GRIDFORMAT
  1
GRIDFORMAT_BEGIN
 90
        0
 91
        1
 62
     0
 92
       -2
340
0
 93
        0
 40
0.045
309
GRIDFORMAT_END
 95
        2
302
GRIDFORMAT
  1
GRIDFORMAT_BEGIN
 90
        0
 91
        1
 62
     0
 92
       -2
340
0
 93
        0
 40
0.045
309
GRIDFORMAT_END
 95
        4
302
GRIDFORMAT
  1
GRIDFORMAT_BEGIN
 90
        0
 91
        1
 62
     0
 92
       -2
340
0
 93
        0
 40
0.045
309
GRIDFORMAT_END
 95
        8
302
GRIDFORMAT
  1
GRIDFORMAT_BEGIN
 90
        0
 91
        1
 62
     0
 92
       -2
340
0
 93
        0
 40
0.045
309
GRIDFORMAT_END
 95
       16
302
GRIDFORMAT
  1
GRIDFORMAT_BEGIN
 90
        0
 91
        1
 62
     0
 92
       -2
340
0
 93
        0
 40
0.045
309
GRIDFORMAT_END
 95
       32
302
GRIDFORMAT
  1
GRIDFORMAT_BEGIN
 90
        0
 91
        1
 62
     0
 92
       -2
340
0
 93
        0
 40
0.045
309
GRIDFORMAT_END
309
TABLEFORMAT_END
  1
CELLSTYLE_BEGIN
 90
        3
 91
        2
300
_DATA
309
CELLSTYLE_END
  0
CELLSTYLEMAP
  5
2C183
102
{ACAD_REACTORS
330
2C057
102
}
330
2C057
100
AcDbCellStyleMap
 90
        3
300
CELLSTYLE
  1
TABLEFORMAT_BEGIN
 90
        5
170
     1
 91
        0
 92
    32768
 62
   257
 93
        1
300
CONTENTFORMAT
  1
CONTENTFORMAT_BEGIN
 90
        0
 91
        0
 92
        4
 93
        0
300

 40
0.0
140
1.0
 94
        5
 62
     0
340
11
144
0.25
309
CONTENTFORMAT_END
171
     0
 94
        6
 95
        1
302
GRIDFORMAT
  1
GRIDFORMAT_BEGIN
 90
        0
 91
        1
 62
     0
 92
       -2
340
0
 93
        0
 40
0.045
309
GRIDFORMAT_END
 95
        2
302
GRIDFORMAT
  1
GRIDFORMAT_BEGIN
 90
        0
 91
        1
 62
     0
 92
       -2
340
0
 93
        0
 40
0.045
309
GRIDFORMAT_END
 95
        4
302
GRIDFORMAT
  1
GRIDFORMAT_BEGIN
 90
        0
 91
        1
 62
     0
 92
       -2
340
0
 93
        0
 40
0.045
309
GRIDFORMAT_END
 95
        8
302
GRIDFORMAT
  1
GRIDFORMAT_BEGIN
 90
        0
 91
        1
 62
     0
 92
       -2
340
0
 93
        0
 40
0.045
309
GRIDFORMAT_END
 95
       16
302
GRIDFORMAT
  1
GRIDFORMAT_BEGIN
 90
        0
 91
        1
 62
     0
 92
       -2
340
0
 93
        0
 40
0.045
309
GRIDFORMAT_END
 95
       32
302
GRIDFORMAT
  1
GRIDFORMAT_BEGIN
 90
        0
 91
        1
 62
     0
 92
       -2
340
0
 93
        0
 40
0.045
309
GRIDFORMAT_END
309
TABLEFORMAT_END
  1
CELLSTYLE_BEGIN
 90
        1
 91
        1
300
_TITLE
309
CELLSTYLE_END
300
CELLSTYLE
  1
TABLEFORMAT_BEGIN
 90
        5
170
     1
 91
        0
 92
        0
 62
   257
 93
        1
300
CONTENTFORMAT
  1
CONTENTFORMAT_BEGIN
 90
        0
 91
        0
 92
        4
 93
        0
300

 40
0.0
140
1.0
 94
        5
 62
     0
340
11
144
0.18
309
CONTENTFORMAT_END
171
     0
 94
        6
 95
        1
302
GRIDFORMAT
  1
GRIDFORMAT_BEGIN
 90
        0
 91
        1
 62
     0
 92
       -2
340
0
 93
        0
 40
0.045
309
GRIDFORMAT_END
 95
        2
302
GRIDFORMAT
  1
GRIDFORMAT_BEGIN
 90
        0
 91
        1
 62
     0
 92
       -2
340
0
 93
        0
 40
0.045
309
GRIDFORMAT_END
 95
        4
302
GRIDFORMAT
  1
GRIDFORMAT_BEGIN
 90
        0
 91
        1
 62
     0
 92
       -2
340
0
 93
        0
 40
0.045
309
GRIDFORMAT_END
 95
        8
302
GRIDFORMAT
  1
GRIDFORMAT_BEGIN
 90
        0
 91
        1
 62
     0
 92
       -2
340
0
 93
        0
 40
0.045
309
GRIDFORMAT_END
 95
       16
302
GRIDFORMAT
  1
GRIDFORMAT_BEGIN
 90
        0
 91
        1
 62
     0
 92
       -2
340
0
 93
        0
 40
0.045
309
GRIDFORMAT_END
 95
       32
302
GRIDFORMAT
  1
GRIDFORMAT_BEGIN
 90
        0
 91
        1
 62
     0
 92
       -2
340
0
 93
        0
 40
0.045
309
GRIDFORMAT_END
309
TABLEFORMAT_END
  1
CELLSTYLE_BEGIN
 90
        2
 91
        1
300
_HEADER
309
CELLSTYLE_END
300
CELLSTYLE
  1
TABLEFORMAT_BEGIN
 90
        5
170
     1
 91
        0
 92
        0
 62
   257
 93
        1
300
CONTENTFORMAT
  1
CONTENTFORMAT_BEGIN
 90
        0
 91
        0
 92
        4
 93
        0
300

 40
0.0
140
1.0
 94
        2
 62
     0
340
11
144
0.18
309
CONTENTFORMAT_END
171
     0
 94
        6
 95
        1
302
GRIDFORMAT
  1
GRIDFORMAT_BEGIN
 90
        0
 91
        1
 62
     0
 92
       -2
340
0
 93
        0
 40
0.045
309
GRIDFORMAT_END
 95
        2
302
GRIDFORMAT
  1
GRIDFORMAT_BEGIN
 90
        0
 91
        1
 62
     0
 92
       -2
340
0
 93
        0
 40
0.045
309
GRIDFORMAT_END
 95
        4
302
GRIDFORMAT
  1
GRIDFORMAT_BEGIN
 90
        0
 91
        1
 62
     0
 92
       -2
340
0
 93
        0
 40
0.045
309
GRIDFORMAT_END
 95
        8
302
GRIDFORMAT
  1
GRIDFORMAT_BEGIN
 90
        0
 91
        1
 62
     0
 92
       -2
340
0
 93
        0
 40
0.045
309
GRIDFORMAT_END
 95
       16
302
GRIDFORMAT
  1
GRIDFORMAT_BEGIN
 90
        0
 91
        1
 62
     0
 92
       -2
340
0
 93
        0
 40
0.045
309
GRIDFORMAT_END
 95
       32
302
GRIDFORMAT
  1
GRIDFORMAT_BEGIN
 90
        0
 91
        1
 62
     0
 92
       -2
340
0
 93
        0
 40
0.045
309
GRIDFORMAT_END
309
TABLEFORMAT_END
  1
CELLSTYLE_BEGIN
 90
        3
 91
        2
300
_DATA
309
CELLSTYLE_END
  0
XRECORD
  5
2C19C
102
{ACAD_REACTORS
330
2C19B
102
}
330
2C19B
100
AcDbXrecord
280
     1
102
RTVSPost2010Prop28
280
     1
102
RTVSPost2010PropOp28
 70
     1
102
RTVSPost2010Prop29
280
     1
102
RTVSPost2010PropOp29
 70
     1
102
RTVSPost2010Prop30
280
     0
102
RTVSPost2010PropOp30
 70
     1
102
RTVSPost2010Prop31
280
     0
102
RTVSPost2010PropOp31
 70
     1
102
RTVSPost2010Prop32
280
     0
102
RTVSPost2010PropOp32
 70
     1
102
RTVSPost2010Prop33
280
     0
102
RTVSPost2010PropOp33
 70
     1
102
RTVSPost2010Prop34
280
     0
102
RTVSPost2010PropOp34
 70
     1
102
RTVSPost2010Prop35
280
     0
102
RTVSPost2010PropOp35
 70
     1
102
RTVSPost2010Prop36
280
     0
102
RTVSPost2010PropOp36
 70
     1
102
RTVSPost2010Prop37
 90
       50
102
RTVSPost2010PropOp37
 70
     1
102
RTVSPost2010Prop38
140
0.0
102
RTVSPost2010PropOp38
 70
     1
102
RTVSPost2010Prop39
140
1.0
102
RTVSPost2010PropOp39
 70
     1
102
RTVSPost2010Prop40
 90
        0
102
RTVSPost2010PropOp40
 70
     1
102
RTVSPost2010Prop41ColorIndex
 90
       18
102
RTVSPost2010Prop41ColorRGB
 90
        0
102
RTVSPost2010PropOp41
 70
     1
102
RTVSPost2010Prop42
 90
       50
102
RTVSPost2010PropOp42
 70
     1
102
RTVSPost2010Prop43
 90
        3
102
RTVSPost2010PropOp43
 70
     1
102
RTVSPost2010Prop44ColorIndex
 90
        5
102
RTVSPost2010Prop44ColorRGB
 90
      255
102
RTVSPost2010PropOp44
 70
     1
102
RTVSPost2010Prop45
280
     0
102
RTVSPost2010PropOp45
 70
     1
102
RTVSPost2010Prop46
 90
       50
102
RTVSPost2010PropOp46
 70
     1
102
RTVSPost2010Prop47
 90
       50
102
RTVSPost2010PropOp47
 70
     1
102
RTVSPost2010Prop48
 90
       50
102
RTVSPost2010PropOp48
 70
     1
102
RTVSPost2010Prop49
280
     0
102
RTVSPost2010PropOp49
 70
     1
102
RTVSPost2010Prop50
 90
       50
102
RTVSPost2010PropOp50
 70
     1
102
RTVSPost2010Prop51ColorIndex
 90
      256
102
RTVSPost2010Prop51ColorRGB
 90
-16777216
102
RTVSPost2010PropOp51
 70
     0
102
RTVSPost2010Prop52
140
1.0
102
RTVSPost2010PropOp52
 70
     0
102
RTVSPost2010Prop53
 90
        2
102
RTVSPost2010PropOp53
 70
     1
102
RTVSPost2010Prop54
  1
strokes_ogs.tif
102
RTVSPost2010PropOp54
 70
     1
102
RTVSPost2010Prop55
280
     0
102
RTVSPost2010PropOp55
 70
     1
102
RTVSPost2010Prop56
140
1.0
102
RTVSPost2010PropOp56
 70
     1
102
RTVSPost2010Prop57
140
1.0
102
RTVSPost2010PropOp57
 70
     1
  0
XRECORD
  5
2C1A0
102
{ACAD_REACTORS
330
2C19F
102
}
330
2C19F
100
AcDbXrecord
280
     1
102
RTVSPost2010Prop28
280
     0
102
RTVSPost2010PropOp28
 70
     1
102
RTVSPost2010Prop29
280
     1
102
RTVSPost2010PropOp29
 70
     1
102
RTVSPost2010Prop30
280
     1
102
RTVSPost2010PropOp30
 70
     1
102
RTVSPost2010Prop31
280
     0
102
RTVSPost2010PropOp31
 70
     1
102
RTVSPost2010Prop32
280
     0
102
RTVSPost2010PropOp32
 70
     1
102
RTVSPost2010Prop33
280
     0
102
RTVSPost2010PropOp33
 70
     1
102
RTVSPost2010Prop34
280
     0
102
RTVSPost2010PropOp34
 70
     1
102
RTVSPost2010Prop35
280
     0
102
RTVSPost2010PropOp35
 70
     1
102
RTVSPost2010Prop36
280
     0
102
RTVSPost2010PropOp36
 70
     1
102
RTVSPost2010Prop37
 90
       50
102
RTVSPost2010PropOp37
 70
     1
102
RTVSPost2010Prop38
140
0.0
102
RTVSPost2010PropOp38
 70
     1
102
RTVSPost2010Prop39
140
1.0
102
RTVSPost2010PropOp39
 70
     1
102
RTVSPost2010Prop40
 90
        0
102
RTVSPost2010PropOp40
 70
     1
102
RTVSPost2010Prop41ColorIndex
 90
       18
102
RTVSPost2010Prop41ColorRGB
 90
        0
102
RTVSPost2010PropOp41
 70
     1
102
RTVSPost2010Prop42
 90
       50
102
RTVSPost2010PropOp42
 70
     1
102
RTVSPost2010Prop43
 90
        3
102
RTVSPost2010PropOp43
 70
     1
102
RTVSPost2010Prop44ColorIndex
 90
        5
102
RTVSPost2010Prop44ColorRGB
 90
      255
102
RTVSPost2010PropOp44
 70
     1
102
RTVSPost2010Prop45
280
     0
102
RTVSPost2010PropOp45
 70
     1
102
RTVSPost2010Prop46
 90
       50
102
RTVSPost2010PropOp46
 70
     1
102
RTVSPost2010Prop47
 90
       50
102
RTVSPost2010PropOp47
 70
     1
102
RTVSPost2010Prop48
 90
       50
102
RTVSPost2010PropOp48
 70
     1
102
RTVSPost2010Prop49
280
     0
102
RTVSPost2010PropOp49
 70
     1
102
RTVSPost2010Prop50
 90
       50
102
RTVSPost2010PropOp50
 70
     1
102
RTVSPost2010Prop51ColorIndex
 90
      256
102
RTVSPost2010Prop51ColorRGB
 90
-16777216
102
RTVSPost2010PropOp51
 70
     0
102
RTVSPost2010Prop52
140
1.0
102
RTVSPost2010PropOp52
 70
     0
102
RTVSPost2010Prop53
 90
        2
102
RTVSPost2010PropOp53
 70
     1
102
RTVSPost2010Prop54
  1
strokes_ogs.tif
102
RTVSPost2010PropOp54
 70
     1
102
RTVSPost2010Prop55
280
     0
102
RTVSPost2010PropOp55
 70
     1
102
RTVSPost2010Prop56
140
1.0
102
RTVSPost2010PropOp56
 70
     1
102
RTVSPost2010Prop57
140
1.0
102
RTVSPost2010PropOp57
 70
     1
  0
XRECORD
  5
2C19E
102
{ACAD_REACTORS
330
2C19D
102
}
330
2C19D
100
AcDbXrecord
280
     1
102
RTVSPost2010Prop28
280
     0
102
RTVSPost2010PropOp28
 70
     1
102
RTVSPost2010Prop29
280
     1
102
RTVSPost2010PropOp29
 70
     1
102
RTVSPost2010Prop30
280
     1
102
RTVSPost2010PropOp30
 70
     1
102
RTVSPost2010Prop31
280
     0
102
RTVSPost2010PropOp31
 70
     1
102
RTVSPost2010Prop32
280
     0
102
RTVSPost2010PropOp32
 70
     1
102
RTVSPost2010Prop33
280
     0
102
RTVSPost2010PropOp33
 70
     1
102
RTVSPost2010Prop34
280
     0
102
RTVSPost2010PropOp34
 70
     1
102
RTVSPost2010Prop35
280
     0
102
RTVSPost2010PropOp35
 70
     1
102
RTVSPost2010Prop36
280
     0
102
RTVSPost2010PropOp36
 70
     1
102
RTVSPost2010Prop37
 90
       50
102
RTVSPost2010PropOp37
 70
     1
102
RTVSPost2010Prop38
140
0.0
102
RTVSPost2010PropOp38
 70
     1
102
RTVSPost2010Prop39
140
1.0
102
RTVSPost2010PropOp39
 70
     1
102
RTVSPost2010Prop40
 90
        0
102
RTVSPost2010PropOp40
 70
     1
102
RTVSPost2010Prop41ColorIndex
 90
       18
102
RTVSPost2010Prop41ColorRGB
 90
        0
102
RTVSPost2010PropOp41
 70
     1
102
RTVSPost2010Prop42
 90
       50
102
RTVSPost2010PropOp42
 70
     1
102
RTVSPost2010Prop43
 90
        3
102
RTVSPost2010PropOp43
 70
     1
102
RTVSPost2010Prop44ColorIndex
 90
        5
102
RTVSPost2010Prop44ColorRGB
 90
      255
102
RTVSPost2010PropOp44
 70
     1
102
RTVSPost2010Prop45
280
     0
102
RTVSPost2010PropOp45
 70
     1
102
RTVSPost2010Prop46
 90
       50
102
RTVSPost2010PropOp46
 70
     1
102
RTVSPost2010Prop47
 90
       50
102
RTVSPost2010PropOp47
 70
     1
102
RTVSPost2010Prop48
 90
       50
102
RTVSPost2010PropOp48
 70
     1
102
RTVSPost2010Prop49
280
     0
102
RTVSPost2010PropOp49
 70
     1
102
RTVSPost2010Prop50
 90
       50
102
RTVSPost2010PropOp50
 70
     1
102
RTVSPost2010Prop51ColorIndex
 90
      256
102
RTVSPost2010Prop51ColorRGB
 90
-16777216
102
RTVSPost2010PropOp51
 70
     0
102
RTVSPost2010Prop52
140
1.0
102
RTVSPost2010PropOp52
 70
     0
102
RTVSPost2010Prop53
 90
        2
102
RTVSPost2010PropOp53
 70
     1
102
RTVSPost2010Prop54
  1
strokes_ogs.tif
102
RTVSPost2010PropOp54
 70
     1
102
RTVSPost2010Prop55
280
     0
102
RTVSPost2010PropOp55
 70
     1
102
RTVSPost2010Prop56
140
1.0
102
RTVSPost2010PropOp56
 70
     1
102
RTVSPost2010Prop57
140
1.0
102
RTVSPost2010PropOp57
 70
     1
  0
XRECORD
  5
2C19A
102
{ACAD_REACTORS
330
2C199
102
}
330
2C199
100
AcDbXrecord
280
     1
102
RTVSPost2010Prop28
280
     0
102
RTVSPost2010PropOp28
 70
     1
102
RTVSPost2010Prop29
280
     1
102
RTVSPost2010PropOp29
 70
     1
102
RTVSPost2010Prop30
280
     1
102
RTVSPost2010PropOp30
 70
     1
102
RTVSPost2010Prop31
280
     0
102
RTVSPost2010PropOp31
 70
     1
102
RTVSPost2010Prop32
280
     0
102
RTVSPost2010PropOp32
 70
     1
102
RTVSPost2010Prop33
280
     0
102
RTVSPost2010PropOp33
 70
     1
102
RTVSPost2010Prop34
280
     0
102
RTVSPost2010PropOp34
 70
     1
102
RTVSPost2010Prop35
280
     0
102
RTVSPost2010PropOp35
 70
     1
102
RTVSPost2010Prop36
280
     0
102
RTVSPost2010PropOp36
 70
     1
102
RTVSPost2010Prop37
 90
       50
102
RTVSPost2010PropOp37
 70
     1
102
RTVSPost2010Prop38
140
0.0
102
RTVSPost2010PropOp38
 70
     1
102
RTVSPost2010Prop39
140
1.0
102
RTVSPost2010PropOp39
 70
     1
102
RTVSPost2010Prop40
 90
        0
102
RTVSPost2010PropOp40
 70
     1
102
RTVSPost2010Prop41ColorIndex
 90
       18
102
RTVSPost2010Prop41ColorRGB
 90
        0
102
RTVSPost2010PropOp41
 70
     1
102
RTVSPost2010Prop42
 90
       50
102
RTVSPost2010PropOp42
 70
     1
102
RTVSPost2010Prop43
 90
        3
102
RTVSPost2010PropOp43
 70
     1
102
RTVSPost2010Prop44ColorIndex
 90
        5
102
RTVSPost2010Prop44ColorRGB
 90
      255
102
RTVSPost2010PropOp44
 70
     1
102
RTVSPost2010Prop45
280
     0
102
RTVSPost2010PropOp45
 70
     1
102
RTVSPost2010Prop46
 90
       50
102
RTVSPost2010PropOp46
 70
     1
102
RTVSPost2010Prop47
 90
       50
102
RTVSPost2010PropOp47
 70
     1
102
RTVSPost2010Prop48
 90
       50
102
RTVSPost2010PropOp48
 70
     1
102
RTVSPost2010Prop49
280
     0
102
RTVSPost2010PropOp49
 70
     1
102
RTVSPost2010Prop50
 90
       50
102
RTVSPost2010PropOp50
 70
     1
102
RTVSPost2010Prop51ColorIndex
 90
      256
102
RTVSPost2010Prop51ColorRGB
 90
-16777216
102
RTVSPost2010PropOp51
 70
     0
102
RTVSPost2010Prop52
140
1.0
102
RTVSPost2010PropOp52
 70
     0
102
RTVSPost2010Prop53
 90
        2
102
RTVSPost2010PropOp53
 70
     1
102
RTVSPost2010Prop54
  1
strokes_ogs.tif
102
RTVSPost2010PropOp54
 70
     1
102
RTVSPost2010Prop55
280
     0
102
RTVSPost2010PropOp55
 70
     1
102
RTVSPost2010Prop56
140
1.0
102
RTVSPost2010PropOp56
 70
     1
102
RTVSPost2010Prop57
140
1.0
102
RTVSPost2010PropOp57
 70
     1
  0
XRECORD
  5
2C1A8
102
{ACAD_REACTORS
330
2C1A7
102
}
330
2C1A7
100
AcDbXrecord
280
     1
102
RTVSPost2010Prop28
280
     0
102
RTVSPost2010PropOp28
 70
     1
102
RTVSPost2010Prop29
280
     1
102
RTVSPost2010PropOp29
 70
     1
102
RTVSPost2010Prop30
280
     1
102
RTVSPost2010PropOp30
 70
     1
102
RTVSPost2010Prop31
280
     0
102
RTVSPost2010PropOp31
 70
     1
102
RTVSPost2010Prop32
280
     0
102
RTVSPost2010PropOp32
 70
     1
102
RTVSPost2010Prop33
280
     0
102
RTVSPost2010PropOp33
 70
     1
102
RTVSPost2010Prop34
280
     0
102
RTVSPost2010PropOp34
 70
     1
102
RTVSPost2010Prop35
280
     0
102
RTVSPost2010PropOp35
 70
     1
102
RTVSPost2010Prop36
280
     0
102
RTVSPost2010PropOp36
 70
     1
102
RTVSPost2010Prop37
 90
       50
102
RTVSPost2010PropOp37
 70
     1
102
RTVSPost2010Prop38
140
0.0
102
RTVSPost2010PropOp38
 70
     1
102
RTVSPost2010Prop39
140
1.0
102
RTVSPost2010PropOp39
 70
     1
102
RTVSPost2010Prop40
 90
        0
102
RTVSPost2010PropOp40
 70
     1
102
RTVSPost2010Prop41ColorIndex
 90
       18
102
RTVSPost2010Prop41ColorRGB
 90
        0
102
RTVSPost2010PropOp41
 70
     1
102
RTVSPost2010Prop42
 90
       50
102
RTVSPost2010PropOp42
 70
     1
102
RTVSPost2010Prop43
 90
        3
102
RTVSPost2010PropOp43
 70
     1
102
RTVSPost2010Prop44ColorIndex
 90
        5
102
RTVSPost2010Prop44ColorRGB
 90
      255
102
RTVSPost2010PropOp44
 70
     1
102
RTVSPost2010Prop45
280
     0
102
RTVSPost2010PropOp45
 70
     1
102
RTVSPost2010Prop46
 90
       50
102
RTVSPost2010PropOp46
 70
     1
102
RTVSPost2010Prop47
 90
       50
102
RTVSPost2010PropOp47
 70
     1
102
RTVSPost2010Prop48
 90
       50
102
RTVSPost2010PropOp48
 70
     1
102
RTVSPost2010Prop49
280
     0
102
RTVSPost2010PropOp49
 70
     1
102
RTVSPost2010Prop50
 90
       50
102
RTVSPost2010PropOp50
 70
     1
102
RTVSPost2010Prop51ColorIndex
 90
      256
102
RTVSPost2010Prop51ColorRGB
 90
-16777216
102
RTVSPost2010PropOp51
 70
     0
102
RTVSPost2010Prop52
140
1.0
102
RTVSPost2010PropOp52
 70
     0
102
RTVSPost2010Prop53
 90
        2
102
RTVSPost2010PropOp53
 70
     1
102
RTVSPost2010Prop54
  1
strokes_ogs.tif
102
RTVSPost2010PropOp54
 70
     1
102
RTVSPost2010Prop55
280
     0
102
RTVSPost2010PropOp55
 70
     1
102
RTVSPost2010Prop56
140
1.0
102
RTVSPost2010PropOp56
 70
     1
102
RTVSPost2010Prop57
140
1.0
102
RTVSPost2010PropOp57
 70
     1
  0
XRECORD
  5
2C1B0
102
{ACAD_REACTORS
330
2C1AF
102
}
330
2C1AF
100
AcDbXrecord
280
     1
102
RTVSPost2010Prop28
280
     0
102
RTVSPost2010PropOp28
 70
     1
102
RTVSPost2010Prop29
280
     1
102
RTVSPost2010PropOp29
 70
     1
102
RTVSPost2010Prop30
280
     1
102
RTVSPost2010PropOp30
 70
     1
102
RTVSPost2010Prop31
280
     0
102
RTVSPost2010PropOp31
 70
     1
102
RTVSPost2010Prop32
280
     0
102
RTVSPost2010PropOp32
 70
     1
102
RTVSPost2010Prop33
280
     0
102
RTVSPost2010PropOp33
 70
     1
102
RTVSPost2010Prop34
280
     0
102
RTVSPost2010PropOp34
 70
     1
102
RTVSPost2010Prop35
280
     0
102
RTVSPost2010PropOp35
 70
     1
102
RTVSPost2010Prop36
280
     0
102
RTVSPost2010PropOp36
 70
     1
102
RTVSPost2010Prop37
 90
       50
102
RTVSPost2010PropOp37
 70
     1
102
RTVSPost2010Prop38
140
0.0
102
RTVSPost2010PropOp38
 70
     1
102
RTVSPost2010Prop39
140
1.0
102
RTVSPost2010PropOp39
 70
     1
102
RTVSPost2010Prop40
 90
        0
102
RTVSPost2010PropOp40
 70
     1
102
RTVSPost2010Prop41ColorIndex
 90
       18
102
RTVSPost2010Prop41ColorRGB
 90
        0
102
RTVSPost2010PropOp41
 70
     1
102
RTVSPost2010Prop42
 90
       50
102
RTVSPost2010PropOp42
 70
     1
102
RTVSPost2010Prop43
 90
        3
102
RTVSPost2010PropOp43
 70
     1
102
RTVSPost2010Prop44ColorIndex
 90
        5
102
RTVSPost2010Prop44ColorRGB
 90
      255
102
RTVSPost2010PropOp44
 70
     1
102
RTVSPost2010Prop45
280
     0
102
RTVSPost2010PropOp45
 70
     1
102
RTVSPost2010Prop46
 90
       50
102
RTVSPost2010PropOp46
 70
     1
102
RTVSPost2010Prop47
 90
       50
102
RTVSPost2010PropOp47
 70
     1
102
RTVSPost2010Prop48
 90
       50
102
RTVSPost2010PropOp48
 70
     1
102
RTVSPost2010Prop49
280
     0
102
RTVSPost2010PropOp49
 70
     1
102
RTVSPost2010Prop50
 90
       50
102
RTVSPost2010PropOp50
 70
     1
102
RTVSPost2010Prop51ColorIndex
 90
      256
102
RTVSPost2010Prop51ColorRGB
 90
-16777216
102
RTVSPost2010PropOp51
 70
     0
102
RTVSPost2010Prop52
140
1.0
102
RTVSPost2010PropOp52
 70
     0
102
RTVSPost2010Prop53
 90
        2
102
RTVSPost2010PropOp53
 70
     1
102
RTVSPost2010Prop54
  1
strokes_ogs.tif
102
RTVSPost2010PropOp54
 70
     1
102
RTVSPost2010Prop55
280
     0
102
RTVSPost2010PropOp55
 70
     1
102
RTVSPost2010Prop56
140
1.0
102
RTVSPost2010PropOp56
 70
     1
102
RTVSPost2010Prop57
140
1.0
102
RTVSPost2010PropOp57
 70
     1
  0
XRECORD
  5
2C1A2
102
{ACAD_REACTORS
330
2C1A1
102
}
330
2C1A1
100
AcDbXrecord
280
     1
102
RTVSPost2010Prop28
280
     0
102
RTVSPost2010PropOp28
 70
     1
102
RTVSPost2010Prop29
280
     1
102
RTVSPost2010PropOp29
 70
     1
102
RTVSPost2010Prop30
280
     1
102
RTVSPost2010PropOp30
 70
     1
102
RTVSPost2010Prop31
280
     0
102
RTVSPost2010PropOp31
 70
     1
102
RTVSPost2010Prop32
280
     0
102
RTVSPost2010PropOp32
 70
     1
102
RTVSPost2010Prop33
280
     0
102
RTVSPost2010PropOp33
 70
     1
102
RTVSPost2010Prop34
280
     0
102
RTVSPost2010PropOp34
 70
     1
102
RTVSPost2010Prop35
280
     0
102
RTVSPost2010PropOp35
 70
     1
102
RTVSPost2010Prop36
280
     0
102
RTVSPost2010PropOp36
 70
     1
102
RTVSPost2010Prop37
 90
       50
102
RTVSPost2010PropOp37
 70
     1
102
RTVSPost2010Prop38
140
0.0
102
RTVSPost2010PropOp38
 70
     1
102
RTVSPost2010Prop39
140
1.0
102
RTVSPost2010PropOp39
 70
     1
102
RTVSPost2010Prop40
 90
        0
102
RTVSPost2010PropOp40
 70
     1
102
RTVSPost2010Prop41ColorIndex
 90
       18
102
RTVSPost2010Prop41ColorRGB
 90
        0
102
RTVSPost2010PropOp41
 70
     1
102
RTVSPost2010Prop42
 90
       50
102
RTVSPost2010PropOp42
 70
     1
102
RTVSPost2010Prop43
 90
        3
102
RTVSPost2010PropOp43
 70
     1
102
RTVSPost2010Prop44ColorIndex
 90
        5
102
RTVSPost2010Prop44ColorRGB
 90
      255
102
RTVSPost2010PropOp44
 70
     1
102
RTVSPost2010Prop45
280
     0
102
RTVSPost2010PropOp45
 70
     1
102
RTVSPost2010Prop46
 90
       50
102
RTVSPost2010PropOp46
 70
     1
102
RTVSPost2010Prop47
 90
       50
102
RTVSPost2010PropOp47
 70
     1
102
RTVSPost2010Prop48
 90
       50
102
RTVSPost2010PropOp48
 70
     1
102
RTVSPost2010Prop49
280
     0
102
RTVSPost2010PropOp49
 70
     1
102
RTVSPost2010Prop50
 90
       50
102
RTVSPost2010PropOp50
 70
     1
102
RTVSPost2010Prop51ColorIndex
 90
      256
102
RTVSPost2010Prop51ColorRGB
 90
-16777216
102
RTVSPost2010PropOp51
 70
     0
102
RTVSPost2010Prop52
140
1.0
102
RTVSPost2010PropOp52
 70
     0
102
RTVSPost2010Prop53
 90
        2
102
RTVSPost2010PropOp53
 70
     1
102
RTVSPost2010Prop54
  1
strokes_ogs.tif
102
RTVSPost2010PropOp54
 70
     1
102
RTVSPost2010Prop55
280
     0
102
RTVSPost2010PropOp55
 70
     1
102
RTVSPost2010Prop56
140
1.0
102
RTVSPost2010PropOp56
 70
     1
102
RTVSPost2010Prop57
140
1.0
102
RTVSPost2010PropOp57
 70
     1
  0
XRECORD
  5
2C1A6
102
{ACAD_REACTORS
330
2C1A5
102
}
330
2C1A5
100
AcDbXrecord
280
     1
102
RTVSPost2010Prop28
280
     0
102
RTVSPost2010PropOp28
 70
     1
102
RTVSPost2010Prop29
280
     1
102
RTVSPost2010PropOp29
 70
     1
102
RTVSPost2010Prop30
280
     1
102
RTVSPost2010PropOp30
 70
     1
102
RTVSPost2010Prop31
280
     0
102
RTVSPost2010PropOp31
 70
     1
102
RTVSPost2010Prop32
280
     0
102
RTVSPost2010PropOp32
 70
     1
102
RTVSPost2010Prop33
280
     0
102
RTVSPost2010PropOp33
 70
     1
102
RTVSPost2010Prop34
280
     0
102
RTVSPost2010PropOp34
 70
     1
102
RTVSPost2010Prop35
280
     0
102
RTVSPost2010PropOp35
 70
     1
102
RTVSPost2010Prop36
280
     0
102
RTVSPost2010PropOp36
 70
     1
102
RTVSPost2010Prop37
 90
       50
102
RTVSPost2010PropOp37
 70
     1
102
RTVSPost2010Prop38
140
0.0
102
RTVSPost2010PropOp38
 70
     1
102
RTVSPost2010Prop39
140
1.0
102
RTVSPost2010PropOp39
 70
     1
102
RTVSPost2010Prop40
 90
        0
102
RTVSPost2010PropOp40
 70
     1
102
RTVSPost2010Prop41ColorIndex
 90
       18
102
RTVSPost2010Prop41ColorRGB
 90
        0
102
RTVSPost2010PropOp41
 70
     1
102
RTVSPost2010Prop42
 90
       50
102
RTVSPost2010PropOp42
 70
     1
102
RTVSPost2010Prop43
 90
        3
102
RTVSPost2010PropOp43
 70
     1
102
RTVSPost2010Prop44ColorIndex
 90
        5
102
RTVSPost2010Prop44ColorRGB
 90
      255
102
RTVSPost2010PropOp44
 70
     1
102
RTVSPost2010Prop45
280
     0
102
RTVSPost2010PropOp45
 70
     1
102
RTVSPost2010Prop46
 90
       50
102
RTVSPost2010PropOp46
 70
     1
102
RTVSPost2010Prop47
 90
       50
102
RTVSPost2010PropOp47
 70
     1
102
RTVSPost2010Prop48
 90
       50
102
RTVSPost2010PropOp48
 70
     1
102
RTVSPost2010Prop49
280
     0
102
RTVSPost2010PropOp49
 70
     1
102
RTVSPost2010Prop50
 90
       50
102
RTVSPost2010PropOp50
 70
     1
102
RTVSPost2010Prop51ColorIndex
 90
      256
102
RTVSPost2010Prop51ColorRGB
 90
-16777216
102
RTVSPost2010PropOp51
 70
     0
102
RTVSPost2010Prop52
140
1.0
102
RTVSPost2010PropOp52
 70
     0
102
RTVSPost2010Prop53
 90
        2
102
RTVSPost2010PropOp53
 70
     1
102
RTVSPost2010Prop54
  1
strokes_ogs.tif
102
RTVSPost2010PropOp54
 70
     1
102
RTVSPost2010Prop55
280
     0
102
RTVSPost2010PropOp55
 70
     1
102
RTVSPost2010Prop56
140
1.0
102
RTVSPost2010PropOp56
 70
     1
102
RTVSPost2010Prop57
140
1.0
102
RTVSPost2010PropOp57
 70
     1
  0
XRECORD
  5
2C1B6
102
{ACAD_REACTORS
330
2C1B5
102
}
330
2C1B5
100
AcDbXrecord
280
     1
102
RTVSPost2010Prop28
280
     0
102
RTVSPost2010PropOp28
 70
     1
102
RTVSPost2010Prop29
280
     1
102
RTVSPost2010PropOp29
 70
     1
102
RTVSPost2010Prop30
280
     1
102
RTVSPost2010PropOp30
 70
     1
102
RTVSPost2010Prop31
280
     0
102
RTVSPost2010PropOp31
 70
     1
102
RTVSPost2010Prop32
280
     0
102
RTVSPost2010PropOp32
 70
     1
102
RTVSPost2010Prop33
280
     0
102
RTVSPost2010PropOp33
 70
     1
102
RTVSPost2010Prop34
280
     0
102
RTVSPost2010PropOp34
 70
     1
102
RTVSPost2010Prop35
280
     0
102
RTVSPost2010PropOp35
 70
     1
102
RTVSPost2010Prop36
280
     0
102
RTVSPost2010PropOp36
 70
     1
102
RTVSPost2010Prop37
 90
       50
102
RTVSPost2010PropOp37
 70
     1
102
RTVSPost2010Prop38
140
0.0
102
RTVSPost2010PropOp38
 70
     1
102
RTVSPost2010Prop39
140
1.0
102
RTVSPost2010PropOp39
 70
     1
102
RTVSPost2010Prop40
 90
        0
102
RTVSPost2010PropOp40
 70
     1
102
RTVSPost2010Prop41ColorIndex
 90
       18
102
RTVSPost2010Prop41ColorRGB
 90
        0
102
RTVSPost2010PropOp41
 70
     1
102
RTVSPost2010Prop42
 90
       50
102
RTVSPost2010PropOp42
 70
     1
102
RTVSPost2010Prop43
 90
        3
102
RTVSPost2010PropOp43
 70
     1
102
RTVSPost2010Prop44ColorIndex
 90
        5
102
RTVSPost2010Prop44ColorRGB
 90
      255
102
RTVSPost2010PropOp44
 70
     1
102
RTVSPost2010Prop45
280
     0
102
RTVSPost2010PropOp45
 70
     1
102
RTVSPost2010Prop46
 90
       50
102
RTVSPost2010PropOp46
 70
     1
102
RTVSPost2010Prop47
 90
       50
102
RTVSPost2010PropOp47
 70
     1
102
RTVSPost2010Prop48
 90
       50
102
RTVSPost2010PropOp48
 70
     1
102
RTVSPost2010Prop49
280
     0
102
RTVSPost2010PropOp49
 70
     1
102
RTVSPost2010Prop50
 90
       50
102
RTVSPost2010PropOp50
 70
     1
102
RTVSPost2010Prop51ColorIndex
 90
      256
102
RTVSPost2010Prop51ColorRGB
 90
-16777216
102
RTVSPost2010PropOp51
 70
     0
102
RTVSPost2010Prop52
140
1.0
102
RTVSPost2010PropOp52
 70
     0
102
RTVSPost2010Prop53
 90
        2
102
RTVSPost2010PropOp53
 70
     1
102
RTVSPost2010Prop54
  1
strokes_ogs.tif
102
RTVSPost2010PropOp54
 70
     1
102
RTVSPost2010Prop55
280
     0
102
RTVSPost2010PropOp55
 70
     1
102
RTVSPost2010Prop56
140
1.0
102
RTVSPost2010PropOp56
 70
     1
102
RTVSPost2010Prop57
140
1.0
102
RTVSPost2010PropOp57
 70
     1
  0
XRECORD
  5
2C1AE
102
{ACAD_REACTORS
330
2C1AD
102
}
330
2C1AD
100
AcDbXrecord
280
     1
102
RTVSPost2010Prop28
280
     0
102
RTVSPost2010PropOp28
 70
     1
102
RTVSPost2010Prop29
280
     1
102
RTVSPost2010PropOp29
 70
     1
102
RTVSPost2010Prop30
280
     1
102
RTVSPost2010PropOp30
 70
     1
102
RTVSPost2010Prop31
280
     0
102
RTVSPost2010PropOp31
 70
     1
102
RTVSPost2010Prop32
280
     0
102
RTVSPost2010PropOp32
 70
     1
102
RTVSPost2010Prop33
280
     0
102
RTVSPost2010PropOp33
 70
     1
102
RTVSPost2010Prop34
280
     0
102
RTVSPost2010PropOp34
 70
     1
102
RTVSPost2010Prop35
280
     0
102
RTVSPost2010PropOp35
 70
     1
102
RTVSPost2010Prop36
280
     0
102
RTVSPost2010PropOp36
 70
     1
102
RTVSPost2010Prop37
 90
       50
102
RTVSPost2010PropOp37
 70
     1
102
RTVSPost2010Prop38
140
0.0
102
RTVSPost2010PropOp38
 70
     1
102
RTVSPost2010Prop39
140
1.0
102
RTVSPost2010PropOp39
 70
     1
102
RTVSPost2010Prop40
 90
        0
102
RTVSPost2010PropOp40
 70
     1
102
RTVSPost2010Prop41ColorIndex
 90
       18
102
RTVSPost2010Prop41ColorRGB
 90
        0
102
RTVSPost2010PropOp41
 70
     1
102
RTVSPost2010Prop42
 90
       50
102
RTVSPost2010PropOp42
 70
     1
102
RTVSPost2010Prop43
 90
        3
102
RTVSPost2010PropOp43
 70
     1
102
RTVSPost2010Prop44ColorIndex
 90
        5
102
RTVSPost2010Prop44ColorRGB
 90
      255
102
RTVSPost2010PropOp44
 70
     1
102
RTVSPost2010Prop45
280
     0
102
RTVSPost2010PropOp45
 70
     1
102
RTVSPost2010Prop46
 90
       50
102
RTVSPost2010PropOp46
 70
     1
102
RTVSPost2010Prop47
 90
       50
102
RTVSPost2010PropOp47
 70
     1
102
RTVSPost2010Prop48
 90
       50
102
RTVSPost2010PropOp48
 70
     1
102
RTVSPost2010Prop49
280
     0
102
RTVSPost2010PropOp49
 70
     1
102
RTVSPost2010Prop50
 90
       50
102
RTVSPost2010PropOp50
 70
     1
102
RTVSPost2010Prop51ColorIndex
 90
      256
102
RTVSPost2010Prop51ColorRGB
 90
-16777216
102
RTVSPost2010PropOp51
 70
     0
102
RTVSPost2010Prop52
140
1.0
102
RTVSPost2010PropOp52
 70
     0
102
RTVSPost2010Prop53
 90
        2
102
RTVSPost2010PropOp53
 70
     1
102
RTVSPost2010Prop54
  1
strokes_ogs.tif
102
RTVSPost2010PropOp54
 70
     1
102
RTVSPost2010Prop55
280
     0
102
RTVSPost2010PropOp55
 70
     1
102
RTVSPost2010Prop56
140
1.0
102
RTVSPost2010PropOp56
 70
     1
102
RTVSPost2010Prop57
140
1.0
102
RTVSPost2010PropOp57
 70
     1
  0
XRECORD
  5
2C192
102
{ACAD_REACTORS
330
2C191
102
}
330
2C191
100
AcDbXrecord
280
     1
102
RTVSPost2010Prop28
280
     0
102
RTVSPost2010PropOp28
 70
     1
102
RTVSPost2010Prop29
280
     1
102
RTVSPost2010PropOp29
 70
     1
102
RTVSPost2010Prop30
280
     1
102
RTVSPost2010PropOp30
 70
     1
102
RTVSPost2010Prop31
280
     0
102
RTVSPost2010PropOp31
 70
     1
102
RTVSPost2010Prop32
280
     0
102
RTVSPost2010PropOp32
 70
     1
102
RTVSPost2010Prop33
280
     0
102
RTVSPost2010PropOp33
 70
     1
102
RTVSPost2010Prop34
280
     0
102
RTVSPost2010PropOp34
 70
     1
102
RTVSPost2010Prop35
280
     0
102
RTVSPost2010PropOp35
 70
     1
102
RTVSPost2010Prop36
280
     0
102
RTVSPost2010PropOp36
 70
     1
102
RTVSPost2010Prop37
 90
       50
102
RTVSPost2010PropOp37
 70
     1
102
RTVSPost2010Prop38
140
0.0
102
RTVSPost2010PropOp38
 70
     1
102
RTVSPost2010Prop39
140
1.0
102
RTVSPost2010PropOp39
 70
     1
102
RTVSPost2010Prop40
 90
        0
102
RTVSPost2010PropOp40
 70
     1
102
RTVSPost2010Prop41ColorIndex
 90
       18
102
RTVSPost2010Prop41ColorRGB
 90
        0
102
RTVSPost2010PropOp41
 70
     1
102
RTVSPost2010Prop42
 90
       50
102
RTVSPost2010PropOp42
 70
     1
102
RTVSPost2010Prop43
 90
        3
102
RTVSPost2010PropOp43
 70
     1
102
RTVSPost2010Prop44ColorIndex
 90
        5
102
RTVSPost2010Prop44ColorRGB
 90
      255
102
RTVSPost2010PropOp44
 70
     1
102
RTVSPost2010Prop45
280
     0
102
RTVSPost2010PropOp45
 70
     1
102
RTVSPost2010Prop46
 90
       50
102
RTVSPost2010PropOp46
 70
     1
102
RTVSPost2010Prop47
 90
       50
102
RTVSPost2010PropOp47
 70
     1
102
RTVSPost2010Prop48
 90
       50
102
RTVSPost2010PropOp48
 70
     1
102
RTVSPost2010Prop49
280
     0
102
RTVSPost2010PropOp49
 70
     1
102
RTVSPost2010Prop50
 90
       50
102
RTVSPost2010PropOp50
 70
     1
102
RTVSPost2010Prop51ColorIndex
 90
      256
102
RTVSPost2010Prop51ColorRGB
 90
-16777216
102
RTVSPost2010PropOp51
 70
     0
102
RTVSPost2010Prop52
140
1.0
102
RTVSPost2010PropOp52
 70
     0
102
RTVSPost2010Prop53
 90
        2
102
RTVSPost2010PropOp53
 70
     1
102
RTVSPost2010Prop54
  1
strokes_ogs.tif
102
RTVSPost2010PropOp54
 70
     1
102
RTVSPost2010Prop55
280
     0
102
RTVSPost2010PropOp55
 70
     1
102
RTVSPost2010Prop56
140
1.0
102
RTVSPost2010PropOp56
 70
     1
102
RTVSPost2010Prop57
140
1.0
102
RTVSPost2010PropOp57
 70
     1
  0
XRECORD
  5
2C194
102
{ACAD_REACTORS
330
2C193
102
}
330
2C193
100
AcDbXrecord
280
     1
102
RTVSPost2010Prop28
280
     0
102
RTVSPost2010PropOp28
 70
     1
102
RTVSPost2010Prop29
280
     1
102
RTVSPost2010PropOp29
 70
     1
102
RTVSPost2010Prop30
280
     1
102
RTVSPost2010PropOp30
 70
     1
102
RTVSPost2010Prop31
280
     0
102
RTVSPost2010PropOp31
 70
     1
102
RTVSPost2010Prop32
280
     0
102
RTVSPost2010PropOp32
 70
     1
102
RTVSPost2010Prop33
280
     0
102
RTVSPost2010PropOp33
 70
     1
102
RTVSPost2010Prop34
280
     0
102
RTVSPost2010PropOp34
 70
     1
102
RTVSPost2010Prop35
280
     0
102
RTVSPost2010PropOp35
 70
     1
102
RTVSPost2010Prop36
280
     0
102
RTVSPost2010PropOp36
 70
     1
102
RTVSPost2010Prop37
 90
       50
102
RTVSPost2010PropOp37
 70
     1
102
RTVSPost2010Prop38
140
0.0
102
RTVSPost2010PropOp38
 70
     1
102
RTVSPost2010Prop39
140
1.0
102
RTVSPost2010PropOp39
 70
     1
102
RTVSPost2010Prop40
 90
        0
102
RTVSPost2010PropOp40
 70
     1
102
RTVSPost2010Prop41ColorIndex
 90
       18
102
RTVSPost2010Prop41ColorRGB
 90
        0
102
RTVSPost2010PropOp41
 70
     1
102
RTVSPost2010Prop42
 90
       50
102
RTVSPost2010PropOp42
 70
     1
102
RTVSPost2010Prop43
 90
        3
102
RTVSPost2010PropOp43
 70
     1
102
RTVSPost2010Prop44ColorIndex
 90
        5
102
RTVSPost2010Prop44ColorRGB
 90
      255
102
RTVSPost2010PropOp44
 70
     1
102
RTVSPost2010Prop45
280
     0
102
RTVSPost2010PropOp45
 70
     1
102
RTVSPost2010Prop46
 90
       50
102
RTVSPost2010PropOp46
 70
     1
102
RTVSPost2010Prop47
 90
       50
102
RTVSPost2010PropOp47
 70
     1
102
RTVSPost2010Prop48
 90
       50
102
RTVSPost2010PropOp48
 70
     1
102
RTVSPost2010Prop49
280
     0
102
RTVSPost2010PropOp49
 70
     1
102
RTVSPost2010Prop50
 90
       50
102
RTVSPost2010PropOp50
 70
     1
102
RTVSPost2010Prop51ColorIndex
 90
      256
102
RTVSPost2010Prop51ColorRGB
 90
-16777216
102
RTVSPost2010PropOp51
 70
     0
102
RTVSPost2010Prop52
140
1.0
102
RTVSPost2010PropOp52
 70
     0
102
RTVSPost2010Prop53
 90
        2
102
RTVSPost2010PropOp53
 70
     1
102
RTVSPost2010Prop54
  1
strokes_ogs.tif
102
RTVSPost2010PropOp54
 70
     1
102
RTVSPost2010Prop55
280
     0
102
RTVSPost2010PropOp55
 70
     1
102
RTVSPost2010Prop56
140
1.0
102
RTVSPost2010PropOp56
 70
     1
102
RTVSPost2010Prop57
140
1.0
102
RTVSPost2010PropOp57
 70
     1
  0
XRECORD
  5
2C196
102
{ACAD_REACTORS
330
2C195
102
}
330
2C195
100
AcDbXrecord
280
     1
102
RTVSPost2010Prop28
280
     0
102
RTVSPost2010PropOp28
 70
     1
102
RTVSPost2010Prop29
280
     1
102
RTVSPost2010PropOp29
 70
     1
102
RTVSPost2010Prop30
280
     1
102
RTVSPost2010PropOp30
 70
     1
102
RTVSPost2010Prop31
280
     0
102
RTVSPost2010PropOp31
 70
     1
102
RTVSPost2010Prop32
280
     0
102
RTVSPost2010PropOp32
 70
     1
102
RTVSPost2010Prop33
280
     0
102
RTVSPost2010PropOp33
 70
     1
102
RTVSPost2010Prop34
280
     0
102
RTVSPost2010PropOp34
 70
     1
102
RTVSPost2010Prop35
280
     0
102
RTVSPost2010PropOp35
 70
     1
102
RTVSPost2010Prop36
280
     0
102
RTVSPost2010PropOp36
 70
     1
102
RTVSPost2010Prop37
 90
       50
102
RTVSPost2010PropOp37
 70
     1
102
RTVSPost2010Prop38
140
0.0
102
RTVSPost2010PropOp38
 70
     1
102
RTVSPost2010Prop39
140
1.0
102
RTVSPost2010PropOp39
 70
     1
102
RTVSPost2010Prop40
 90
        0
102
RTVSPost2010PropOp40
 70
     1
102
RTVSPost2010Prop41ColorIndex
 90
       18
102
RTVSPost2010Prop41ColorRGB
 90
        0
102
RTVSPost2010PropOp41
 70
     1
102
RTVSPost2010Prop42
 90
       50
102
RTVSPost2010PropOp42
 70
     1
102
RTVSPost2010Prop43
 90
        3
102
RTVSPost2010PropOp43
 70
     1
102
RTVSPost2010Prop44ColorIndex
 90
        5
102
RTVSPost2010Prop44ColorRGB
 90
      255
102
RTVSPost2010PropOp44
 70
     1
102
RTVSPost2010Prop45
280
     0
102
RTVSPost2010PropOp45
 70
     1
102
RTVSPost2010Prop46
 90
       50
102
RTVSPost2010PropOp46
 70
     1
102
RTVSPost2010Prop47
 90
       50
102
RTVSPost2010PropOp47
 70
     1
102
RTVSPost2010Prop48
 90
       50
102
RTVSPost2010PropOp48
 70
     1
102
RTVSPost2010Prop49
280
     0
102
RTVSPost2010PropOp49
 70
     1
102
RTVSPost2010Prop50
 90
       50
102
RTVSPost2010PropOp50
 70
     1
102
RTVSPost2010Prop51ColorIndex
 90
      256
102
RTVSPost2010Prop51ColorRGB
 90
-16777216
102
RTVSPost2010PropOp51
 70
     0
102
RTVSPost2010Prop52
140
1.0
102
RTVSPost2010PropOp52
 70
     0
102
RTVSPost2010Prop53
 90
        2
102
RTVSPost2010PropOp53
 70
     1
102
RTVSPost2010Prop54
  1
strokes_ogs.tif
102
RTVSPost2010PropOp54
 70
     1
102
RTVSPost2010Prop55
280
     0
102
RTVSPost2010PropOp55
 70
     1
102
RTVSPost2010Prop56
140
1.0
102
RTVSPost2010PropOp56
 70
     1
102
RTVSPost2010Prop57
140
1.0
102
RTVSPost2010PropOp57
 70
     1
  0
XRECORD
  5
2C198
102
{ACAD_REACTORS
330
2C197
102
}
330
2C197
100
AcDbXrecord
280
     1
102
RTVSPost2010Prop28
280
     0
102
RTVSPost2010PropOp28
 70
     1
102
RTVSPost2010Prop29
280
     1
102
RTVSPost2010PropOp29
 70
     1
102
RTVSPost2010Prop30
280
     1
102
RTVSPost2010PropOp30
 70
     1
102
RTVSPost2010Prop31
280
     0
102
RTVSPost2010PropOp31
 70
     1
102
RTVSPost2010Prop32
280
     0
102
RTVSPost2010PropOp32
 70
     1
102
RTVSPost2010Prop33
280
     0
102
RTVSPost2010PropOp33
 70
     1
102
RTVSPost2010Prop34
280
     0
102
RTVSPost2010PropOp34
 70
     1
102
RTVSPost2010Prop35
280
     0
102
RTVSPost2010PropOp35
 70
     1
102
RTVSPost2010Prop36
280
     0
102
RTVSPost2010PropOp36
 70
     1
102
RTVSPost2010Prop37
 90
       50
102
RTVSPost2010PropOp37
 70
     1
102
RTVSPost2010Prop38
140
0.0
102
RTVSPost2010PropOp38
 70
     1
102
RTVSPost2010Prop39
140
1.0
102
RTVSPost2010PropOp39
 70
     1
102
RTVSPost2010Prop40
 90
        0
102
RTVSPost2010PropOp40
 70
     1
102
RTVSPost2010Prop41ColorIndex
 90
       18
102
RTVSPost2010Prop41ColorRGB
 90
        0
102
RTVSPost2010PropOp41
 70
     1
102
RTVSPost2010Prop42
 90
       50
102
RTVSPost2010PropOp42
 70
     1
102
RTVSPost2010Prop43
 90
        3
102
RTVSPost2010PropOp43
 70
     1
102
RTVSPost2010Prop44ColorIndex
 90
        5
102
RTVSPost2010Prop44ColorRGB
 90
      255
102
RTVSPost2010PropOp44
 70
     1
102
RTVSPost2010Prop45
280
     0
102
RTVSPost2010PropOp45
 70
     1
102
RTVSPost2010Prop46
 90
       50
102
RTVSPost2010PropOp46
 70
     1
102
RTVSPost2010Prop47
 90
       50
102
RTVSPost2010PropOp47
 70
     1
102
RTVSPost2010Prop48
 90
       50
102
RTVSPost2010PropOp48
 70
     1
102
RTVSPost2010Prop49
280
     0
102
RTVSPost2010PropOp49
 70
     1
102
RTVSPost2010Prop50
 90
       50
102
RTVSPost2010PropOp50
 70
     1
102
RTVSPost2010Prop51ColorIndex
 90
      256
102
RTVSPost2010Prop51ColorRGB
 90
-16777216
102
RTVSPost2010PropOp51
 70
     0
102
RTVSPost2010Prop52
140
1.0
102
RTVSPost2010PropOp52
 70
     0
102
RTVSPost2010Prop53
 90
        2
102
RTVSPost2010PropOp53
 70
     1
102
RTVSPost2010Prop54
  1
strokes_ogs.tif
102
RTVSPost2010PropOp54
 70
     1
102
RTVSPost2010Prop55
280
     0
102
RTVSPost2010PropOp55
 70
     1
102
RTVSPost2010Prop56
140
1.0
102
RTVSPost2010PropOp56
 70
     1
102
RTVSPost2010Prop57
140
1.0
102
RTVSPost2010PropOp57
 70
     1
  0
XRECORD
  5
2C1BA
102
{ACAD_REACTORS
330
2C1B9
102
}
330
2C1B9
100
AcDbXrecord
280
     1
102
RTVSPost2010Prop28
280
     0
102
RTVSPost2010PropOp28
 70
     1
102
RTVSPost2010Prop29
280
     1
102
RTVSPost2010PropOp29
 70
     1
102
RTVSPost2010Prop30
280
     1
102
RTVSPost2010PropOp30
 70
     1
102
RTVSPost2010Prop31
280
     0
102
RTVSPost2010PropOp31
 70
     1
102
RTVSPost2010Prop32
280
     0
102
RTVSPost2010PropOp32
 70
     1
102
RTVSPost2010Prop33
280
     0
102
RTVSPost2010PropOp33
 70
     1
102
RTVSPost2010Prop34
280
     0
102
RTVSPost2010PropOp34
 70
     1
102
RTVSPost2010Prop35
280
     0
102
RTVSPost2010PropOp35
 70
     1
102
RTVSPost2010Prop36
280
     0
102
RTVSPost2010PropOp36
 70
     1
102
RTVSPost2010Prop37
 90
       50
102
RTVSPost2010PropOp37
 70
     1
102
RTVSPost2010Prop38
140
0.0
102
RTVSPost2010PropOp38
 70
     1
102
RTVSPost2010Prop39
140
1.0
102
RTVSPost2010PropOp39
 70
     1
102
RTVSPost2010Prop40
 90
        0
102
RTVSPost2010PropOp40
 70
     1
102
RTVSPost2010Prop41ColorIndex
 90
       18
102
RTVSPost2010Prop41ColorRGB
 90
        0
102
RTVSPost2010PropOp41
 70
     1
102
RTVSPost2010Prop42
 90
       50
102
RTVSPost2010PropOp42
 70
     1
102
RTVSPost2010Prop43
 90
        3
102
RTVSPost2010PropOp43
 70
     1
102
RTVSPost2010Prop44ColorIndex
 90
        5
102
RTVSPost2010Prop44ColorRGB
 90
      255
102
RTVSPost2010PropOp44
 70
     1
102
RTVSPost2010Prop45
280
     0
102
RTVSPost2010PropOp45
 70
     1
102
RTVSPost2010Prop46
 90
       50
102
RTVSPost2010PropOp46
 70
     1
102
RTVSPost2010Prop47
 90
       50
102
RTVSPost2010PropOp47
 70
     1
102
RTVSPost2010Prop48
 90
       50
102
RTVSPost2010PropOp48
 70
     1
102
RTVSPost2010Prop49
280
     0
102
RTVSPost2010PropOp49
 70
     1
102
RTVSPost2010Prop50
 90
       50
102
RTVSPost2010PropOp50
 70
     1
102
RTVSPost2010Prop51ColorIndex
 90
      256
102
RTVSPost2010Prop51ColorRGB
 90
-16777216
102
RTVSPost2010PropOp51
 70
     0
102
RTVSPost2010Prop52
140
1.0
102
RTVSPost2010PropOp52
 70
     0
102
RTVSPost2010Prop53
 90
        2
102
RTVSPost2010PropOp53
 70
     1
102
RTVSPost2010Prop54
  1
strokes_ogs.tif
102
RTVSPost2010PropOp54
 70
     1
102
RTVSPost2010Prop55
280
     0
102
RTVSPost2010PropOp55
 70
     1
102
RTVSPost2010Prop56
140
1.0
102
RTVSPost2010PropOp56
 70
     1
102
RTVSPost2010Prop57
140
1.0
102
RTVSPost2010PropOp57
 70
     1
  0
XRECORD
  5
2C1B2
102
{ACAD_REACTORS
330
2C1B1
102
}
330
2C1B1
100
AcDbXrecord
280
     1
102
RTVSPost2010Prop28
280
     0
102
RTVSPost2010PropOp28
 70
     1
102
RTVSPost2010Prop29
280
     1
102
RTVSPost2010PropOp29
 70
     1
102
RTVSPost2010Prop30
280
     1
102
RTVSPost2010PropOp30
 70
     1
102
RTVSPost2010Prop31
280
     0
102
RTVSPost2010PropOp31
 70
     1
102
RTVSPost2010Prop32
280
     0
102
RTVSPost2010PropOp32
 70
     1
102
RTVSPost2010Prop33
280
     0
102
RTVSPost2010PropOp33
 70
     1
102
RTVSPost2010Prop34
280
     0
102
RTVSPost2010PropOp34
 70
     1
102
RTVSPost2010Prop35
280
     0
102
RTVSPost2010PropOp35
 70
     1
102
RTVSPost2010Prop36
280
     0
102
RTVSPost2010PropOp36
 70
     1
102
RTVSPost2010Prop37
 90
       50
102
RTVSPost2010PropOp37
 70
     1
102
RTVSPost2010Prop38
140
0.0
102
RTVSPost2010PropOp38
 70
     1
102
RTVSPost2010Prop39
140
1.0
102
RTVSPost2010PropOp39
 70
     1
102
RTVSPost2010Prop40
 90
        0
102
RTVSPost2010PropOp40
 70
     1
102
RTVSPost2010Prop41ColorIndex
 90
       18
102
RTVSPost2010Prop41ColorRGB
 90
        0
102
RTVSPost2010PropOp41
 70
     1
102
RTVSPost2010Prop42
 90
       50
102
RTVSPost2010PropOp42
 70
     1
102
RTVSPost2010Prop43
 90
        3
102
RTVSPost2010PropOp43
 70
     1
102
RTVSPost2010Prop44ColorIndex
 90
        5
102
RTVSPost2010Prop44ColorRGB
 90
      255
102
RTVSPost2010PropOp44
 70
     1
102
RTVSPost2010Prop45
280
     0
102
RTVSPost2010PropOp45
 70
     1
102
RTVSPost2010Prop46
 90
       50
102
RTVSPost2010PropOp46
 70
     1
102
RTVSPost2010Prop47
 90
       50
102
RTVSPost2010PropOp47
 70
     1
102
RTVSPost2010Prop48
 90
       50
102
RTVSPost2010PropOp48
 70
     1
102
RTVSPost2010Prop49
280
     0
102
RTVSPost2010PropOp49
 70
     1
102
RTVSPost2010Prop50
 90
       50
102
RTVSPost2010PropOp50
 70
     1
102
RTVSPost2010Prop51ColorIndex
 90
      256
102
RTVSPost2010Prop51ColorRGB
 90
-16777216
102
RTVSPost2010PropOp51
 70
     0
102
RTVSPost2010Prop52
140
1.0
102
RTVSPost2010PropOp52
 70
     0
102
RTVSPost2010Prop53
 90
        2
102
RTVSPost2010PropOp53
 70
     1
102
RTVSPost2010Prop54
  1
strokes_ogs.tif
102
RTVSPost2010PropOp54
 70
     1
102
RTVSPost2010Prop55
280
     0
102
RTVSPost2010PropOp55
 70
     1
102
RTVSPost2010Prop56
140
1.0
102
RTVSPost2010PropOp56
 70
     1
102
RTVSPost2010Prop57
140
1.0
102
RTVSPost2010PropOp57
 70
     1
  0
XRECORD
  5
2C1AC
102
{ACAD_REACTORS
330
2C1AB
102
}
330
2C1AB
100
AcDbXrecord
280
     1
102
RTVSPost2010Prop28
280
     0
102
RTVSPost2010PropOp28
 70
     1
102
RTVSPost2010Prop29
280
     1
102
RTVSPost2010PropOp29
 70
     1
102
RTVSPost2010Prop30
280
     1
102
RTVSPost2010PropOp30
 70
     1
102
RTVSPost2010Prop31
280
     0
102
RTVSPost2010PropOp31
 70
     1
102
RTVSPost2010Prop32
280
     0
102
RTVSPost2010PropOp32
 70
     1
102
RTVSPost2010Prop33
280
     0
102
RTVSPost2010PropOp33
 70
     1
102
RTVSPost2010Prop34
280
     0
102
RTVSPost2010PropOp34
 70
     1
102
RTVSPost2010Prop35
280
     0
102
RTVSPost2010PropOp35
 70
     1
102
RTVSPost2010Prop36
280
     0
102
RTVSPost2010PropOp36
 70
     1
102
RTVSPost2010Prop37
 90
       50
102
RTVSPost2010PropOp37
 70
     1
102
RTVSPost2010Prop38
140
0.0
102
RTVSPost2010PropOp38
 70
     1
102
RTVSPost2010Prop39
140
1.0
102
RTVSPost2010PropOp39
 70
     1
102
RTVSPost2010Prop40
 90
        0
102
RTVSPost2010PropOp40
 70
     1
102
RTVSPost2010Prop41ColorIndex
 90
       18
102
RTVSPost2010Prop41ColorRGB
 90
        0
102
RTVSPost2010PropOp41
 70
     1
102
RTVSPost2010Prop42
 90
       50
102
RTVSPost2010PropOp42
 70
     1
102
RTVSPost2010Prop43
 90
        3
102
RTVSPost2010PropOp43
 70
     1
102
RTVSPost2010Prop44ColorIndex
 90
        5
102
RTVSPost2010Prop44ColorRGB
 90
      255
102
RTVSPost2010PropOp44
 70
     1
102
RTVSPost2010Prop45
280
     0
102
RTVSPost2010PropOp45
 70
     1
102
RTVSPost2010Prop46
 90
       50
102
RTVSPost2010PropOp46
 70
     1
102
RTVSPost2010Prop47
 90
       50
102
RTVSPost2010PropOp47
 70
     1
102
RTVSPost2010Prop48
 90
       50
102
RTVSPost2010PropOp48
 70
     1
102
RTVSPost2010Prop49
280
     0
102
RTVSPost2010PropOp49
 70
     1
102
RTVSPost2010Prop50
 90
       50
102
RTVSPost2010PropOp50
 70
     1
102
RTVSPost2010Prop51ColorIndex
 90
      256
102
RTVSPost2010Prop51ColorRGB
 90
-16777216
102
RTVSPost2010PropOp51
 70
     0
102
RTVSPost2010Prop52
140
1.0
102
RTVSPost2010PropOp52
 70
     0
102
RTVSPost2010Prop53
 90
        2
102
RTVSPost2010PropOp53
 70
     1
102
RTVSPost2010Prop54
  1
strokes_ogs.tif
102
RTVSPost2010PropOp54
 70
     1
102
RTVSPost2010Prop55
280
     0
102
RTVSPost2010PropOp55
 70
     1
102
RTVSPost2010Prop56
140
1.0
102
RTVSPost2010PropOp56
 70
     1
102
RTVSPost2010Prop57
140
1.0
102
RTVSPost2010PropOp57
 70
     1
  0
XRECORD
  5
2C1B4
102
{ACAD_REACTORS
330
2C1B3
102
}
330
2C1B3
100
AcDbXrecord
280
     1
102
RTVSPost2010Prop28
280
     0
102
RTVSPost2010PropOp28
 70
     1
102
RTVSPost2010Prop29
280
     1
102
RTVSPost2010PropOp29
 70
     1
102
RTVSPost2010Prop30
280
     1
102
RTVSPost2010PropOp30
 70
     1
102
RTVSPost2010Prop31
280
     0
102
RTVSPost2010PropOp31
 70
     1
102
RTVSPost2010Prop32
280
     0
102
RTVSPost2010PropOp32
 70
     1
102
RTVSPost2010Prop33
280
     0
102
RTVSPost2010PropOp33
 70
     1
102
RTVSPost2010Prop34
280
     0
102
RTVSPost2010PropOp34
 70
     1
102
RTVSPost2010Prop35
280
     0
102
RTVSPost2010PropOp35
 70
     1
102
RTVSPost2010Prop36
280
     0
102
RTVSPost2010PropOp36
 70
     1
102
RTVSPost2010Prop37
 90
       50
102
RTVSPost2010PropOp37
 70
     1
102
RTVSPost2010Prop38
140
0.0
102
RTVSPost2010PropOp38
 70
     1
102
RTVSPost2010Prop39
140
1.0
102
RTVSPost2010PropOp39
 70
     1
102
RTVSPost2010Prop40
 90
        0
102
RTVSPost2010PropOp40
 70
     1
102
RTVSPost2010Prop41ColorIndex
 90
       18
102
RTVSPost2010Prop41ColorRGB
 90
        0
102
RTVSPost2010PropOp41
 70
     1
102
RTVSPost2010Prop42
 90
       50
102
RTVSPost2010PropOp42
 70
     1
102
RTVSPost2010Prop43
 90
        3
102
RTVSPost2010PropOp43
 70
     1
102
RTVSPost2010Prop44ColorIndex
 90
        5
102
RTVSPost2010Prop44ColorRGB
 90
      255
102
RTVSPost2010PropOp44
 70
     1
102
RTVSPost2010Prop45
280
     0
102
RTVSPost2010PropOp45
 70
     1
102
RTVSPost2010Prop46
 90
       50
102
RTVSPost2010PropOp46
 70
     1
102
RTVSPost2010Prop47
 90
       50
102
RTVSPost2010PropOp47
 70
     1
102
RTVSPost2010Prop48
 90
       50
102
RTVSPost2010PropOp48
 70
     1
102
RTVSPost2010Prop49
280
     0
102
RTVSPost2010PropOp49
 70
     1
102
RTVSPost2010Prop50
 90
       50
102
RTVSPost2010PropOp50
 70
     1
102
RTVSPost2010Prop51ColorIndex
 90
      256
102
RTVSPost2010Prop51ColorRGB
 90
-16777216
102
RTVSPost2010PropOp51
 70
     0
102
RTVSPost2010Prop52
140
1.0
102
RTVSPost2010PropOp52
 70
     0
102
RTVSPost2010Prop53
 90
        2
102
RTVSPost2010PropOp53
 70
     1
102
RTVSPost2010Prop54
  1
strokes_ogs.tif
102
RTVSPost2010PropOp54
 70
     1
102
RTVSPost2010Prop55
280
     0
102
RTVSPost2010PropOp55
 70
     1
102
RTVSPost2010Prop56
140
1.0
102
RTVSPost2010PropOp56
 70
     1
102
RTVSPost2010Prop57
140
1.0
102
RTVSPost2010PropOp57
 70
     1
  0
XRECORD
  5
2C1A4
102
{ACAD_REACTORS
330
2C1A3
102
}
330
2C1A3
100
AcDbXrecord
280
     1
102
RTVSPost2010Prop28
280
     0
102
RTVSPost2010PropOp28
 70
     1
102
RTVSPost2010Prop29
280
     1
102
RTVSPost2010PropOp29
 70
     1
102
RTVSPost2010Prop30
280
     1
102
RTVSPost2010PropOp30
 70
     1
102
RTVSPost2010Prop31
280
     0
102
RTVSPost2010PropOp31
 70
     1
102
RTVSPost2010Prop32
280
     0
102
RTVSPost2010PropOp32
 70
     1
102
RTVSPost2010Prop33
280
     0
102
RTVSPost2010PropOp33
 70
     1
102
RTVSPost2010Prop34
280
     0
102
RTVSPost2010PropOp34
 70
     1
102
RTVSPost2010Prop35
280
     0
102
RTVSPost2010PropOp35
 70
     1
102
RTVSPost2010Prop36
280
     0
102
RTVSPost2010PropOp36
 70
     1
102
RTVSPost2010Prop37
 90
       50
102
RTVSPost2010PropOp37
 70
     1
102
RTVSPost2010Prop38
140
0.0
102
RTVSPost2010PropOp38
 70
     1
102
RTVSPost2010Prop39
140
1.0
102
RTVSPost2010PropOp39
 70
     1
102
RTVSPost2010Prop40
 90
        0
102
RTVSPost2010PropOp40
 70
     1
102
RTVSPost2010Prop41ColorIndex
 90
       18
102
RTVSPost2010Prop41ColorRGB
 90
        0
102
RTVSPost2010PropOp41
 70
     1
102
RTVSPost2010Prop42
 90
       50
102
RTVSPost2010PropOp42
 70
     1
102
RTVSPost2010Prop43
 90
        3
102
RTVSPost2010PropOp43
 70
     1
102
RTVSPost2010Prop44ColorIndex
 90
        5
102
RTVSPost2010Prop44ColorRGB
 90
      255
102
RTVSPost2010PropOp44
 70
     1
102
RTVSPost2010Prop45
280
     0
102
RTVSPost2010PropOp45
 70
     1
102
RTVSPost2010Prop46
 90
       50
102
RTVSPost2010PropOp46
 70
     1
102
RTVSPost2010Prop47
 90
       50
102
RTVSPost2010PropOp47
 70
     1
102
RTVSPost2010Prop48
 90
       50
102
RTVSPost2010PropOp48
 70
     1
102
RTVSPost2010Prop49
280
     0
102
RTVSPost2010PropOp49
 70
     1
102
RTVSPost2010Prop50
 90
       50
102
RTVSPost2010PropOp50
 70
     1
102
RTVSPost2010Prop51ColorIndex
 90
      256
102
RTVSPost2010Prop51ColorRGB
 90
-16777216
102
RTVSPost2010PropOp51
 70
     0
102
RTVSPost2010Prop52
140
1.0
102
RTVSPost2010PropOp52
 70
     0
102
RTVSPost2010Prop53
 90
        2
102
RTVSPost2010PropOp53
 70
     1
102
RTVSPost2010Prop54
  1
strokes_ogs.tif
102
RTVSPost2010PropOp54
 70
     1
102
RTVSPost2010Prop55
280
     0
102
RTVSPost2010PropOp55
 70
     1
102
RTVSPost2010Prop56
140
1.0
102
RTVSPost2010PropOp56
 70
     1
102
RTVSPost2010Prop57
140
1.0
102
RTVSPost2010PropOp57
 70
     1
  0
XRECORD
  5
2C1C4
102
{ACAD_REACTORS
330
2C1C3
102
}
330
2C1C3
100
AcDbXrecord
280
     1
102
RTVSPost2010Prop28
280
     0
102
RTVSPost2010PropOp28
 70
     1
102
RTVSPost2010Prop29
280
     1
102
RTVSPost2010PropOp29
 70
     1
102
RTVSPost2010Prop30
280
     1
102
RTVSPost2010PropOp30
 70
     1
102
RTVSPost2010Prop31
280
     0
102
RTVSPost2010PropOp31
 70
     1
102
RTVSPost2010Prop32
280
     0
102
RTVSPost2010PropOp32
 70
     1
102
RTVSPost2010Prop33
280
     0
102
RTVSPost2010PropOp33
 70
     1
102
RTVSPost2010Prop34
280
     0
102
RTVSPost2010PropOp34
 70
     1
102
RTVSPost2010Prop35
280
     0
102
RTVSPost2010PropOp35
 70
     1
102
RTVSPost2010Prop36
280
     0
102
RTVSPost2010PropOp36
 70
     1
102
RTVSPost2010Prop37
 90
       50
102
RTVSPost2010PropOp37
 70
     1
102
RTVSPost2010Prop38
140
0.0
102
RTVSPost2010PropOp38
 70
     1
102
RTVSPost2010Prop39
140
1.0
102
RTVSPost2010PropOp39
 70
     1
102
RTVSPost2010Prop40
 90
        0
102
RTVSPost2010PropOp40
 70
     1
102
RTVSPost2010Prop41ColorIndex
 90
       18
102
RTVSPost2010Prop41ColorRGB
 90
        0
102
RTVSPost2010PropOp41
 70
     1
102
RTVSPost2010Prop42
 90
       50
102
RTVSPost2010PropOp42
 70
     1
102
RTVSPost2010Prop43
 90
        3
102
RTVSPost2010PropOp43
 70
     1
102
RTVSPost2010Prop44ColorIndex
 90
        5
102
RTVSPost2010Prop44ColorRGB
 90
      255
102
RTVSPost2010PropOp44
 70
     1
102
RTVSPost2010Prop45
280
     0
102
RTVSPost2010PropOp45
 70
     1
102
RTVSPost2010Prop46
 90
       50
102
RTVSPost2010PropOp46
 70
     1
102
RTVSPost2010Prop47
 90
       50
102
RTVSPost2010PropOp47
 70
     1
102
RTVSPost2010Prop48
 90
       50
102
RTVSPost2010PropOp48
 70
     1
102
RTVSPost2010Prop49
280
     0
102
RTVSPost2010PropOp49
 70
     1
102
RTVSPost2010Prop50
 90
       50
102
RTVSPost2010PropOp50
 70
     1
102
RTVSPost2010Prop51ColorIndex
 90
      256
102
RTVSPost2010Prop51ColorRGB
 90
-16777216
102
RTVSPost2010PropOp51
 70
     0
102
RTVSPost2010Prop52
140
1.0
102
RTVSPost2010PropOp52
 70
     0
102
RTVSPost2010Prop53
 90
        2
102
RTVSPost2010PropOp53
 70
     1
102
RTVSPost2010Prop54
  1
strokes_ogs.tif
102
RTVSPost2010PropOp54
 70
     1
102
RTVSPost2010Prop55
280
     0
102
RTVSPost2010PropOp55
 70
     1
102
RTVSPost2010Prop56
140
1.0
102
RTVSPost2010PropOp56
 70
     1
102
RTVSPost2010Prop57
140
1.0
102
RTVSPost2010PropOp57
 70
     1
  0
XRECORD
  5
2C1C2
102
{ACAD_REACTORS
330
2C1C1
102
}
330
2C1C1
100
AcDbXrecord
280
     1
102
RTVSPost2010Prop28
280
     0
102
RTVSPost2010PropOp28
 70
     1
102
RTVSPost2010Prop29
280
     1
102
RTVSPost2010PropOp29
 70
     1
102
RTVSPost2010Prop30
280
     1
102
RTVSPost2010PropOp30
 70
     1
102
RTVSPost2010Prop31
280
     0
102
RTVSPost2010PropOp31
 70
     1
102
RTVSPost2010Prop32
280
     0
102
RTVSPost2010PropOp32
 70
     1
102
RTVSPost2010Prop33
280
     0
102
RTVSPost2010PropOp33
 70
     1
102
RTVSPost2010Prop34
280
     0
102
RTVSPost2010PropOp34
 70
     1
102
RTVSPost2010Prop35
280
     0
102
RTVSPost2010PropOp35
 70
     1
102
RTVSPost2010Prop36
280
     0
102
RTVSPost2010PropOp36
 70
     1
102
RTVSPost2010Prop37
 90
       50
102
RTVSPost2010PropOp37
 70
     1
102
RTVSPost2010Prop38
140
0.0
102
RTVSPost2010PropOp38
 70
     1
102
RTVSPost2010Prop39
140
1.0
102
RTVSPost2010PropOp39
 70
     1
102
RTVSPost2010Prop40
 90
        0
102
RTVSPost2010PropOp40
 70
     1
102
RTVSPost2010Prop41ColorIndex
 90
       18
102
RTVSPost2010Prop41ColorRGB
 90
        0
102
RTVSPost2010PropOp41
 70
     1
102
RTVSPost2010Prop42
 90
       50
102
RTVSPost2010PropOp42
 70
     1
102
RTVSPost2010Prop43
 90
        3
102
RTVSPost2010PropOp43
 70
     1
102
RTVSPost2010Prop44ColorIndex
 90
        5
102
RTVSPost2010Prop44ColorRGB
 90
      255
102
RTVSPost2010PropOp44
 70
     1
102
RTVSPost2010Prop45
280
     0
102
RTVSPost2010PropOp45
 70
     1
102
RTVSPost2010Prop46
 90
       50
102
RTVSPost2010PropOp46
 70
     1
102
RTVSPost2010Prop47
 90
       50
102
RTVSPost2010PropOp47
 70
     1
102
RTVSPost2010Prop48
 90
       50
102
RTVSPost2010PropOp48
 70
     1
102
RTVSPost2010Prop49
280
     0
102
RTVSPost2010PropOp49
 70
     1
102
RTVSPost2010Prop50
 90
       50
102
RTVSPost2010PropOp50
 70
     1
102
RTVSPost2010Prop51ColorIndex
 90
      256
102
RTVSPost2010Prop51ColorRGB
 90
-16777216
102
RTVSPost2010PropOp51
 70
     0
102
RTVSPost2010Prop52
140
1.0
102
RTVSPost2010PropOp52
 70
     0
102
RTVSPost2010Prop53
 90
        2
102
RTVSPost2010PropOp53
 70
     1
102
RTVSPost2010Prop54
  1
strokes_ogs.tif
102
RTVSPost2010PropOp54
 70
     1
102
RTVSPost2010Prop55
280
     0
102
RTVSPost2010PropOp55
 70
     1
102
RTVSPost2010Prop56
140
1.0
102
RTVSPost2010PropOp56
 70
     1
102
RTVSPost2010Prop57
140
1.0
102
RTVSPost2010PropOp57
 70
     1
  0
XRECORD
  5
2C1BC
102
{ACAD_REACTORS
330
2C1BB
102
}
330
2C1BB
100
AcDbXrecord
280
     1
102
RTVSPost2010Prop28
280
     0
102
RTVSPost2010PropOp28
 70
     1
102
RTVSPost2010Prop29
280
     1
102
RTVSPost2010PropOp29
 70
     1
102
RTVSPost2010Prop30
280
     1
102
RTVSPost2010PropOp30
 70
     1
102
RTVSPost2010Prop31
280
     0
102
RTVSPost2010PropOp31
 70
     1
102
RTVSPost2010Prop32
280
     0
102
RTVSPost2010PropOp32
 70
     1
102
RTVSPost2010Prop33
280
     0
102
RTVSPost2010PropOp33
 70
     1
102
RTVSPost2010Prop34
280
     0
102
RTVSPost2010PropOp34
 70
     1
102
RTVSPost2010Prop35
280
     0
102
RTVSPost2010PropOp35
 70
     1
102
RTVSPost2010Prop36
280
     0
102
RTVSPost2010PropOp36
 70
     1
102
RTVSPost2010Prop37
 90
       50
102
RTVSPost2010PropOp37
 70
     1
102
RTVSPost2010Prop38
140
0.0
102
RTVSPost2010PropOp38
 70
     1
102
RTVSPost2010Prop39
140
1.0
102
RTVSPost2010PropOp39
 70
     1
102
RTVSPost2010Prop40
 90
        0
102
RTVSPost2010PropOp40
 70
     1
102
RTVSPost2010Prop41ColorIndex
 90
       18
102
RTVSPost2010Prop41ColorRGB
 90
        0
102
RTVSPost2010PropOp41
 70
     1
102
RTVSPost2010Prop42
 90
       50
102
RTVSPost2010PropOp42
 70
     1
102
RTVSPost2010Prop43
 90
        3
102
RTVSPost2010PropOp43
 70
     1
102
RTVSPost2010Prop44ColorIndex
 90
        5
102
RTVSPost2010Prop44ColorRGB
 90
      255
102
RTVSPost2010PropOp44
 70
     1
102
RTVSPost2010Prop45
280
     0
102
RTVSPost2010PropOp45
 70
     1
102
RTVSPost2010Prop46
 90
       50
102
RTVSPost2010PropOp46
 70
     1
102
RTVSPost2010Prop47
 90
       50
102
RTVSPost2010PropOp47
 70
     1
102
RTVSPost2010Prop48
 90
       50
102
RTVSPost2010PropOp48
 70
     1
102
RTVSPost2010Prop49
280
     0
102
RTVSPost2010PropOp49
 70
     1
102
RTVSPost2010Prop50
 90
       50
102
RTVSPost2010PropOp50
 70
     1
102
RTVSPost2010Prop51ColorIndex
 90
      256
102
RTVSPost2010Prop51ColorRGB
 90
-16777216
102
RTVSPost2010PropOp51
 70
     0
102
RTVSPost2010Prop52
140
1.0
102
RTVSPost2010PropOp52
 70
     0
102
RTVSPost2010Prop53
 90
        2
102
RTVSPost2010PropOp53
 70
     1
102
RTVSPost2010Prop54
  1
strokes_ogs.tif
102
RTVSPost2010PropOp54
 70
     1
102
RTVSPost2010Prop55
280
     0
102
RTVSPost2010PropOp55
 70
     1
102
RTVSPost2010Prop56
140
1.0
102
RTVSPost2010PropOp56
 70
     1
102
RTVSPost2010Prop57
140
1.0
102
RTVSPost2010PropOp57
 70
     1
  0
XRECORD
  5
2C1BE
102
{ACAD_REACTORS
330
2C1BD
102
}
330
2C1BD
100
AcDbXrecord
280
     1
102
RTVSPost2010Prop28
280
     0
102
RTVSPost2010PropOp28
 70
     1
102
RTVSPost2010Prop29
280
     1
102
RTVSPost2010PropOp29
 70
     1
102
RTVSPost2010Prop30
280
     1
102
RTVSPost2010PropOp30
 70
     1
102
RTVSPost2010Prop31
280
     0
102
RTVSPost2010PropOp31
 70
     1
102
RTVSPost2010Prop32
280
     0
102
RTVSPost2010PropOp32
 70
     1
102
RTVSPost2010Prop33
280
     0
102
RTVSPost2010PropOp33
 70
     1
102
RTVSPost2010Prop34
280
     0
102
RTVSPost2010PropOp34
 70
     1
102
RTVSPost2010Prop35
280
     0
102
RTVSPost2010PropOp35
 70
     1
102
RTVSPost2010Prop36
280
     0
102
RTVSPost2010PropOp36
 70
     1
102
RTVSPost2010Prop37
 90
       50
102
RTVSPost2010PropOp37
 70
     1
102
RTVSPost2010Prop38
140
0.0
102
RTVSPost2010PropOp38
 70
     1
102
RTVSPost2010Prop39
140
1.0
102
RTVSPost2010PropOp39
 70
     1
102
RTVSPost2010Prop40
 90
        0
102
RTVSPost2010PropOp40
 70
     1
102
RTVSPost2010Prop41ColorIndex
 90
       18
102
RTVSPost2010Prop41ColorRGB
 90
        0
102
RTVSPost2010PropOp41
 70
     1
102
RTVSPost2010Prop42
 90
       50
102
RTVSPost2010PropOp42
 70
     1
102
RTVSPost2010Prop43
 90
        3
102
RTVSPost2010PropOp43
 70
     1
102
RTVSPost2010Prop44ColorIndex
 90
        5
102
RTVSPost2010Prop44ColorRGB
 90
      255
102
RTVSPost2010PropOp44
 70
     1
102
RTVSPost2010Prop45
280
     0
102
RTVSPost2010PropOp45
 70
     1
102
RTVSPost2010Prop46
 90
       50
102
RTVSPost2010PropOp46
 70
     1
102
RTVSPost2010Prop47
 90
       50
102
RTVSPost2010PropOp47
 70
     1
102
RTVSPost2010Prop48
 90
       50
102
RTVSPost2010PropOp48
 70
     1
102
RTVSPost2010Prop49
280
     0
102
RTVSPost2010PropOp49
 70
     1
102
RTVSPost2010Prop50
 90
       50
102
RTVSPost2010PropOp50
 70
     1
102
RTVSPost2010Prop51ColorIndex
 90
      256
102
RTVSPost2010Prop51ColorRGB
 90
-16777216
102
RTVSPost2010PropOp51
 70
     0
102
RTVSPost2010Prop52
140
1.0
102
RTVSPost2010PropOp52
 70
     0
102
RTVSPost2010Prop53
 90
        2
102
RTVSPost2010PropOp53
 70
     1
102
RTVSPost2010Prop54
  1
strokes_ogs.tif
102
RTVSPost2010PropOp54
 70
     1
102
RTVSPost2010Prop55
280
     0
102
RTVSPost2010PropOp55
 70
     1
102
RTVSPost2010Prop56
140
1.0
102
RTVSPost2010PropOp56
 70
     1
102
RTVSPost2010Prop57
140
1.0
102
RTVSPost2010PropOp57
 70
     1
  0
XRECORD
  5
2C1AA
102
{ACAD_REACTORS
330
2C1A9
102
}
330
2C1A9
100
AcDbXrecord
280
     1
102
RTVSPost2010Prop28
280
     0
102
RTVSPost2010PropOp28
 70
     1
102
RTVSPost2010Prop29
280
     1
102
RTVSPost2010PropOp29
 70
     1
102
RTVSPost2010Prop30
280
     1
102
RTVSPost2010PropOp30
 70
     1
102
RTVSPost2010Prop31
280
     0
102
RTVSPost2010PropOp31
 70
     1
102
RTVSPost2010Prop32
280
     0
102
RTVSPost2010PropOp32
 70
     1
102
RTVSPost2010Prop33
280
     0
102
RTVSPost2010PropOp33
 70
     1
102
RTVSPost2010Prop34
280
     0
102
RTVSPost2010PropOp34
 70
     1
102
RTVSPost2010Prop35
280
     0
102
RTVSPost2010PropOp35
 70
     1
102
RTVSPost2010Prop36
280
     0
102
RTVSPost2010PropOp36
 70
     1
102
RTVSPost2010Prop37
 90
       50
102
RTVSPost2010PropOp37
 70
     1
102
RTVSPost2010Prop38
140
0.0
102
RTVSPost2010PropOp38
 70
     1
102
RTVSPost2010Prop39
140
1.0
102
RTVSPost2010PropOp39
 70
     1
102
RTVSPost2010Prop40
 90
        0
102
RTVSPost2010PropOp40
 70
     1
102
RTVSPost2010Prop41ColorIndex
 90
       18
102
RTVSPost2010Prop41ColorRGB
 90
        0
102
RTVSPost2010PropOp41
 70
     1
102
RTVSPost2010Prop42
 90
       50
102
RTVSPost2010PropOp42
 70
     1
102
RTVSPost2010Prop43
 90
        3
102
RTVSPost2010PropOp43
 70
     1
102
RTVSPost2010Prop44ColorIndex
 90
        5
102
RTVSPost2010Prop44ColorRGB
 90
      255
102
RTVSPost2010PropOp44
 70
     1
102
RTVSPost2010Prop45
280
     0
102
RTVSPost2010PropOp45
 70
     1
102
RTVSPost2010Prop46
 90
       50
102
RTVSPost2010PropOp46
 70
     1
102
RTVSPost2010Prop47
 90
       50
102
RTVSPost2010PropOp47
 70
     1
102
RTVSPost2010Prop48
 90
       50
102
RTVSPost2010PropOp48
 70
     1
102
RTVSPost2010Prop49
280
     0
102
RTVSPost2010PropOp49
 70
     1
102
RTVSPost2010Prop50
 90
       50
102
RTVSPost2010PropOp50
 70
     1
102
RTVSPost2010Prop51ColorIndex
 90
      256
102
RTVSPost2010Prop51ColorRGB
 90
-16777216
102
RTVSPost2010PropOp51
 70
     0
102
RTVSPost2010Prop52
140
1.0
102
RTVSPost2010PropOp52
 70
     0
102
RTVSPost2010Prop53
 90
        2
102
RTVSPost2010PropOp53
 70
     1
102
RTVSPost2010Prop54
  1
strokes_ogs.tif
102
RTVSPost2010PropOp54
 70
     1
102
RTVSPost2010Prop55
280
     0
102
RTVSPost2010PropOp55
 70
     1
102
RTVSPost2010Prop56
140
1.0
102
RTVSPost2010PropOp56
 70
     1
102
RTVSPost2010Prop57
140
1.0
102
RTVSPost2010PropOp57
 70
     1
  0
XRECORD
  5
2C1B8
102
{ACAD_REACTORS
330
2C1B7
102
}
330
2C1B7
100
AcDbXrecord
280
     1
102
RTVSPost2010Prop28
280
     0
102
RTVSPost2010PropOp28
 70
     1
102
RTVSPost2010Prop29
280
     1
102
RTVSPost2010PropOp29
 70
     1
102
RTVSPost2010Prop30
280
     1
102
RTVSPost2010PropOp30
 70
     1
102
RTVSPost2010Prop31
280
     0
102
RTVSPost2010PropOp31
 70
     1
102
RTVSPost2010Prop32
280
     0
102
RTVSPost2010PropOp32
 70
     1
102
RTVSPost2010Prop33
280
     0
102
RTVSPost2010PropOp33
 70
     1
102
RTVSPost2010Prop34
280
     0
102
RTVSPost2010PropOp34
 70
     1
102
RTVSPost2010Prop35
280
     0
102
RTVSPost2010PropOp35
 70
     1
102
RTVSPost2010Prop36
280
     0
102
RTVSPost2010PropOp36
 70
     1
102
RTVSPost2010Prop37
 90
       50
102
RTVSPost2010PropOp37
 70
     1
102
RTVSPost2010Prop38
140
0.0
102
RTVSPost2010PropOp38
 70
     1
102
RTVSPost2010Prop39
140
1.0
102
RTVSPost2010PropOp39
 70
     1
102
RTVSPost2010Prop40
 90
        0
102
RTVSPost2010PropOp40
 70
     1
102
RTVSPost2010Prop41ColorIndex
 90
       18
102
RTVSPost2010Prop41ColorRGB
 90
        0
102
RTVSPost2010PropOp41
 70
     1
102
RTVSPost2010Prop42
 90
       50
102
RTVSPost2010PropOp42
 70
     1
102
RTVSPost2010Prop43
 90
        3
102
RTVSPost2010PropOp43
 70
     1
102
RTVSPost2010Prop44ColorIndex
 90
        5
102
RTVSPost2010Prop44ColorRGB
 90
      255
102
RTVSPost2010PropOp44
 70
     1
102
RTVSPost2010Prop45
280
     0
102
RTVSPost2010PropOp45
 70
     1
102
RTVSPost2010Prop46
 90
       50
102
RTVSPost2010PropOp46
 70
     1
102
RTVSPost2010Prop47
 90
       50
102
RTVSPost2010PropOp47
 70
     1
102
RTVSPost2010Prop48
 90
       50
102
RTVSPost2010PropOp48
 70
     1
102
RTVSPost2010Prop49
280
     0
102
RTVSPost2010PropOp49
 70
     1
102
RTVSPost2010Prop50
 90
       50
102
RTVSPost2010PropOp50
 70
     1
102
RTVSPost2010Prop51ColorIndex
 90
      256
102
RTVSPost2010Prop51ColorRGB
 90
-16777216
102
RTVSPost2010PropOp51
 70
     0
102
RTVSPost2010Prop52
140
1.0
102
RTVSPost2010PropOp52
 70
     0
102
RTVSPost2010Prop53
 90
        2
102
RTVSPost2010PropOp53
 70
     1
102
RTVSPost2010Prop54
  1
strokes_ogs.tif
102
RTVSPost2010PropOp54
 70
     1
102
RTVSPost2010Prop55
280
     0
102
RTVSPost2010PropOp55
 70
     1
102
RTVSPost2010Prop56
140
1.0
102
RTVSPost2010PropOp56
 70
     1
102
RTVSPost2010Prop57
140
1.0
102
RTVSPost2010PropOp57
 70
     1
  0
XRECORD
  5
2C1C0
102
{ACAD_REACTORS
330
2C1BF
102
}
330
2C1BF
100
AcDbXrecord
280
     1
102
RTVSPost2010Prop28
280
     0
102
RTVSPost2010PropOp28
 70
     1
102
RTVSPost2010Prop29
280
     1
102
RTVSPost2010PropOp29
 70
     1
102
RTVSPost2010Prop30
280
     1
102
RTVSPost2010PropOp30
 70
     1
102
RTVSPost2010Prop31
280
     0
102
RTVSPost2010PropOp31
 70
     1
102
RTVSPost2010Prop32
280
     0
102
RTVSPost2010PropOp32
 70
     1
102
RTVSPost2010Prop33
280
     0
102
RTVSPost2010PropOp33
 70
     1
102
RTVSPost2010Prop34
280
     0
102
RTVSPost2010PropOp34
 70
     1
102
RTVSPost2010Prop35
280
     0
102
RTVSPost2010PropOp35
 70
     1
102
RTVSPost2010Prop36
280
     0
102
RTVSPost2010PropOp36
 70
     1
102
RTVSPost2010Prop37
 90
       50
102
RTVSPost2010PropOp37
 70
     1
102
RTVSPost2010Prop38
140
0.0
102
RTVSPost2010PropOp38
 70
     1
102
RTVSPost2010Prop39
140
1.0
102
RTVSPost2010PropOp39
 70
     1
102
RTVSPost2010Prop40
 90
        0
102
RTVSPost2010PropOp40
 70
     1
102
RTVSPost2010Prop41ColorIndex
 90
       18
102
RTVSPost2010Prop41ColorRGB
 90
        0
102
RTVSPost2010PropOp41
 70
     1
102
RTVSPost2010Prop42
 90
       50
102
RTVSPost2010PropOp42
 70
     1
102
RTVSPost2010Prop43
 90
        3
102
RTVSPost2010PropOp43
 70
     1
102
RTVSPost2010Prop44ColorIndex
 90
        5
102
RTVSPost2010Prop44ColorRGB
 90
      255
102
RTVSPost2010PropOp44
 70
     1
102
RTVSPost2010Prop45
280
     0
102
RTVSPost2010PropOp45
 70
     1
102
RTVSPost2010Prop46
 90
       50
102
RTVSPost2010PropOp46
 70
     1
102
RTVSPost2010Prop47
 90
       50
102
RTVSPost2010PropOp47
 70
     1
102
RTVSPost2010Prop48
 90
       50
102
RTVSPost2010PropOp48
 70
     1
102
RTVSPost2010Prop49
280
     0
102
RTVSPost2010PropOp49
 70
     1
102
RTVSPost2010Prop50
 90
       50
102
RTVSPost2010PropOp50
 70
     1
102
RTVSPost2010Prop51ColorIndex
 90
      256
102
RTVSPost2010Prop51ColorRGB
 90
-16777216
102
RTVSPost2010PropOp51
 70
     0
102
RTVSPost2010Prop52
140
1.0
102
RTVSPost2010PropOp52
 70
     0
102
RTVSPost2010Prop53
 90
        2
102
RTVSPost2010PropOp53
 70
     1
102
RTVSPost2010Prop54
  1
strokes_ogs.tif
102
RTVSPost2010PropOp54
 70
     1
102
RTVSPost2010Prop55
280
     0
102
RTVSPost2010PropOp55
 70
     1
102
RTVSPost2010Prop56
140
1.0
102
RTVSPost2010PropOp56
 70
     1
102
RTVSPost2010Prop57
140
1.0
102
RTVSPost2010PropOp57
 70
     1
  0
ENDSEC
  0
EOF
