  0
SECTION
  2
HEADER
  9
$ACADVER
  1
AC1024
  9
$ACADMAINTVER
 70
   226
  9
$DWGCODEPAGE
  3
ANSI_1252
  9
$LASTSAVEDBY
  1
User
  9
$INSBASE
 10
0.0
 20
0.0
 30
0.0
  9
$EXTMIN
 10
27.01285187524689
 20
-0.754839144772717
 30
-0.0015258207003583
  9
$EXTMAX
 10
113.4793444603898
 20
111.0427614293353
 30
0.0000000349246037
  9
$LIMMIN
 10
-4.44220704448719
 20
-5.360222120439658
  9
$LIMMAX
 10
91.39604570949506
 20
115.4637810443593
  9
$ORTHOMODE
 70
     0
  9
$REGENMODE
 70
     1
  9
$FILLMODE
 70
     1
  9
$QTEXTMODE
 70
     0
  9
$MIRRTEXT
 70
     0
  9
$LTSCALE
 40
1.0
  9
$ATTMODE
 70
     1
  9
$TEXTSIZE
 40
1.0
  9
$TRACEWID
 40
0.05
  9
$TEXTSTYLE
  7
Logix
  9
$CLAYER
  8
Dim
  9
$CELTYPE
  6
ByLayer
  9
$CECOLOR
 62
   256
  9
$CELTSCALE
 40
1.0
  9
$DISPSILH
 70
     0
  9
$DIMSCALE
 40
1.0
  9
$DIMASZ
 40
1.25
  9
$DIMEXO
 40
0.5
  9
$DIMDLI
 40
1.0
  9
$DIMRND
 40
0.0
  9
$DIMDLE
 40
0.0
  9
$DIMEXE
 40
0.5
  9
$DIMTP
 40
0.0
  9
$DIMTM
 40
0.000000001
  9
$DIMTXT
 40
1.0
  9
$DIMCEN
 40
0.5
  9
$DIMTSZ
 40
0.0
  9
$DIMTOL
 70
     0
  9
$DIMLIM
 70
     0
  9
$DIMTIH
 70
     0
  9
$DIMTOH
 70
     0
  9
$DIMSE1
 70
     0
  9
$DIMSE2
 70
     0
  9
$DIMTAD
 70
     0
  9
$DIMZIN
 70
     0
  9
$DIMBLK
  1
ArchTick
  9
$DIMASO
 70
     1
  9
$DIMSHO
 70
     1
  9
$DIMPOST
  1
"\X
  9
$DIMAPOST
  1
mm
  9
$DIMALT
 70
     1
  9
$DIMALTD
 70
     0
  9
$DIMALTF
 40
25.4
  9
$DIMLFAC
 40
1.0
  9
$DIMTOFL
 70
     0
  9
$DIMTVP
 40
0.0
  9
$DIMTIX
 70
     0
  9
$DIMSOXD
 70
     0
  9
$DIMSAH
 70
     0
  9
$DIMBLK1
  1

  9
$DIMBLK2
  1

  9
$DIMSTYLE
  2
FBR
  9
$DIMCLRD
 70
     0
  9
$DIMCLRE
 70
     0
  9
$DIMCLRT
 70
     0
  9
$DIMTFAC
 40
1.0
  9
$DIMGAP
 40
0.3
  9
$DIMJUST
 70
     0
  9
$DIMSD1
 70
     0
  9
$DIMSD2
 70
     0
  9
$DIMTOLJ
 70
     1
  9
$DIMTZIN
 70
     0
  9
$DIMALTZ
 70
     0
  9
$DIMALTTZ
 70
     0
  9
$DIMUPT
 70
     0
  9
$DIMDEC
 70
     4
  9
$DIMTDEC
 70
     4
  9
$DIMALTU
 70
     2
  9
$DIMALTTD
 70
     0
  9
$DIMTXSTY
  7
Logix
  9
$DIMAUNIT
 70
     0
  9
$DIMADEC
 70
     0
  9
$DIMALTRND
 40
0.0
  9
$DIMAZIN
 70
     0
  9
$DIMDSEP
 70
    46
  9
$DIMATFIT
 70
     3
  9
$DIMFRAC
 70
     0
  9
$DIMLDRBLK
  1

  9
$DIMLUNIT
 70
     5
  9
$DIMLWD
 70
    -2
  9
$DIMLWE
 70
    -2
  9
$DIMTMOVE
 70
     2
  9
$DIMFXL
 40
0.5
  9
$DIMFXLON
 70
     0
  9
$DIMJOGANG
 40
0.7853981633974483
  9
$DIMTFILL
 70
     0
  9
$DIMTFILLCLR
 70
     0
  9
$DIMARCSYM
 70
     0
  9
$DIMLTYPE
  6

  9
$DIMLTEX1
  6

  9
$DIMLTEX2
  6

  9
$DIMTXTDIRECTION
 70
     0
  9
$LUNITS
 70
     2
  9
$LUPREC
 70
     4
  9
$SKETCHINC
 40
0.1
  9
$FILLETRAD
 40
0.0
  9
$AUNITS
 70
     0
  9
$AUPREC
 70
     0
  9
$MENU
  1
.
  9
$ELEVATION
 40
0.0
  9
$PELEVATION
 40
0.0
  9
$THICKNESS
 40
0.0
  9
$LIMCHECK
 70
     0
  9
$CHAMFERA
 40
0.0
  9
$CHAMFERB
 40
0.0
  9
$CHAMFERC
 40
0.0
  9
$CHAMFERD
 40
0.0
  9
$SKPOLY
 70
     0
  9
$TDCREATE
 40
2453607.697627315
  9
$TDUCREATE
 40
2453607.989301563
  9
$TDUPDATE
 40
2459662.963668982
  9
$TDUUPDATE
 40
2459663.255335648
  9
$TDINDWG
 40
1.8321018287
  9
$TDUSRTIMER
 40
1.8321018287
  9
$USRTIMER
 70
     1
  9
$ANGBASE
 50
0.0
  9
$ANGDIR
 70
     0
  9
$PDMODE
 70
     0
  9
$PDSIZE
 40
0.0
  9
$PLINEWID
 40
0.0
  9
$SPLFRAME
 70
     0
  9
$SPLINETYPE
 70
     6
  9
$SPLINESEGS
 70
     8
  9
$HANDSEED
  5
2B0ED
  9
$SURFTAB1
 70
     6
  9
$SURFTAB2
 70
     6
  9
$SURFTYPE
 70
     6
  9
$SURFU
 70
     6
  9
$SURFV
 70
     6
  9
$UCSBASE
  2

  9
$UCSNAME
  2

  9
$UCSORG
 10
0.0
 20
0.0
 30
0.0
  9
$UCSXDIR
 10
1.0
 20
0.0
 30
0.0
  9
$UCSYDIR
 10
0.0
 20
1.0
 30
0.0
  9
$UCSORTHOREF
  2

  9
$UCSORTHOVIEW
 70
     0
  9
$UCSORGTOP
 10
0.0
 20
0.0
 30
0.0
  9
$UCSORGBOTTOM
 10
0.0
 20
0.0
 30
0.0
  9
$UCSORGLEFT
 10
0.0
 20
0.0
 30
0.0
  9
$UCSORGRIGHT
 10
0.0
 20
0.0
 30
0.0
  9
$UCSORGFRONT
 10
0.0
 20
0.0
 30
0.0
  9
$UCSORGBACK
 10
0.0
 20
0.0
 30
0.0
  9
$PUCSBASE
  2

  9
$PUCSNAME
  2

  9
$PUCSORG
 10
0.0
 20
0.0
 30
0.0
  9
$PUCSXDIR
 10
1.0
 20
0.0
 30
0.0
  9
$PUCSYDIR
 10
0.0
 20
1.0
 30
0.0
  9
$PUCSORTHOREF
  2

  9
$PUCSORTHOVIEW
 70
     0
  9
$PUCSORGTOP
 10
0.0
 20
0.0
 30
0.0
  9
$PUCSORGBOTTOM
 10
0.0
 20
0.0
 30
0.0
  9
$PUCSORGLEFT
 10
0.0
 20
0.0
 30
0.0
  9
$PUCSORGRIGHT
 10
0.0
 20
0.0
 30
0.0
  9
$PUCSORGFRONT
 10
0.0
 20
0.0
 30
0.0
  9
$PUCSORGBACK
 10
0.0
 20
0.0
 30
0.0
  9
$USERI1
 70
     0
  9
$USERI2
 70
     0
  9
$USERI3
 70
     0
  9
$USERI4
 70
     0
  9
$USERI5
 70
     0
  9
$USERR1
 40
0.0
  9
$USERR2
 40
0.0
  9
$USERR3
 40
0.0
  9
$USERR4
 40
0.0
  9
$USERR5
 40
0.0
  9
$WORLDVIEW
 70
     1
  9
$SHADEDGE
 70
     3
  9
$SHADEDIF
 70
    70
  9
$TILEMODE
 70
     1
  9
$MAXACTVP
 70
    64
  9
$PINSBASE
 10
0.0
 20
0.0
 30
0.0
  9
$PLIMCHECK
 70
     0
  9
$PEXTMIN
 10
1.049999952316284
 20
0.7999999523162842
 30
0.0
  9
$PEXTMAX
 10
9.449999570846555
 20
7.199999570846556
 30
0.0
  9
$PLIMMIN
 10
-0.2500002402958907
 20
-0.2499999962453767
  9
$PLIMMAX
 10
10.74999951940821
 20
8.249999763458731
  9
$UNITMODE
 70
     0
  9
$VISRETAIN
 70
     1
  9
$PLINEGEN
 70
     0
  9
$PSLTSCALE
 70
     1
  9
$TREEDEPTH
 70
  3020
  9
$CMLSTYLE
  2
Standard
  9
$CMLJUST
 70
     0
  9
$CMLSCALE
 40
1.0
  9
$PROXYGRAPHICS
 70
     1
  9
$MEASUREMENT
 70
     0
  9
$CELWEIGHT
370
    -1
  9
$ENDCAPS
280
     0
  9
$JOINSTYLE
280
     0
  9
$LWDISPLAY
290
     0
  9
$INSUNITS
 70
     1
  9
$HYPERLINKBASE
  1

  9
$STYLESHEET
  1
acad.ctb
  9
$XEDIT
290
     1
  9
$CEPSNTYPE
380
     0
  9
$PSTYLEMODE
290
     1
  9
$FINGERPRINTGUID
  2
{C454CA31-2497-4A48-9A62-B3C3862ED870}
  9
$VERSIONGUID
  2
{006C205B-5380-3546-97CA-946AA22A0760}
  9
$EXTNAMES
290
     1
  9
$PSVPSCALE
 40
0.0
  9
$OLESTARTUP
290
     0
  9
$SORTENTS
280
   127
  9
$INDEXCTL
280
     0
  9
$HIDETEXT
280
     1
  9
$XCLIPFRAME
280
     0
  9
$HALOGAP
280
     0
  9
$OBSCOLOR
 70
   257
  9
$OBSLTYPE
280
     0
  9
$INTERSECTIONDISPLAY
280
     0
  9
$INTERSECTIONCOLOR
 70
   257
  9
$DIMASSOC
280
     2
  9
$PROJECTNAME
  1

  9
$CAMERADISPLAY
290
     0
  9
$LENSLENGTH
 40
50.0
  9
$CAMERAHEIGHT
 40
0.0
  9
$STEPSPERSEC
 40
2.0
  9
$STEPSIZE
 40
6.0
  9
$3DDWFPREC
 40
2.0
  9
$PSOLWIDTH
 40
0.25
  9
$PSOLHEIGHT
 40
4.0
  9
$LOFTANG1
 40
1.570796326794896
  9
$LOFTANG2
 40
1.570796326794896
  9
$LOFTMAG1
 40
0.0
  9
$LOFTMAG2
 40
0.0
  9
$LOFTPARAM
 70
     7
  9
$LOFTNORMALS
280
     1
  9
$LATITUDE
 40
37.795
  9
$LONGITUDE
 40
-122.394
  9
$NORTHDIRECTION
 40
0.0
  9
$TIMEZONE
 70
 -8000
  9
$LIGHTGLYPHDISPLAY
280
     1
  9
$TILEMODELIGHTSYNCH
280
     1
  9
$CMATERIAL
347
2AF0F
  9
$SOLIDHIST
280
     1
  9
$SHOWHIST
280
     1
  9
$DWFFRAME
280
     2
  9
$DGNFRAME
280
     0
  9
$REALWORLDSCALE
290
     1
  9
$INTERFERECOLOR
 62
     1
  9
$INTERFEREOBJVS
345
2AF31
  9
$INTERFEREVPVS
346
2B01B
  9
$CSHADOW
280
     0
  9
$SHADOWPLANELOCATION
 40
0.0
  0
ENDSEC
  0
SECTION
  2
CLASSES
  0
CLASS
  1
ACDBDICTIONARYWDFLT
  2
AcDbDictionaryWithDefault
  3
ObjectDBX Classes
 90
        0
 91
        1
280
     0
281
     0
  0
CLASS
  1
DICTIONARYVAR
  2
AcDbDictionaryVar
  3
ObjectDBX Classes
 90
        0
 91
       12
280
     0
281
     0
  0
CLASS
  1
TABLESTYLE
  2
AcDbTableStyle
  3
ObjectDBX Classes
 90
     4095
 91
        3
280
     0
281
     0
  0
CLASS
  1
DIMASSOC
  2
AcDbDimAssoc
  3
"AcDbDimAssoc|Product Desc:     AcDim ARX App For Dimension|Company:          Autodesk, Inc.|WEB Address:      www.autodesk.com"
 90
        0
 91
        4
280
     0
281
     0
  0
CLASS
  1
SORTENTSTABLE
  2
AcDbSortentsTable
  3
ObjectDBX Classes
 90
        0
 91
        2
280
     0
281
     0
  0
CLASS
  1
ACAD_TABLE
  2
AcDbTable
  3
ObjectDBX Classes
 90
     1025
 91
        0
280
     0
281
     1
  0
CLASS
  1
FIELD
  2
AcDbField
  3
ObjectDBX Classes
 90
     1152
 91
        0
280
     0
281
     0
  0
CLASS
  1
FIELDLIST
  2
AcDbFieldList
  3
ObjectDBX Classes
 90
     1152
 91
        1
280
     0
281
     0
  0
CLASS
  1
MATERIAL
  2
AcDbMaterial
  3
ObjectDBX Classes
 90
     1153
 91
        3
280
     0
281
     0
  0
CLASS
  1
VISUALSTYLE
  2
AcDbVisualStyle
  3
ObjectDBX Classes
 90
     4095
 91
       26
280
     0
281
     0
  0
CLASS
  1
SCALE
  2
AcDbScale
  3
ObjectDBX Classes
 90
     1153
 91
       33
280
     0
281
     0
  0
CLASS
  1
MLEADERSTYLE
  2
AcDbMLeaderStyle
  3
ACDB_MLEADERSTYLE_CLASS
 90
     4095
 91
        1
280
     0
281
     0
  0
CLASS
  1
ACAD_EVALUATION_GRAPH
  2
AcDbEvalGraph
  3
ObjectDBX Classes
 90
     1153
 91
        0
280
     0
281
     0
  0
CLASS
  1
ACAECUSTOBJ
  2
AcAeEditorObj
  3
AcAeEditorObj
 90
     1024
 91
        0
280
     0
281
     0
  0
CLASS
  1
ACDB_DYNAMICBLOCKPURGEPREVENTER_VERSION
  2
AcDbDynamicBlockPurgePreventer
  3
ObjectDBX Classes
 90
     1153
 91
        0
280
     0
281
     0
  0
CLASS
  1
CELLSTYLEMAP
  2
AcDbCellStyleMap
  3
ObjectDBX Classes
 90
     1152
 91
        3
280
     0
281
     0
  0
CLASS
  1
ACDBSECTIONVIEWSTYLE
  2
AcDbSectionViewStyle
  3
ObjectDBX Classes
 90
     1025
 91
        1
280
     0
281
     0
  0
CLASS
  1
ACDBDETAILVIEWSTYLE
  2
AcDbDetailViewStyle
  3
ObjectDBX Classes
 90
     1025
 91
        1
280
     0
281
     0
  0
CLASS
  1
ACDB_MTEXTOBJECTCONTEXTDATA_CLASS
  2
AcDbMTextObjectContextData
  3
ObjectDBX Classes
 90
     1153
 91
        1
280
     0
281
     0
  0
ENDSEC
  0
SECTION
  2
TABLES
  0
TABLE
  2
VPORT
  5
8
330
0
100
AcDbSymbolTable
 70
     1
  0
VPORT
  5
2AF00
330
8
100
AcDbSymbolTableRecord
100
AcDbViewportTableRecord
  2
*Active
 70
     0
 10
0.0
 20
0.0
 11
1.0
 21
1.0
 12
70.24609816781837
 22
55.1439611422813
 13
0.0
 23
0.0
 14
0.5
 24
0.5
 15
0.5
 25
0.5
 16
0.0
 26
0.0
 36
1.0
 17
0.0
 27
0.0
 37
0.0
 40
77.79225625627792
 41
3.005405405405405
 42
50.0
 43
0.0
 44
0.0
 50
0.0
 51
0.0
 71
     0
 72
  1000
 73
     1
 74
     3
 75
     0
 76
     0
 77
     0
 78
     0
281
     0
 65
     1
110
0.0
120
0.0
130
0.0
111
1.0
121
0.0
131
0.0
112
0.0
122
1.0
132
0.0
 79
     0
146
0.0
348
2AF2D
 60
     3
 61
     5
292
     1
282
     1
141
0.0
142
0.0
 63
   250
421
  3355443
1001
ACAD_NAV_VCDISPLAY
1070
     3
  0
ENDTAB
  0
TABLE
  2
LTYPE
  5
5
330
0
100
AcDbSymbolTable
 70
     4
  0
LTYPE
  5
14
330
5
100
AcDbSymbolTableRecord
100
AcDbLinetypeTableRecord
  2
ByBlock
 70
     0
  3

 72
    65
 73
     0
 40
0.0
  0
LTYPE
  5
15
330
5
100
AcDbSymbolTableRecord
100
AcDbLinetypeTableRecord
  2
ByLayer
 70
     0
  3

 72
    65
 73
     0
 40
0.0
  0
LTYPE
  5
16
330
5
100
AcDbSymbolTableRecord
100
AcDbLinetypeTableRecord
  2
Continuous
 70
     0
  3
Solid line
 72
    65
 73
     0
 40
0.0
  0
LTYPE
  5
7BE
330
5
100
AcDbSymbolTableRecord
100
AcDbLinetypeTableRecord
  2
HIDDEN2
 70
     0
  3
Hidden (.5x) _ _ _ _ _ _ _ _ _ _ _ _ _ _ _ _ _
 72
    65
 73
     2
 40
0.1875
 49
0.125
 74
     0
 49
-0.0625
 74
     0
  0
LTYPE
  5
144B
330
5
100
AcDbSymbolTableRecord
100
AcDbLinetypeTableRecord
  2
HIDDEN
 70
     0
  3
Hidden __ __ __ __ __ __ __ __ __ __ __ __ __ _
 72
    65
 73
     2
 40
0.375
 49
0.25
 74
     0
 49
-0.125
 74
     0
  0
LTYPE
  5
1BDD1
330
5
100
AcDbSymbolTableRecord
100
AcDbLinetypeTableRecord
  2
HIDDENX2
 70
     0
  3
Hidden (2x) ____ ____ ____ ____ ____ ____ ____
 72
    65
 73
     2
 40
0.75
 49
0.5
 74
     0
 49
-0.25
 74
     0
  0
ENDTAB
  0
TABLE
  2
LAYER
  5
2
102
{ACAD_XDICTIONARY
360
8D
102
}
330
0
100
AcDbSymbolTable
 70
    29
  0
LAYER
  5
10
102
{ACAD_XDICTIONARY
360
2AF90
102
}
330
2
100
AcDbSymbolTableRecord
100
AcDbLayerTableRecord
  2
0
 70
     0
 62
     7
  6
Continuous
370
    -3
390
F
347
2AF1F
  0
LAYER
  5
8B
102
{ACAD_XDICTIONARY
360
2AF92
102
}
330
2
100
AcDbSymbolTableRecord
100
AcDbLayerTableRecord
  2
Block
 70
     0
 62
     7
  6
Continuous
370
    30
390
F
347
2AF1F
1001
AcAecLayerStandard
1000

1000

  0
LAYER
  5
770
102
{ACAD_XDICTIONARY
360
2AF94
102
}
330
2
100
AcDbSymbolTableRecord
100
AcDbLayerTableRecord
  2
Web
 70
     0
 62
     6
  6
Continuous
370
    -3
390
F
347
2AF1F
1001
AcAecLayerStandard
1000

1000

  0
LAYER
  5
13AF
102
{ACAD_XDICTIONARY
360
2AF96
102
}
330
2
100
AcDbSymbolTableRecord
100
AcDbLayerTableRecord
  2
Dim
 70
     0
 62
     7
  6
Continuous
370
    25
390
F
347
2AF1F
1001
AcAecLayerStandard
1000

1000

  0
LAYER
  5
13CA
330
2
100
AcDbSymbolTableRecord
100
AcDbLayerTableRecord
  2
DEFPOINTS
 70
     0
 62
     7
  6
Continuous
290
     0
370
    -3
390
F
347
2AF1F
  0
LAYER
  5
32CE
102
{ACAD_XDICTIONARY
360
2AF98
102
}
330
2
100
AcDbSymbolTableRecord
100
AcDbLayerTableRecord
  2
Text
 70
     0
 62
     7
  6
Continuous
370
    -3
390
F
347
2AF1F
1001
AcAecLayerStandard
1000

1000

  0
LAYER
  5
11F4A
102
{ACAD_XDICTIONARY
360
2AF9A
102
}
330
2
100
AcDbSymbolTableRecord
100
AcDbLayerTableRecord
  2
Conc
 70
     0
 62
   251
  6
Continuous
370
    -3
390
F
347
2AF1F
1001
AcAecLayerStandard
1000

1000

  0
LAYER
  5
121C7
102
{ACAD_XDICTIONARY
360
2AF9C
102
}
330
2
100
AcDbSymbolTableRecord
100
AcDbLayerTableRecord
  2
Drywall
 70
     0
 62
     7
  6
Continuous
370
    -3
390
F
347
2AF1F
1001
AcAecLayerStandard
1000

1000

  0
LAYER
  5
121CA
102
{ACAD_XDICTIONARY
360
2AF9E
102
}
330
2
100
AcDbSymbolTableRecord
100
AcDbLayerTableRecord
  2
ExtWood
 70
     0
 62
    11
  6
Continuous
370
    -3
390
F
347
2AF1F
1001
AcAecLayerStandard
1000

1000

  0
LAYER
  5
121CF
102
{ACAD_XDICTIONARY
360
2AFA0
102
}
330
2
100
AcDbSymbolTableRecord
100
AcDbLayerTableRecord
  2
Sills
 70
     0
 62
    40
  6
Continuous
370
    -3
390
F
347
2AF1F
1001
AcAecLayerStandard
1000

1000

  0
LAYER
  5
121E2
102
{ACAD_XDICTIONARY
360
2AFA2
102
}
330
2
100
AcDbSymbolTableRecord
100
AcDbLayerTableRecord
  2
WoodJoistStud
 70
     0
 62
    46
  6
Continuous
370
    25
390
F
347
2AF1F
1001
AcAecLayerStandard
1000

1000

  0
LAYER
  5
121F7
102
{ACAD_XDICTIONARY
360
2AFA4
102
}
330
2
100
AcDbSymbolTableRecord
100
AcDbLayerTableRecord
  2
Siding
 70
     0
 62
     5
  6
Continuous
370
    -3
390
F
347
2AF1F
1001
AcAecLayerStandard
1000

1000

  0
LAYER
  5
12238
102
{ACAD_XDICTIONARY
360
2AFA6
102
}
330
2
100
AcDbSymbolTableRecord
100
AcDbLayerTableRecord
  2
SteelBars
 70
     0
 62
     5
  6
Continuous
370
    -3
390
F
347
2AF1F
1001
AcAecLayerStandard
1000

1000

  0
LAYER
  5
12273
102
{ACAD_XDICTIONARY
360
2AFA8
102
}
330
2
100
AcDbSymbolTableRecord
100
AcDbLayerTableRecord
  2
SOIL
 70
     0
 62
     3
  6
Continuous
370
    -3
390
F
347
2AF1F
  0
LAYER
  5
1233D
102
{ACAD_XDICTIONARY
360
2AFAA
102
}
330
2
100
AcDbSymbolTableRecord
100
AcDbLayerTableRecord
  2
Membranes
 70
     0
 62
     1
  6
Continuous
370
    -3
390
F
347
2AF1F
1001
AcAecLayerStandard
1000

1000

  0
LAYER
  5
1958B
102
{ACAD_XDICTIONARY
360
2AFAC
102
}
330
2
100
AcDbSymbolTableRecord
100
AcDbLayerTableRecord
  2
CONCRETE
 70
     0
 62
     7
  6
Continuous
370
    -3
390
F
347
2AF1F
  0
LAYER
  5
197A1
102
{ACAD_XDICTIONARY
360
2AFAE
102
}
330
2
100
AcDbSymbolTableRecord
100
AcDbLayerTableRecord
  2
ASHADE
 70
     0
 62
     7
  6
Continuous
370
    -3
390
F
347
2AF1F
  0
LAYER
  5
197C9
102
{ACAD_XDICTIONARY
360
2AFB0
102
}
330
2
100
AcDbSymbolTableRecord
100
AcDbLayerTableRecord
  2
DIMENSION
 70
     0
 62
     7
  6
Continuous
370
    -3
390
F
347
2AF1F
  0
LAYER
  5
1A74F
102
{ACAD_XDICTIONARY
360
2AFB2
102
}
330
2
100
AcDbSymbolTableRecord
100
AcDbLayerTableRecord
  2
Gutter
 70
     0
 62
     5
  6
Continuous
370
    -3
390
F
347
2AF1F
1001
AcAecLayerStandard
1000

1000

  0
LAYER
  5
1B20B
102
{ACAD_XDICTIONARY
360
2AFB4
102
}
330
2
100
AcDbSymbolTableRecord
100
AcDbLayerTableRecord
  2
FibreInsul
 70
     0
 62
   241
  6
Continuous
370
    -3
390
F
347
2AF1F
1001
AcAecLayerStandard
1000

1000

  0
LAYER
  5
1CF9D
102
{ACAD_XDICTIONARY
360
2AFB6
102
}
330
2
100
AcDbSymbolTableRecord
100
AcDbLayerTableRecord
  2
Webs
 70
     0
 62
     6
  6
HIDDEN
370
    -3
390
F
347
2AF1F
  0
LAYER
  5
1D689
102
{ACAD_XDICTIONARY
360
2AFB8
102
}
330
2
100
AcDbSymbolTableRecord
100
AcDbLayerTableRecord
  2
Sill
 70
     0
 62
    47
  6
Continuous
370
    -3
390
F
347
2AF1F
  0
LAYER
  5
1D68A
102
{ACAD_XDICTIONARY
360
2AFBA
102
}
330
2
100
AcDbSymbolTableRecord
100
AcDbLayerTableRecord
  2
Int Wall
 70
     0
 62
     7
  6
Continuous
370
    -3
390
F
347
2AF1F
  0
LAYER
  5
1E3D0
102
{ACAD_XDICTIONARY
360
2AFBC
102
}
330
2
100
AcDbSymbolTableRecord
100
AcDbLayerTableRecord
  2
D
 70
     0
 62
     7
  6
Continuous
370
    -3
390
F
347
2AF1F
  0
LAYER
  5
1E3D2
102
{ACAD_XDICTIONARY
360
2AFBE
102
}
330
2
100
AcDbSymbolTableRecord
100
AcDbLayerTableRecord
  2
brick
 70
     0
 62
     1
  6
Continuous
370
    -3
390
F
347
2AF1F
  0
LAYER
  5
1F3E8
102
{ACAD_XDICTIONARY
360
2AFC0
102
}
330
2
100
AcDbSymbolTableRecord
100
AcDbLayerTableRecord
  2
Ext Cladding
 70
     0
 62
     5
  6
Continuous
370
    -3
390
F
347
2AF1F
1001
AcAecLayerStandard
1000

1000

  0
LAYER
  5
29DB1
102
{ACAD_XDICTIONARY
360
2AFC2
102
}
330
2
100
AcDbSymbolTableRecord
100
AcDbLayerTableRecord
  2
Door
 70
     0
 62
   255
  6
Continuous
370
    -3
390
F
347
2AF1F
1001
AcAecLayerStandard
1000

1000

  0
LAYER
  5
2AE8C
102
{ACAD_XDICTIONARY
360
2AFC4
102
}
330
2
100
AcDbSymbolTableRecord
100
AcDbLayerTableRecord
  2
Hatch
 70
     0
 62
     1
  6
Continuous
370
    30
390
F
347
2AF1F
1001
AcAecLayerStandard
1000

1000

  0
LAYER
  5
2B037
102
{ACAD_XDICTIONARY
360
2B038
102
}
330
2
100
AcDbSymbolTableRecord
100
AcDbLayerTableRecord
  2
Title Block
 70
     0
 62
     7
  6
Continuous
370
    -3
390
F
347
2AF1F
1001
AcAecLayerStandard
1000

1000
Use for the title block on the layout tab (paper space)
  0
ENDTAB
  0
TABLE
  2
STYLE
  5
3
330
0
100
AcDbSymbolTable
 70
     8
  0
STYLE
  5
11
330
3
100
AcDbSymbolTableRecord
100
AcDbTextStyleTableRecord
  2
Standard
 70
     0
 40
0.0
 41
1.0
 50
0.0
 71
     0
 42
0.2
  3
sanss___.ttf
  4

1001
ACAD
1000
SansSerif
1071
      514
  0
STYLE
  5
7BD
330
3
100
AcDbSymbolTableRecord
100
AcDbTextStyleTableRecord
  2

 70
     1
 40
0.0
 41
1.0
 50
0.0
 71
     0
 42
0.2
  3
ltypeshp.shx
  4

  0
STYLE
  5
1A22
330
3
100
AcDbSymbolTableRecord
100
AcDbTextStyleTableRecord
  2
Logix
 70
     0
 40
0.0
 41
1.0
 50
0.0
 71
     0
 42
1.0
  3
romans.shx
  4

  0
STYLE
  5
36AA
330
3
100
AcDbSymbolTableRecord
100
AcDbTextStyleTableRecord
  2
Arial
 70
     0
 40
0.0
 41
1.0
 50
0.0
 71
     0
 42
0.2
  3
arial.ttf
  4

1001
ACAD
1000
Arial
1071
       34
  0
STYLE
  5
7B7E
330
3
100
AcDbSymbolTableRecord
100
AcDbTextStyleTableRecord
  2
TITLE
 70
     0
 40
0.0
 41
1.0
 50
0.0
 71
     0
 42
1.25
  3
arial.ttf
  4

1001
ACAD
1000
Arial
1071
       34
  0
STYLE
  5
12274
330
3
100
AcDbSymbolTableRecord
100
AcDbTextStyleTableRecord
  2
ATTR
 70
     0
 40
0.008825683324628
 41
0.8
 50
0.0
 71
     0
 42
0.008825683324628
  3
romans.shx
  4

  0
STYLE
  5
1979E
330
3
100
AcDbSymbolTableRecord
100
AcDbTextStyleTableRecord
  2
ASHADE
 70
     0
 40
0.2
 41
1.0
 50
0.0
 71
     0
 42
1.0
  3
simplex
  4

  0
STYLE
  5
1E3D8
330
3
100
AcDbSymbolTableRecord
100
AcDbTextStyleTableRecord
  2
ROMAND
 70
     0
 40
0.2
 41
1.0
 50
0.0
 71
     0
 42
0.2
  3
romand
  4

  0
ENDTAB
  0
TABLE
  2
VIEW
  5
6
330
0
100
AcDbSymbolTable
 70
     0
  0
ENDTAB
  0
TABLE
  2
UCS
  5
7
330
0
100
AcDbSymbolTable
 70
     0
  0
ENDTAB
  0
TABLE
  2
APPID
  5
9
330
0
100
AcDbSymbolTable
 70
    26
  0
APPID
  5
12
330
9
100
AcDbSymbolTableRecord
100
AcDbRegAppTableRecord
  2
ACAD
 70
     0
  0
APPID
  5
8C
330
9
100
AcDbSymbolTableRecord
100
AcDbRegAppTableRecord
  2
AcAecLayerStandard
 70
     0
  0
APPID
  5
93
330
9
100
AcDbSymbolTableRecord
100
AcDbRegAppTableRecord
  2
ACAD_EXEMPT_FROM_CAD_STANDARDS
 70
     0
  0
APPID
  5
B8
330
9
100
AcDbSymbolTableRecord
100
AcDbRegAppTableRecord
  2
ACAD_DSTYLE_DIMTEXT_FILL
 70
     0
  0
APPID
  5
B9
330
9
100
AcDbSymbolTableRecord
100
AcDbRegAppTableRecord
  2
ACAD_DSTYLE_DIMEXT_LENGTH
 70
     0
  0
APPID
  5
BA
330
9
100
AcDbSymbolTableRecord
100
AcDbRegAppTableRecord
  2
ACAD_DSTYLE_DIMEXT_ENABLED
 70
     0
  0
APPID
  5
BB
330
9
100
AcDbSymbolTableRecord
100
AcDbRegAppTableRecord
  2
ACAD_DSTYLE_DIM_LINETYPE
 70
     0
  0
APPID
  5
BC
330
9
100
AcDbSymbolTableRecord
100
AcDbRegAppTableRecord
  2
ACAD_DSTYLE_DIM_EXT1_LINETYPE
 70
     0
  0
APPID
  5
BD
330
9
100
AcDbSymbolTableRecord
100
AcDbRegAppTableRecord
  2
ACAD_DSTYLE_DIM_EXT2_LINETYPE
 70
     0
  0
APPID
  5
1D9
330
9
100
AcDbSymbolTableRecord
100
AcDbRegAppTableRecord
  2
ACAD_DSTYLE_DIMJOGGED_JOGANGLE_SYMBOL
 70
     0
  0
APPID
  5
26D
330
9
100
AcDbSymbolTableRecord
100
AcDbRegAppTableRecord
  2
ACAD_DSTYLE_DIMARC_LENGTH_SYMBOL
 70
     0
  0
APPID
  5
11EF9
330
9
100
AcDbSymbolTableRecord
100
AcDbRegAppTableRecord
  2
ACAD_PSEXT
 70
     0
  0
APPID
  5
190B7
330
9
100
AcDbSymbolTableRecord
100
AcDbRegAppTableRecord
  2
DCO15
 70
     0
  0
APPID
  5
1979F
330
9
100
AcDbSymbolTableRecord
100
AcDbRegAppTableRecord
  2
AVE_RENDER
 70
     0
  0
APPID
  5
197A0
330
9
100
AcDbSymbolTableRecord
100
AcDbRegAppTableRecord
  2
AVE_ENTITY_MATERIAL
 70
     0
  0
APPID
  5
197AD
330
9
100
AcDbSymbolTableRecord
100
AcDbRegAppTableRecord
  2
AVE_FINISH
 70
     0
  0
APPID
  5
197AE
330
9
100
AcDbSymbolTableRecord
100
AcDbRegAppTableRecord
  2
AVE_MATERIAL
 70
     0
  0
APPID
  5
197AF
330
9
100
AcDbSymbolTableRecord
100
AcDbRegAppTableRecord
  2
AVE_GLOBAL
 70
     0
  0
APPID
  5
2AF5C
330
9
100
AcDbSymbolTableRecord
100
AcDbRegAppTableRecord
  2
ACAD_MLEADERVER
 70
     0
  0
APPID
  5
2AF6E
330
9
100
AcDbSymbolTableRecord
100
AcDbRegAppTableRecord
  2
ACAUTHENVIRON
 70
     0
  0
APPID
  5
2AF72
330
9
100
AcDbSymbolTableRecord
100
AcDbRegAppTableRecord
  2
AcDbDynamicBlockTrueName
 70
     0
  0
APPID
  5
2AF73
330
9
100
AcDbSymbolTableRecord
100
AcDbRegAppTableRecord
  2
AcDbDynamicBlockGUID
 70
     0
  0
APPID
  5
2AF75
330
9
100
AcDbSymbolTableRecord
100
AcDbRegAppTableRecord
  2
AcDbBlockRepETag
 70
     0
  0
APPID
  5
2B033
330
9
100
AcDbSymbolTableRecord
100
AcDbRegAppTableRecord
  2
Acad_TC
 70
     0
  0
APPID
  5
2B039
330
9
100
AcDbSymbolTableRecord
100
AcDbRegAppTableRecord
  2
ACAD_NAV_VCDISPLAY
 70
     0
  0
APPID
  5
2B03A
330
9
100
AcDbSymbolTableRecord
100
AcDbRegAppTableRecord
  2
AcadAnnotative
 70
     0
  0
ENDTAB
  0
TABLE
  2
DIMSTYLE
  5
A
330
0
100
AcDbSymbolTable
 70
     8
100
AcDbDimStyleTable
 71
     3
340
8CB7
340
272
340
27
  0
DIMSTYLE
105
27
330
A
100
AcDbSymbolTableRecord
100
AcDbDimStyleTableRecord
  2
Standard
 70
     0
340
11
  0
DIMSTYLE
105
272
330
A
100
AcDbSymbolTableRecord
100
AcDbDimStyleTableRecord
  2
$RECOVER_050824232520-0
 70
     0
  3
"
  4
mm
 41
0.75
 42
0.5
 44
0.5
 49
0.18
 73
     0
140
0.75
141
0.5
170
     1
277
     5
340
1A22
342
1723
1001
ACAD_DSTYLE_DIMJOGGED_JOGANGLE_SYMBOL
1070
   384
1040
0.7853981633974483
  0
DIMSTYLE
105
7B7F
330
A
100
AcDbSymbolTableRecord
100
AcDbDimStyleTableRecord
  2
neil
 70
     0
  3
"\X
  4
mm
 40
7.0
 41
0.15
 42
0.06
 44
0.0599999999999999
 45
0.0005
 73
     0
 74
     0
 77
     1
 78
     4
 79
     1
140
0.15
141
0.0
144
0.666666666666667
147
0.06
170
     1
171
     0
271
     3
272
     3
274
     0
276
     1
277
     5
340
11
341
1723
342
1723
  0
DIMSTYLE
105
8CB7
102
{ACAD_REACTORS
330
2AE3E
102
}
330
A
100
AcDbSymbolTableRecord
100
AcDbDimStyleTableRecord
  2
FBR
 70
     0
  3
"\X
  4
mm
 41
1.25
 42
0.5
 43
1.0
 44
0.5
 48
0.000000001
 49
0.5
 73
     0
 74
     0
140
1.0
141
0.5
147
0.3
170
     1
171
     0
274
     0
277
     5
279
     2
340
1A22
342
1723
1001
ACAD_DSTYLE_DIMJOGGED_JOGANGLE_SYMBOL
1070
   384
1040
0.7853981633974483
  0
DIMSTYLE
105
12275
330
A
100
AcDbSymbolTableRecord
100
AcDbDimStyleTableRecord
  2
LEADER-LARGETEXT
 70
     0
 41
1.0
 43
0.375
 44
0.1875
140
1.5
141
0.0625
147
0.0625
276
     2
277
     4
340
11
  0
DIMSTYLE
105
1A750
330
A
100
AcDbSymbolTableRecord
100
AcDbDimStyleTableRecord
  2
FBR 2storey
 70
     0
  3
"\X
  4
mm
 41
3.0
 42
0.5
 43
1.0
 44
0.5
 48
0.000000001
 49
0.5
 73
     0
 74
     0
140
2.5
141
0.5
147
0.3
170
     1
171
     0
274
     0
277
     5
279
     2
340
1A22
342
1723
1001
ACAD_DSTYLE_DIMJOGGED_JOGANGLE_SYMBOL
1070
   384
1040
0.7853981633974483
  0
DIMSTYLE
105
29DB2
330
A
100
AcDbSymbolTableRecord
100
AcDbDimStyleTableRecord
  2
DIMENSION
 70
     0
 41
0.75
 42
0.5
 44
0.5
 73
     0
 74
     0
 77
     1
140
1.5
147
0.25
173
     1
176
   256
178
   256
276
     2
277
     4
340
11
341
1723
343
1723
344
1723
  0
DIMSTYLE
105
29DB3
330
A
100
AcDbSymbolTableRecord
100
AcDbDimStyleTableRecord
  2
AM_ANSI$3
 70
     0
  4
mm
 41
0.1
 42
0.05
 43
0.5
 44
0.1
 47
0.1
 48
0.1
 78
     7
 79
     2
140
0.12
141
0.0
146
0.71
147
0.06
176
   256
177
   256
178
     2
274
     4
288
     1
289
     0
340
11
371
    -1
372
    -1
  0
ENDTAB
  0
TABLE
  2
BLOCK_RECORD
  5
1
330
0
100
AcDbSymbolTable
 70
    13
  0
BLOCK_RECORD
  5
1F
102
{ACAD_XDICTIONARY
360
39A
102
}
330
1
100
AcDbSymbolTableRecord
100
AcDbBlockTableRecord
  2
*Model_Space
340
22
 70
     0
280
     1
281
     0
  0
BLOCK_RECORD
  5
5D
330
1
100
AcDbSymbolTableRecord
100
AcDbBlockTableRecord
  2
*Paper_Space
340
5E
 70
     0
280
     1
281
     0
  0
BLOCK_RECORD
  5
58
330
1
100
AcDbSymbolTableRecord
100
AcDbBlockTableRecord
  2
*Paper_Space0
340
59
 70
     0
280
     1
281
     0
  0
BLOCK_RECORD
  5
13CB
330
1
100
AcDbSymbolTableRecord
100
AcDbBlockTableRecord
  2
BRKLINE
340
0
 70
     0
280
     1
281
     0
  0
BLOCK_RECORD
  5
1723
330
1
100
AcDbSymbolTableRecord
100
AcDbBlockTableRecord
  2
_ArchTick
340
0
102
{BLKREFS
331
2AEFA
331
2AEFB
102
}
 70
     0
280
     1
281
     0
  0
BLOCK_RECORD
  5
7B6B
330
1
100
AcDbSymbolTableRecord
100
AcDbBlockTableRecord
  2
logo
340
0
310
2800000020000000200000000100080000000000000400000000000000000000000000000000000000000000000080000080000000808000800000008000800080800000C0C0C000C0DCC000F0CAA6000020400000206000002080000020A0000020C0000020E00000400000004020000040400000406000004080000040A0
310
000040C0000040E00000600000006020000060400000606000006080000060A0000060C0000060E00000800000008020000080400000806000008080000080A0000080C0000080E00000A0000000A0200000A0400000A0600000A0800000A0A00000A0C00000A0E00000C0000000C0200000C0400000C0600000C0800000C0
310
A00000C0C00000C0E00000E0000000E0200000E0400000E0600000E0800000E0A00000E0C00000E0E00040000000400020004000400040006000400080004000A0004000C0004000E00040200000402020004020400040206000402080004020A0004020C0004020E000404000004040200040404000404060004040800040
310
40A0004040C0004040E00040600000406020004060400040606000406080004060A0004060C0004060E00040800000408020004080400040806000408080004080A0004080C0004080E00040A0000040A0200040A0400040A0600040A0800040A0A00040A0C00040A0E00040C0000040C0200040C0400040C0600040C08000
310
40C0A00040C0C00040C0E00040E0000040E0200040E0400040E0600040E0800040E0A00040E0C00040E0E00080000000800020008000400080006000800080008000A0008000C0008000E00080200000802020008020400080206000802080008020A0008020C0008020E00080400000804020008040400080406000804080
310
008040A0008040C0008040E00080600000806020008060400080606000806080008060A0008060C0008060E00080800000808020008080400080806000808080008080A0008080C0008080E00080A0000080A0200080A0400080A0600080A0800080A0A00080A0C00080A0E00080C0000080C0200080C0400080C0600080C0
310
800080C0A00080C0C00080C0E00080E0000080E0200080E0400080E0600080E0800080E0A00080E0C00080E0E000C0000000C0002000C0004000C0006000C0008000C000A000C000C000C000E000C0200000C0202000C0204000C0206000C0208000C020A000C020C000C020E000C0400000C0402000C0404000C0406000C0
310
408000C040A000C040C000C040E000C0600000C0602000C0604000C0606000C0608000C060A000C060C000C060E000C0800000C0802000C0804000C0806000C0808000C080A000C080C000C080E000C0A00000C0A02000C0A04000C0A06000C0A08000C0A0A000C0A0C000C0A0E000C0C00000C0C02000C0C04000C0C06000
310
C0C08000C0C0A000F0FBFF00A4A0A000808080000000FF0000FF000000FFFF00FF000000FF00FF00FFFF0000FFFFFF0000000000000000000000000000000000000000000000000000000000000000000000000000000000000000000000000000000000000000000000000000000000000000000000000000000000000000
310
00000000000000000000000000000000000000000000000000000000000000000000000000000000000000000000000000000000000000000000000000000000000000000000000000000000000000000000000000000000000000000000000000000000000000000000000000000000000000000000000000000000000000
310
00000000000000000000000000000000000000000000000000000000000000000000000000000000000000000000000000000000000000000000000000000000000000000000000000000000000000000000000000000000000000000000000000000000000000000000000000000000000000000000000000000000000000
310
000000000000000000000000000000000000000000FFFFFFFFFFFFFFFFFFFFFFFFFFFFFFFFFFFFFFFFFFFFFFFFFFFFFF0000000000FFF9F9FFFFFFFFFFFFFFFFFFFFFFFFFFFFFFFFFFFFFFFFFFFFFFFF0000000000FFF9F9FFFFFFFFFFFFFFFFFF0000FFFFFFFFFFFFFFFF0000FFFF000000000000FFFFFFFFFFFFFFFFFFFF
310
FF00FFFFFFFFFFFFFFFF00FFFFFFFF000000000000000000FFFF0000FFFF000000FFFFFF00FFFFFFFFFF00FFFF00FF000000000000000000FFFF000000FFFF0000FFFFFFFFFFFFFFFFFF0000FFFF00000000000000000000FFFF000000FFFFFFFFFF00FFFFFFFFFFFFFF00FFFFFFFFFFFFFF000000000000FFFF00000000FF
310
FFFF000000FFFFFFFFFFFFFFFF00FFFFFFFFFF00000000000000000000000000000000000000000000F9F9000000000000000000000000000000000000000000000000000000000000F9F900000000000000000000000000000000000000000000000000000000000000000000000000000000000000000000000000000000
310
00000000000000000000000000000000000000000000000000000000000000000000000000000000000000000000000000000000000000000000000000000000000000000000000000000000000000000000000000000000000000000000000000000000000000000000000000000000000000000000000000000000000000
310
00000000000000000000000000000000000000000000000000000000000000000000000000000000000000000000000000000000000000000000000000000000000000000000000000000000000000000000000000000000000000000000000000000000000000000000000000000000000000000000000000000000000000
310
0000000000000000000000000000000000000000000000000000000000000000000000000000000000000000000000000000000000000000
102
{BLKREFS
331
2AF6A
102
}
 70
     1
280
     1
281
     0
  0
BLOCK_RECORD
  5
7B76
102
{ACAD_XDICTIONARY
360
2AF6F
102
}
330
1
100
AcDbSymbolTableRecord
100
AcDbBlockTableRecord
  2
logo1
340
0
310
2800000020000000200000000100080000000000000400000000000000000000000000000000000000000000000080000080000000808000800000008000800080800000C0C0C000C0DCC000F0CAA6000020400000206000002080000020A0000020C0000020E00000400000004020000040400000406000004080000040A0
310
000040C0000040E00000600000006020000060400000606000006080000060A0000060C0000060E00000800000008020000080400000806000008080000080A0000080C0000080E00000A0000000A0200000A0400000A0600000A0800000A0A00000A0C00000A0E00000C0000000C0200000C0400000C0600000C0800000C0
310
A00000C0C00000C0E00000E0000000E0200000E0400000E0600000E0800000E0A00000E0C00000E0E00040000000400020004000400040006000400080004000A0004000C0004000E00040200000402020004020400040206000402080004020A0004020C0004020E000404000004040200040404000404060004040800040
310
40A0004040C0004040E00040600000406020004060400040606000406080004060A0004060C0004060E00040800000408020004080400040806000408080004080A0004080C0004080E00040A0000040A0200040A0400040A0600040A0800040A0A00040A0C00040A0E00040C0000040C0200040C0400040C0600040C08000
310
40C0A00040C0C00040C0E00040E0000040E0200040E0400040E0600040E0800040E0A00040E0C00040E0E00080000000800020008000400080006000800080008000A0008000C0008000E00080200000802020008020400080206000802080008020A0008020C0008020E00080400000804020008040400080406000804080
310
008040A0008040C0008040E00080600000806020008060400080606000806080008060A0008060C0008060E00080800000808020008080400080806000808080008080A0008080C0008080E00080A0000080A0200080A0400080A0600080A0800080A0A00080A0C00080A0E00080C0000080C0200080C0400080C0600080C0
310
800080C0A00080C0C00080C0E00080E0000080E0200080E0400080E0600080E0800080E0A00080E0C00080E0E000C0000000C0002000C0004000C0006000C0008000C000A000C000C000C000E000C0200000C0202000C0204000C0206000C0208000C020A000C020C000C020E000C0400000C0402000C0404000C0406000C0
310
408000C040A000C040C000C040E000C0600000C0602000C0604000C0606000C0608000C060A000C060C000C060E000C0800000C0802000C0804000C0806000C0808000C080A000C080C000C080E000C0A00000C0A02000C0A04000C0A06000C0A08000C0A0A000C0A0C000C0A0E000C0C00000C0C02000C0C04000C0C06000
310
C0C08000C0C0A000F0FBFF00A4A0A000808080000000FF0000FF000000FFFF00FF000000FF00FF00FFFF0000FFFFFF0000000000000000000000000000000000000000000000000000000000000000000000000000000000000000000000000000000000000000000000000000000000000000000000000000000000000000
310
00000000000000000000000000000000000000000000000000000000000000000000000000000000000000000000000000000000000000000000000000000000000000000000000000000000000000000000000000000000000000000000000000000000000000000000000000000000000000000000000000000000000000
310
00000000000000000000000000000000000000000000000000000000000000000000000000000000000000000000000000000000000000000000000000000000000000000000000000000000000000000000000000000000000000000000000000000000000000000000000000000000000000000000000000000000000000
310
0000000000000000000000000000000000000000000000000000000000000000000000000000000000FFFFFFFFFFFFFFFF0000000000000000FFFFFFFFFFFFFFFFFFFFFFFFFFFFFFFFFFFFFFFFFFFFFFFF0000000000000000FFFFFFFFFF00FFFFFFFFFF00FFFFFFFFFFFFFFFF000000000000000000000000FFFFFFFFFFFF
310
FFFFFFFFFFFFFFFFFFFFFFFF0000000000000000000000000000F9F9FFFFFFFFFFFFFFFFFFFFFFFFFFFFFFFF0000000000000000000000000000FFFFFFFFFFFFFFFFFFFFFFFFFFFF00FFFFFF000000000000000000000000000000FFFF00FFFF00FFFFFFFFFFFFFF00FFFF00000000000000000000000000000000FFFF00FF
310
FFFF00FFFFFFFFFFFF00FF00FFFF0000000000000000000000000000FFFF00FFFFFFFF00FFFFFFF9F9FFFFFFFFFF00000000000000000000000000000000000000000000000000F9F9000000000000000000000000000000000000000000000000000000000000000000000000000000000000000000000000000000000000
310
00000000000000000000000000000000000000000000000000000000000000000000000000000000000000000000000000000000000000000000000000000000000000000000000000000000000000000000000000000000000000000000000000000000000000000000000000000000000000000000000000000000000000
310
00000000000000000000000000000000000000000000000000000000000000000000000000000000000000000000000000000000000000000000000000000000000000000000000000000000000000000000000000000000000000000000000000000000000000000000000000000000000000000000000000000000000000
310
0000000000000000000000000000000000000000000000000000000000000000000000000000000000000000000000000000000000000000
 70
     1
280
     1
281
     0
1001
AcDbDynamicBlockGUID
1000
{74BBDF62-D787-4CD1-9DA2-F182B9252320}
1001
AcDbBlockRepETag
1070
     1
1071
        4
  0
BLOCK_RECORD
  5
12248
330
1
100
AcDbSymbolTableRecord
100
AcDbBlockTableRecord
  2
NUT_HEX_0D5_SV
340
0
310
2800000020000000200000000100040000000000000200000000000000000000000000000000000000000000000080000080000000808000800000008000800080800000C0C0C000808080000000FF0000FF000000FFFF00FF000000FF00FF00FFFF0000FFFFFF00FFFFFFFFF00000000000000FFFFFFFFFFFFFFFFF0FFFFF
310
FFFFFFFF0FFFFFFFFFFFFFFFFF0FFFFFFFFFFFFF0FFFFFFFFFFFFFFFFF0FFFFFFFFFFFFF0FFFFFFFFFFFFFFFF00FFFFFFFFFFFFF0FFFFFFFFFFFFFFFF00FFFFFFFFFFFFF00FFFFFFFFFFFFFFF00FFFFFFFFFFFFF00FFFFFFFFFFFFFFF00FFFFFFFFFFFFF00FFFFFFFFFFFFFFF00000000000000000FFFFFFFFFFFFFFF00FFF
310
FFFFFFFFFF00FFFFFFFFFFFFFFF00FFFFFFFFFFFFF00FFFFFFFFFFFFFFF00FFFFFFFFFFFFF00FFFFFFFFFFFFFFF00FFFFFFFFFFFFF00FFFFFFFFFFFFFFF00FFFFFFFFFFFFF00FFFFFFFFFFFFFFF00FFFFFFFFFFFFF00FFFFFFFFFFFFFFF00FFFFFFFFFFFFF00FFFFFFFFFFFFFFF00FFFFFFFFFFFFF00FFFFFFFFFFFFFFF00F
310
FFFFFFFFFFFF00FFFFFFFFFFFFFFF00FFFFFFFFFFFFF00FFFFFFFFFFFFFFF00FFFFFFFFFFFFF00FFFFFFFFFFFFFFF00FFFFFFFFFFFFF00FFFFFFFFFFFFFFF00FFFFFFFFFFFFF00FFFFFFFFFFFFFFF00FFFFFFFFFFFFF00FFFFFFFFFFFFFFF00000000000000000FFFFFFFFFFFFFFF00FFFFFFFFFFFFF00FFFFFFFFFFFFFFF0
310
0FFFFFFFFFFFFF00FFFFFFFFFFFFFFF00FFFFFFFFFFFFF00FFFFFFFFFFFFFFFF0FFFFFFFFFFFFF00FFFFFFFFFFFFFFFF0FFFFFFFFFFFFF0FFFFFFFFFFFFFFFFF0FFFFFFFFFFFFF0FFFFFFFFFFFFFFFFF0FFFFFFFFFFFFF0FFFFFFFFFFFFFFFFF00000000000000FFFFFFFFFF
 70
     0
280
     1
281
     0
  0
BLOCK_RECORD
  5
197A2
330
1
100
AcDbSymbolTableRecord
100
AcDbBlockTableRecord
  2
AVE_RENDER
340
0
102
{BLKREFS
331
197A5
331
197A6
331
197A7
331
197A8
331
197A9
331
197AA
331
197AB
331
197AC
102
}
 70
     0
280
     1
281
     0
  0
BLOCK_RECORD
  5
197B0
330
1
100
AcDbSymbolTableRecord
100
AcDbBlockTableRecord
  2
AVE_GLOBAL
340
0
102
{BLKREFS
331
197B3
102
}
 70
     0
280
     1
281
     0
  0
BLOCK_RECORD
  5
1DE2E
330
1
100
AcDbSymbolTableRecord
100
AcDbBlockTableRecord
  2
_Dot
340
0
 70
     0
280
     1
281
     0
  0
BLOCK_RECORD
  5
1E3BC
330
1
100
AcDbSymbolTableRecord
100
AcDbBlockTableRecord
  2
brick
340
0
310
2800000020000000200000000100080000000000000400000000000000000000000000000000000000000000000080000080000000808000800000008000800080800000C0C0C000C0DCC000F0CAA6000020400000206000002080000020A0000020C0000020E00000400000004020000040400000406000004080000040A0
310
000040C0000040E00000600000006020000060400000606000006080000060A0000060C0000060E00000800000008020000080400000806000008080000080A0000080C0000080E00000A0000000A0200000A0400000A0600000A0800000A0A00000A0C00000A0E00000C0000000C0200000C0400000C0600000C0800000C0
310
A00000C0C00000C0E00000E0000000E0200000E0400000E0600000E0800000E0A00000E0C00000E0E00040000000400020004000400040006000400080004000A0004000C0004000E00040200000402020004020400040206000402080004020A0004020C0004020E000404000004040200040404000404060004040800040
310
40A0004040C0004040E00040600000406020004060400040606000406080004060A0004060C0004060E00040800000408020004080400040806000408080004080A0004080C0004080E00040A0000040A0200040A0400040A0600040A0800040A0A00040A0C00040A0E00040C0000040C0200040C0400040C0600040C08000
310
40C0A00040C0C00040C0E00040E0000040E0200040E0400040E0600040E0800040E0A00040E0C00040E0E00080000000800020008000400080006000800080008000A0008000C0008000E00080200000802020008020400080206000802080008020A0008020C0008020E00080400000804020008040400080406000804080
310
008040A0008040C0008040E00080600000806020008060400080606000806080008060A0008060C0008060E00080800000808020008080400080806000808080008080A0008080C0008080E00080A0000080A0200080A0400080A0600080A0800080A0A00080A0C00080A0E00080C0000080C0200080C0400080C0600080C0
310
800080C0A00080C0C00080C0E00080E0000080E0200080E0400080E0600080E0800080E0A00080E0C00080E0E000C0000000C0002000C0004000C0006000C0008000C000A000C000C000C000E000C0200000C0202000C0204000C0206000C0208000C020A000C020C000C020E000C0400000C0402000C0404000C0406000C0
310
408000C040A000C040C000C040E000C0600000C0602000C0604000C0606000C0608000C060A000C060C000C060E000C0800000C0802000C0804000C0806000C0808000C080A000C080C000C080E000C0A00000C0A02000C0A04000C0A06000C0A08000C0A0A000C0A0C000C0A0E000C0C00000C0C02000C0C04000C0C06000
310
C0C08000C0C0A000F0FBFF00A4A0A000808080000000FF0000FF000000FFFF00FF000000FF00FF00FFFF0000FFFFFF00000000000000000000000000000000000000000000000000000000000000000000000000000000000000F900000000000000000000000000000000000000000000000000000000000000F900000000
310
000000000000000000000000000000000000000000000000000000F90000000000000000000000000000000000000000000000000000000000F9F9F9F9F9F9F9F9F9F9F9F9F9F9F9F900000000000000000000000000000000F900000000000000000000000000000000000000000000000000000000000000F90000000000
310
0000000000000000000000000000000000000000000000000000F900000000000000000000000000000000000000000000000000000000000000F900000000000000000000000000000000000000000000000000000000000000F900000000000000000000000000000000000000000000000000000000000000F900000000
310
000000000000000000000000000000000000000000000000000000F900000000000000000000000000000000000000000000000000000000000000F900000000000000000000000000000000000000000000000000000000000000F900000000000000000000000000000000000000000000000000000000000000F9000000
310
00000000000000000000000000000000000000000000000000000000F900000000000000000000000000000000000000000000000000000000000000F9F9F9F9F9F9F9F9F9F9F9F9F9F9F9F9000000000000000000000000000000000000F90000000000000000000000000000000000000000000000000000000000F9F9F9
310
F9F9F9F9F9F9F9F9F9F9F9F9F900000000000000000000000000000000F900000000000000000000000000000000000000000000000000000000000000F900000000000000000000000000000000000000000000000000000000000000F900000000000000000000000000000000000000000000000000000000000000F900
310
000000000000000000000000000000000000000000000000000000000000F900000000000000000000000000000000000000000000000000000000000000F900000000000000000000000000000000000000000000000000000000000000F900000000000000000000000000000000000000000000000000000000000000F9
310
00000000000000000000000000000000000000000000000000000000000000F900000000000000000000000000000000000000000000000000000000000000F900000000000000000000000000000000000000000000000000000000000000F900000000000000000000000000000000000000000000000000000000000000
310
F9F9F9F9F9F9F9F9F9F9F9F9F9F9F9F900000000000000000000000000000000000000000000000000000000000000000000000000000000
 70
     1
280
     1
281
     0
  0
BLOCK_RECORD
  5
1E3C7
330
1
100
AcDbSymbolTableRecord
100
AcDbBlockTableRecord
  2
pl
340
0
310
2800000020000000200000000100080000000000000400000000000000000000000000000000000000000000000080000080000000808000800000008000800080800000C0C0C000C0DCC000F0CAA6000020400000206000002080000020A0000020C0000020E00000400000004020000040400000406000004080000040A0
310
000040C0000040E00000600000006020000060400000606000006080000060A0000060C0000060E00000800000008020000080400000806000008080000080A0000080C0000080E00000A0000000A0200000A0400000A0600000A0800000A0A00000A0C00000A0E00000C0000000C0200000C0400000C0600000C0800000C0
310
A00000C0C00000C0E00000E0000000E0200000E0400000E0600000E0800000E0A00000E0C00000E0E00040000000400020004000400040006000400080004000A0004000C0004000E00040200000402020004020400040206000402080004020A0004020C0004020E000404000004040200040404000404060004040800040
310
40A0004040C0004040E00040600000406020004060400040606000406080004060A0004060C0004060E00040800000408020004080400040806000408080004080A0004080C0004080E00040A0000040A0200040A0400040A0600040A0800040A0A00040A0C00040A0E00040C0000040C0200040C0400040C0600040C08000
310
40C0A00040C0C00040C0E00040E0000040E0200040E0400040E0600040E0800040E0A00040E0C00040E0E00080000000800020008000400080006000800080008000A0008000C0008000E00080200000802020008020400080206000802080008020A0008020C0008020E00080400000804020008040400080406000804080
310
008040A0008040C0008040E00080600000806020008060400080606000806080008060A0008060C0008060E00080800000808020008080400080806000808080008080A0008080C0008080E00080A0000080A0200080A0400080A0600080A0800080A0A00080A0C00080A0E00080C0000080C0200080C0400080C0600080C0
310
800080C0A00080C0C00080C0E00080E0000080E0200080E0400080E0600080E0800080E0A00080E0C00080E0E000C0000000C0002000C0004000C0006000C0008000C000A000C000C000C000E000C0200000C0202000C0204000C0206000C0208000C020A000C020C000C020E000C0400000C0402000C0404000C0406000C0
310
408000C040A000C040C000C040E000C0600000C0602000C0604000C0606000C0608000C060A000C060C000C060E000C0800000C0802000C0804000C0806000C0808000C080A000C080C000C080E000C0A00000C0A02000C0A04000C0A06000C0A08000C0A0A000C0A0C000C0A0E000C0C00000C0C02000C0C04000C0C06000
310
C0C08000C0C0A000F0FBFF00A4A0A000808080000000FF0000FF000000FFFF00FF000000FF00FF00FFFF0000FFFFFF0000000000000000000000000000000000000000000000000000000000000000000000000000000000000000000000FFFFFFFF00000000000000000000000000000000000000000000000000000000FF
310
00FFFF00000000000000000000000000000000000000000000000000000000FFFF00FF00000000000000000000000000000000000000000000000000000000FFFFFFFF00000000000000000000000000000000000000000000000000000000FF00FFFF00000000000000000000000000000000000000000000000000000000
310
FFFFFFFF00000000000000000000000000000000000000000000000000000000FF00FFFF00000000000000000000000000000000000000000000000000000000FFFFFFFF00000000000000000000000000000000000000000000000000000000FF00FFFF000000000000000000000000000000000000000000000000000000
310
00FFFFFFFF00000000000000000000000000000000000000000000000000000000FF00FFFF00000000000000000000000000000000000000000000000000000000FFFFFFFF00000000000000000000000000000000000000000000000000000000FF00FFFF0000000000000000000000000000000000000000000000000000
310
0000FFFF00FF00000000000000000000000000000000000000000000000000000000FF00FFFF00000000000000000000000000000000000000000000000000000000FFFF00FF00000000000000000000000000000000000000000000000000000000FF00FFFF00000000000000000000000000000000000000000000000000
310
000000FFFF00FF00000000000000000000000000000000000000000000000000000000FFFFFFFF00000000000000000000000000000000000000000000000000000000FF00FFFF00000000000000000000000000000000000000000000000000000000FFFFFFFF000000000000000000000000000000000000000000000000
310
00000000FF00FFFF00000000000000000000000000000000000000000000000000000000FFFFFFFF00000000000000000000000000000000000000000000000000000000FF00FFFF00000000000000000000000000000000000000000000000000000000FFFFFFFF0000000000000000000000000000000000000000000000
310
0000000000FF00FFFF00000000000000000000000000000000000000000000000000000000FFFFFFFF00000000000000000000000000000000000000000000000000000000FF00FFFF00000000000000000000000000000000000000000000000000000000FFFF00FF00000000000000000000000000000000000000000000
310
000000000000FFFFFFFF00000000000000000000000000000000000000000000000000000000000000000000000000000000000000000000
 70
     1
280
     1
281
     0
  0
BLOCK_RECORD
  5
21CC2
102
{ACAD_XDICTIONARY
360
21CC4
102
}
330
1
100
AcDbSymbolTableRecord
100
AcDbBlockTableRecord
  2
A$C78BF0A02
340
0
 70
     1
280
     1
281
     0
  0
BLOCK_RECORD
  5
2AE3F
330
1
100
AcDbSymbolTableRecord
100
AcDbBlockTableRecord
  2
*D12
340
0
 70
     0
280
     1
281
     0
  0
ENDTAB
  0
ENDSEC
  0
SECTION
  2
BLOCKS
  0
BLOCK
  5
20
330
1F
100
AcDbEntity
  8
0
100
AcDbBlockBegin
  2
*Model_Space
 70
     0
 10
0.0
 20
0.0
 30
0.0
  3
*Model_Space
  1

  0
ENDBLK
  5
21
330
1F
100
AcDbEntity
  8
0
100
AcDbBlockEnd
  0
BLOCK
  5
5F
330
5D
100
AcDbEntity
 67
     1
  8
0
100
AcDbBlockBegin
  2
*Paper_Space
 70
     0
 10
0.0
 20
0.0
 30
0.0
  3
*Paper_Space
  1

  0
ENDBLK
  5
60
330
5D
100
AcDbEntity
 67
     1
  8
0
100
AcDbBlockEnd
  0
BLOCK
  5
5A
330
58
100
AcDbEntity
 67
     1
  8
0
100
AcDbBlockBegin
  2
*Paper_Space0
 70
     0
 10
0.0
 20
0.0
 30
0.0
  3
*Paper_Space0
  1

  0
VIEWPORT
  5
11EF8
330
58
100
AcDbEntity
 67
     1
  8
0
100
AcDbViewport
 10
5.249999639556163
 20
3.999999883606677
 30
0.0
 40
21.60469660038833
 41
8.992999745766947
 68
     0
 69
     0
 12
5.249999639556163
 22
3.999999883606677
 13
0.0
 23
0.0
 14
0.5
 24
0.5
 15
0.5
 25
0.5
 16
0.0
 26
0.0
 36
1.0
 17
0.0
 27
0.0
 37
0.0
 42
50.0
 43
0.0
 44
0.0
 45
8.992999745766947
 50
0.0
 51
0.0
 72
  1000
 90
    32800
  1

281
     0
 71
     1
 74
     0
110
0.0
120
0.0
130
0.0
111
1.0
121
0.0
131
0.0
112
0.0
122
1.0
132
0.0
 79
     0
146
0.0
170
     0
 61
     5
348
2AF2D
292
     1
282
     1
141
0.0
142
0.0
 63
   250
421
  3355443
  0
VIEWPORT
  5
11EFB
330
58
100
AcDbEntity
 67
     1
  8
Dim
100
AcDbViewport
 10
5.24999976158142
 20
3.99999976158142
 30
0.0
 40
8.399999618530271
 41
6.399999618530272
 68
     0
 69
     0
 12
70.24570646213799
 22
55.11630672257945
 13
0.0
 23
0.0
 14
0.5
 24
0.5
 15
0.5
 25
0.5
 16
0.0
 26
0.0
 36
1.0
 17
0.0
 27
0.0
 37
0.0
 42
50.0
 43
0.0
 44
0.0
 45
113.4515982453417
 50
0.0
 51
0.0
 72
  1000
 90
    32864
  1

281
     0
 71
     1
 74
     0
110
0.0
120
0.0
130
0.0
111
1.0
121
0.0
131
0.0
112
0.0
122
1.0
132
0.0
 79
     0
146
0.0
170
     0
 61
     5
348
2AF2D
292
     1
282
     1
141
0.0
142
0.0
 63
   250
421
  3355443
  0
ENDBLK
  5
5B
330
58
100
AcDbEntity
 67
     1
  8
0
100
AcDbBlockEnd
  0
BLOCK
  5
13CF
330
13CB
100
AcDbEntity
  8
0
100
AcDbBlockBegin
  2
BRKLINE
 70
     0
 10
0.0
 20
0.0
 30
0.0
  3
BRKLINE
  1

  0
LWPOLYLINE
  5
13CC
330
13CB
100
AcDbEntity
  8
0
100
AcDbPolyline
 90
        4
 70
     0
 43
0.0
 10
6.808656731150684
 20
3.512459941779828
 10
6.558656731150684
 20
4.199329296643485
 10
6.058656731150684
 20
2.825590586916172
 10
5.808656731150684
 20
3.512459941779828
  0
POINT
  5
13CD
330
13CB
100
AcDbEntity
  8
DEFPOINTS
100
AcDbPoint
 10
6.808656731150684
 20
3.512459941779828
 30
0.0
  0
POINT
  5
13CE
330
13CB
100
AcDbEntity
  8
DEFPOINTS
100
AcDbPoint
 10
5.808656731150684
 20
3.512459941779828
 30
0.0
  0
ENDBLK
  5
13D0
330
13CB
100
AcDbEntity
  8
0
100
AcDbBlockEnd
  0
BLOCK
  5
1725
330
1723
100
AcDbEntity
  8
0
100
AcDbBlockBegin
  2
_ArchTick
 70
     0
 10
0.0
 20
0.0
 30
0.0
  3
_ArchTick
  1

  0
LWPOLYLINE
  5
1724
330
1723
100
AcDbEntity
  8
0
  6
ByBlock
 62
     0
100
AcDbPolyline
 90
        2
 70
     0
 43
0.15
 10
-0.5
 20
-0.5
 10
0.5
 20
0.5
  0
ENDBLK
  5
1726
330
1723
100
AcDbEntity
  8
0
100
AcDbBlockEnd
  0
BLOCK
  5
7B6C
330
7B6B
100
AcDbEntity
  8
0
100
AcDbBlockBegin
  2
logo
 70
     0
 10
0.0
 20
0.0
 30
0.0
  3
logo
  1

  0
MTEXT
  5
7B6D
330
7B6B
100
AcDbEntity
  8
Text
100
AcDbMText
 10
221.086693675525
 20
7.073797073357269
 30
0.0
 40
4.125
 41
21.35400527714894
 46
0.0
 71
     5
 72
     5
  1
\fArial|b1|i0|c0|p34;LOGIX
 73
     1
 44
1.0
  0
LWPOLYLINE
  5
7B6E
330
7B6B
100
AcDbEntity
  8
Text
 62
    10
100
AcDbPolyline
 90
        4
 70
     1
 43
0.0
 10
225.1499332619207
 20
9.683728632982365
 10
224.7383820841952
 20
9.683728632982365
 10
224.7383820841952
 20
10.35291851038301
 10
225.1499332619207
 20
10.35291851038301
  0
HATCH
  5
7B6F
330
7B6B
100
AcDbEntity
  8
Text
 62
    10
100
AcDbHatch
 10
0.0
 20
0.0
 30
0.0
210
0.0
220
0.0
230
1.0
  2
SOLID
 70
     1
 71
     0
 91
        1
 92
        7
 72
     0
 73
     1
 93
        4
 10
225.5614844396461
 20
9.683728632982363
 10
225.5614844396461
 20
10.35291851038301
 10
224.7383820841953
 20
10.35291851038301
 10
224.7383820841953
 20
9.683728632982365
 97
        0
 75
     0
 76
     1
 47
0.0123602155066018
 98
        1
 10
225.7208762804179
 20
9.919538556040233
450
        0
451
        0
460
0.0
461
0.0
452
        0
462
0.0
453
        0
470

  0
TEXT
  5
7B70
330
7B6B
100
AcDbEntity
  8
Text
100
AcDbText
 10
216.1026506038589
 20
3.969685468766058
 30
0.0
 40
0.65625
  1
INSULATED CONCRETE FORMS
  7
TITLE
100
AcDbText
  0
LWPOLYLINE
  5
7B71
330
7B6B
100
AcDbEntity
  8
Text
100
AcDbPolyline
 90
        3
 70
     0
 43
0.38671875
 10
211.295228210912
 20
6.320133515475628
 10
211.295228210912
 20
4.138949166248082
 10
215.2000098659969
 20
4.138949166248082
  0
HATCH
  5
7B72
330
7B6B
100
AcDbEntity
  8
Text
 62
    10
100
AcDbHatch
 10
0.0
 20
0.0
 30
0.0
210
0.0
220
0.0
230
1.0
  2
SOLID
 70
     1
 71
     1
 91
        1
 92
        7
 72
     0
 73
     1
 93
        4
 10
212.339355867348
 20
4.353444358275677
 10
212.339355867348
 20
5.022634235676324
 10
211.5162535118971
 20
5.022634235676322
 10
211.5162535118971
 20
4.353444358275677
 97
        1
330
7B73
 75
     0
 76
     1
 47
0.0123602155066018
 98
        1
 10
212.0586078659991
 20
4.589254281333545
450
        0
451
        0
460
0.0
461
0.0
452
        0
462
0.0
453
        0
470

  0
LWPOLYLINE
  5
7B73
102
{ACAD_REACTORS
330
7B72
102
}
330
7B6B
100
AcDbEntity
  8
Text
 62
    10
100
AcDbPolyline
 90
        4
 70
     1
 43
0.0
 10
212.339355867348
 20
4.353444358275677
 10
211.5162535118971
 20
4.353444358275677
 10
211.5162535118971
 20
5.022634235676324
 10
212.339355867348
 20
5.022634235676324
  0
MTEXT
  5
7B74
330
7B6B
100
AcDbEntity
  8
Text
100
AcDbMText
 10
231.5267760865217
 20
9.129830932173035
 30
0.0
 40
1.0
 41
1.967384484442007
 46
0.0
 71
     3
 72
     5
  1
{\fArial|b1|i0|c0|p34;TM}
 73
     1
 44
1.0
  0
ENDBLK
  5
7B75
330
7B6B
100
AcDbEntity
  8
0
100
AcDbBlockEnd
  0
BLOCK
  5
7B77
330
7B76
100
AcDbEntity
  8
0
100
AcDbBlockBegin
  2
logo1
 70
     0
 10
0.0
 20
0.0
 30
0.0
  3
logo1
  1

  0
INSERT
  5
2AF6A
330
7B76
100
AcDbEntity
  8
Text
100
AcDbBlockReference
  2
logo
 10
0.2750878984697351
 20
1.429312710851462
 30
0.0
1001
AcDbBlockRepETag
1070
     1
1071
        0
1005
2AF6A
  0
MTEXT
  5
2AF6B
330
7B76
100
AcDbEntity
  8
Text
100
AcDbMText
 10
220.8462269722975
 20
3.419269878896534
 30
0.0
 40
1.5397913732992
 41
28.81904330094251
 46
0.0
 71
     5
 72
     5
  1
{\fArial|b1|i0|c0|p34;Good. Solid. Green.}
 73
     1
 44
1.0
1001
AcDbBlockRepETag
1070
     1
1071
        1
1005
2AF6B
  0
MTEXT
  5
2AF6C
330
7B76
100
AcDbEntity
  8
Text
100
AcDbMText
 10
231.9043748365881
 20
4.468802917119665
 30
0.0
 40
0.7698956866496004
 41
1.514680828553249
 46
0.0
 71
     3
 72
     5
  1
{\fArial|b1|i0|c0|p34;TM}
 73
     1
 44
1.0
1001
AcDbBlockRepETag
1070
     1
1071
        2
1005
2AF6C
  0
MTEXT
  5
2AF6D
330
7B76
100
AcDbEntity
  8
Text
100
AcDbMText
 10
229.1192517599591
 20
2.675911896170958
 30
0.0
 40
0.75
 41
8.36266296602462
 46
0.0
 71
     1
 72
     5
  1
www.logixicf.com
 73
     1
 44
1.0
1001
AcDbBlockRepETag
1070
     1
1071
        3
1005
2AF6D
  0
ENDBLK
  5
7B7C
330
7B76
100
AcDbEntity
  8
0
100
AcDbBlockEnd
  0
BLOCK
  5
12249
330
12248
100
AcDbEntity
  8
0
100
AcDbBlockBegin
  2
NUT_HEX_0D5_SV
 70
     2
 10
0.0
 20
0.0
 30
0.0
  3
NUT_HEX_0D5_SV
  1

  0
LINE
  5
1224A
330
12248
100
AcDbEntity
  8
0
100
AcDbLine
 10
0.0299951999996994
 20
-0.2165006948201129
 30
0.0
 11
0.4179951999996993
 21
-0.2165006948201129
 31
0.0
  0
LINE
  5
1224B
330
12248
100
AcDbEntity
  8
0
100
AcDbLine
 10
0.0299951999996994
 20
0.2164993051798869
 30
0.0
 11
0.4180051999996972
 21
0.2164993051798869
 31
0.0
  0
LWPOLYLINE
  5
1224C
330
12248
100
AcDbEntity
  8
0
100
AcDbPolyline
 90
        2
 70
     0
 43
0.0
 10
0.0299951999996994
 20
0.4329993051798869
 10
0.4180051999996972
 20
0.4329993051798869
  0
ARC
  5
1224D
330
12248
100
AcDbEntity
  8
0
100
AcDbCircle
 10
-0.348204800000302
 20
-0.000000694820113
 30
0.0
 40
0.7962052
100
AcDbArc
 50
344.2218
 51
15.77825
  0
ARC
  5
1224E
330
12248
100
AcDbEntity
  8
0
100
AcDbCircle
 10
0.2376951999996985
 20
0.3247493051798851
 30
0.0
 40
0.2103013
100
AcDbArc
 50
329.0201
 51
30.97992
  0
ARC
  5
1224F
330
12248
100
AcDbEntity
  8
0
100
AcDbCircle
 10
0.210305199999698
 20
0.3247493051798851
 30
0.0
 40
0.2103013
100
AcDbArc
 50
149.0201
 51
210.9799
  0
ARC
  5
12250
330
12248
100
AcDbEntity
  8
0
100
AcDbCircle
 10
0.7962051999996968
 20
-0.000000694820113
 30
0.0
 40
0.7962052
100
AcDbArc
 50
164.2217
 51
195.7782
  0
LWPOLYLINE
  5
12251
330
12248
100
AcDbEntity
  8
0
100
AcDbPolyline
 90
        2
 70
     0
 43
0.0
 10
0.4180051999996972
 20
-0.4330006948201129
 10
0.0299951999996994
 20
-0.4330006948201129
  0
ARC
  5
12252
330
12248
100
AcDbEntity
  8
0
100
AcDbCircle
 10
0.2376951999996985
 20
-0.3247506948201146
 30
0.0
 40
0.2103013
100
AcDbArc
 50
329.0201
 51
30.97990999999999
  0
LINE
  5
12253
330
12248
100
AcDbEntity
  8
0
100
AcDbLine
 10
0.4480051999996983
 20
0.3247493051798851
 30
0.0
 11
0.4480051999996983
 21
-0.3247506948201146
 31
0.0
  0
LINE
  5
12254
330
12248
100
AcDbEntity
  8
0
100
AcDbLine
 10
0.0000051999996978
 20
-0.3247506948201146
 30
0.0
 11
0.0000051999996978
 21
0.3247493051798851
 31
0.0
  0
ARC
  5
12255
330
12248
100
AcDbEntity
  8
0
100
AcDbCircle
 10
0.210305199999698
 20
-0.3247506948201146
 30
0.0
 40
0.2103013
100
AcDbArc
 50
149.0201
 51
210.9799
  0
ATTDEF
  5
12256
330
12248
100
AcDbEntity
  8
0
100
AcDbText
 10
0.0
 20
-0.9792999999999999
 30
0.0
 40
0.021680831672485
  1

 41
0.8
  7
ATTR
100
AcDbAttributeDefinition
280
     0
  3

  2
ESTCODE
 70
     9
280
     0
  0
ENDBLK
  5
12257
330
12248
100
AcDbEntity
  8
0
100
AcDbBlockEnd
  0
BLOCK
  5
197A3
330
197A2
100
AcDbEntity
  8
ASHADE
100
AcDbBlockBegin
  2
AVE_RENDER
 70
     0
 10
0.0
 20
0.0
 30
0.0
  3
AVE_RENDER
  1
AVE_RENDER
  0
ENDBLK
  5
197A4
330
197A2
100
AcDbEntity
  8
0
100
AcDbBlockEnd
  0
BLOCK
  5
197B1
330
197B0
100
AcDbEntity
  8
ASHADE
100
AcDbBlockBegin
  2
AVE_GLOBAL
 70
     0
 10
0.0
 20
0.0
 30
0.0
  3
AVE_GLOBAL
  1
AVE_GLOBAL
  0
ENDBLK
  5
197B2
330
197B0
100
AcDbEntity
  8
0
100
AcDbBlockEnd
  0
BLOCK
  5
1DE2F
330
1DE2E
100
AcDbEntity
  8
0
100
AcDbBlockBegin
  2
_Dot
 70
     0
 10
0.0
 20
0.0
 30
0.0
  3
_Dot
  1

  0
LWPOLYLINE
  5
1DE30
330
1DE2E
100
AcDbEntity
  8
0
  6
ByBlock
 62
     0
100
AcDbPolyline
 90
        2
 70
     1
 43
0.5
 10
-0.25
 20
0.0
 42
1.0
 10
0.25
 20
0.0
 42
1.0
  0
LINE
  5
1DE31
330
1DE2E
100
AcDbEntity
  8
0
  6
ByBlock
 62
     0
370
    -2
100
AcDbLine
 10
-0.5
 20
0.0
 30
0.0
 11
-1.0
 21
0.0
 31
0.0
  0
ENDBLK
  5
1DE32
330
1DE2E
100
AcDbEntity
  8
0
100
AcDbBlockEnd
  0
BLOCK
  5
1E3BD
330
1E3BC
100
AcDbEntity
  8
0
100
AcDbBlockBegin
  2
brick
 70
     0
 10
0.0
 20
0.0
 30
0.0
  3
brick
  1

  0
LINE
  5
1E3BE
330
1E3BC
100
AcDbEntity
  8
brick
100
AcDbLine
 10
-8.93597607868169
 20
-43.19080390905893
 30
0.0
 11
-8.93597607868169
 21
-43.29080390905893
 31
0.0
  0
LINE
  5
1E3BF
330
1E3BC
100
AcDbEntity
  8
brick
100
AcDbLine
 10
-8.93597607868169
 20
-43.82830390905893
 30
0.0
 11
-8.93597607868169
 21
-43.92830390905894
 31
0.0
  0
LINE
  5
1E3C0
330
1E3BC
100
AcDbEntity
  8
brick
100
AcDbLine
 10
-9.018927771000363
 20
-43.82830390905893
 30
0.0
 11
-8.318927771000364
 21
-43.82830390905893
 31
0.0
  0
LINE
  5
1E3C1
330
1E3BC
100
AcDbEntity
  8
brick
100
AcDbLine
 10
-9.018927771000363
 20
-43.29080390905893
 30
0.0
 11
-8.318927771000364
 21
-43.29080390905893
 31
0.0
  0
LINE
  5
1E3C2
330
1E3BC
100
AcDbEntity
  8
brick
100
AcDbLine
 10
-9.018927771000363
 20
-43.29080390905893
 30
0.0
 11
-9.018927771000363
 21
-43.82830390905893
 31
0.0
  0
LINE
  5
1E3C3
330
1E3BC
100
AcDbEntity
  8
brick
100
AcDbLine
 10
-9.018927771000363
 20
-42.65330390905893
 30
0.0
 11
-8.318927771000364
 21
-42.65330390905893
 31
0.0
  0
LINE
  5
1E3C4
330
1E3BC
100
AcDbEntity
  8
brick
100
AcDbLine
 10
-9.018927771000363
 20
-43.19080390905893
 30
0.0
 11
-8.318927771000364
 21
-43.19080390905893
 31
0.0
  0
LINE
  5
1E3C5
330
1E3BC
100
AcDbEntity
  8
brick
100
AcDbLine
 10
-9.018927771000363
 20
-42.65330390905893
 30
0.0
 11
-9.018927771000363
 21
-43.19080390905893
 31
0.0
  0
ENDBLK
  5
1E3C6
330
1E3BC
100
AcDbEntity
  8
0
100
AcDbBlockEnd
  0
BLOCK
  5
1E3C8
330
1E3C7
100
AcDbEntity
  8
0
100
AcDbBlockBegin
  2
pl
 70
     0
 10
0.0
 20
0.0
 30
0.0
  3
pl
  1

  0
HATCH
  5
1E3C9
330
1E3C7
100
AcDbEntity
  8
D
  6
Continuous
100
AcDbHatch
 10
0.0
 20
0.0
 30
0.0
210
0.0
220
0.0
230
1.0
  2
ANSI31
 70
     0
 71
     1
 91
        1
 92
        1
 93
        4
 72
     1
 10
-18.31245305246308
 20
-43.28833465140252
 11
-18.36245305246308
 21
-43.28833465140252
 72
     1
 10
-18.36245305246308
 20
-43.28833465140252
 11
-18.36245305246308
 21
-43.68833465140252
 72
     1
 10
-18.36245305246308
 20
-43.68833465140252
 11
-18.31245305246308
 21
-43.68833465140252
 72
     1
 10
-18.31245305246308
 20
-43.68833465140252
 11
-18.31245305246308
 21
-43.28833465140252
 97
        4
330
1E3CA
330
1E3CC
330
1E3CB
330
1E3CD
 75
     0
 76
     1
 52
0.0
 41
0.15
 77
     0
 78
     1
 53
45.0
 43
0.0
 44
0.0
 45
-0.0132582521472478
 46
0.0132582521472478
 79
     0
 98
        1
 10
0.0
 20
0.0
  0
LINE
  5
1E3CA
102
{ACAD_REACTORS
330
1E3C9
102
}
330
1E3C7
100
AcDbEntity
  8
D
  6
Continuous
100
AcDbLine
 10
-18.31245305246308
 20
-43.28833465140252
 30
0.0
 11
-18.36245305246308
 21
-43.28833465140252
 31
0.0
  0
LINE
  5
1E3CB
102
{ACAD_REACTORS
330
1E3C9
102
}
330
1E3C7
100
AcDbEntity
  8
D
  6
Continuous
100
AcDbLine
 10
-18.36245305246308
 20
-43.68833465140252
 30
0.0
 11
-18.31245305246308
 21
-43.68833465140252
 31
0.0
  0
LINE
  5
1E3CC
102
{ACAD_REACTORS
330
1E3C9
102
}
330
1E3C7
100
AcDbEntity
  8
D
  6
Continuous
100
AcDbLine
 10
-18.36245305246308
 20
-43.28833465140252
 30
0.0
 11
-18.36245305246308
 21
-43.68833465140252
 31
0.0
  0
LINE
  5
1E3CD
102
{ACAD_REACTORS
330
1E3C9
102
}
330
1E3C7
100
AcDbEntity
  8
D
  6
Continuous
100
AcDbLine
 10
-18.31245305246308
 20
-43.68833465140252
 30
0.0
 11
-18.31245305246308
 21
-43.28833465140252
 31
0.0
  0
ENDBLK
  5
1E3CE
330
1E3C7
100
AcDbEntity
  8
0
100
AcDbBlockEnd
  0
BLOCK
  5
21CC6
330
21CC2
100
AcDbEntity
  8
0
100
AcDbBlockBegin
  2
A$C78BF0A02
 70
     0
 10
0.0
 20
0.0
 30
0.0
  3
A$C78BF0A02
  1

  0
MTEXT
  5
21CC3
330
21CC2
100
AcDbEntity
  8
Dim
100
AcDbMText
 10
0.1772347948003698
 20
6.914814617624102
 30
0.0
 40
0.9
 41
20.07123315033926
 46
8.657241220803342
 71
     1
 72
     5
  1
{\fSansSerif|b1|i0|c2|p2;\LNOTES:}\PSee Section 6 - Engineering in the LOGIX Product Manual for reinforcement details.
  7
Logix
 73
     1
 44
1.0
1001
ACAD
1000
ACAD_MTEXT_DEFINED_HEIGHT_BEGIN
1070
    46
1040
8.657241220803342
1000
ACAD_MTEXT_DEFINED_HEIGHT_END
  0
ENDBLK
  5
21CC7
330
21CC2
100
AcDbEntity
  8
0
100
AcDbBlockEnd
  0
BLOCK
  5
2AE4A
330
2AE3F
100
AcDbEntity
  8
0
100
AcDbBlockBegin
  2
*D12
 70
     1
 10
0.0
 20
0.0
 30
0.0
  3
*D12
  1

  0
LINE
  5
2AEF6
330
2AE3F
100
AcDbEntity
  8
Dim
 62
     0
440
 16777216
370
    -2
100
AcDbLine
 10
73.43468351400861
 20
36.54622261236
 30
0.0
 11
73.43468351400861
 21
27.53144498970045
 31
0.0
  0
LINE
  5
2AEF7
330
2AE3F
100
AcDbEntity
  8
Dim
 62
     0
440
 16777216
370
    -2
100
AcDbLine
 10
67.43468351400853
 20
36.54622261235999
 30
0.0
 11
67.43468351400853
 21
27.53144498970045
 31
0.0
  0
LINE
  5
2AEF8
330
2AE3F
100
AcDbEntity
  8
Dim
 62
     0
440
 16777216
370
    -2
100
AcDbLine
 10
73.43468351400861
 20
28.03144498970045
 30
0.0
 11
67.43468351400853
 21
28.03144498970045
 31
0.0
  0
MTEXT
  5
2AEF9
330
2AE3F
100
AcDbEntity
  8
Dim
 62
     0
440
 16777216
100
AcDbMText
 10
70.64794410097579
 20
25.24376594812861
 30
0.0
 40
1.0
 41
0.0
 46
0.0
 71
     5
 72
     1
  1
\A1;4"\P[102mm]
  7
Logix
 73
     1
 44
1.0
  0
INSERT
  5
2AEFA
330
2AE3F
100
AcDbEntity
  8
Dim
 62
     0
440
 16777216
370
    -2
100
AcDbBlockReference
  2
_ArchTick
 10
73.43468351400861
 20
28.03144498970045
 30
0.0
 41
1.25
 42
1.25
 43
1.25
  0
INSERT
  5
2AEFB
330
2AE3F
100
AcDbEntity
  8
Dim
 62
     0
440
 16777216
370
    -2
100
AcDbBlockReference
  2
_ArchTick
 10
67.43468351400853
 20
28.03144498970045
 30
0.0
 41
1.25
 42
1.25
 43
1.25
 50
180.0
  0
POINT
  5
2AEFC
330
2AE3F
100
AcDbEntity
  8
DEFPOINTS
 62
     0
440
 16777216
100
AcDbPoint
 10
73.43468351400861
 20
37.04622261236
 30
0.0
  0
POINT
  5
2AEFD
330
2AE3F
100
AcDbEntity
  8
DEFPOINTS
 62
     0
440
 16777216
100
AcDbPoint
 10
67.43468351400853
 20
37.04622261235999
 30
0.0
  0
POINT
  5
2AEFE
330
2AE3F
100
AcDbEntity
  8
DEFPOINTS
 62
     0
440
 16777216
100
AcDbPoint
 10
67.43468351400853
 20
28.03144498970045
 30
0.0
  0
ENDBLK
  5
2AE4B
330
2AE3F
100
AcDbEntity
  8
0
100
AcDbBlockEnd
  0
ENDSEC
  0
SECTION
  2
ENTITIES
  0
LWPOLYLINE
  5
7B8A
330
1F
100
AcDbEntity
  8
Dim
100
AcDbPolyline
 90
        2
 70
     1
 43
0.2
 10
27.21748254559107
 20
11.21316310090452
 10
113.2734236536866
 20
11.21316310090452
  0
LWPOLYLINE
  5
7B8C
330
1F
100
AcDbEntity
  8
Dim
100
AcDbPolyline
 90
        2
 70
     0
 43
0.2
 10
46.55639506238067
 20
-0.5702746285459455
 10
46.55639506238067
 20
11.21316310090452
  0
MTEXT
  5
7B96
330
1F
100
AcDbEntity
  8
Text
100
AcDbMText
 10
47.3413562180187
 20
10.48942445696533
 30
0.0
 40
0.7125
 41
24.832833752633
 46
9.76950453337551
 71
     1
 72
     5
  3
{\fTimes New Roman|b0|i0|c0|p18;The drawing represented herein is to be used as a reference guide only;  the user shall check to ensure the drawing meets local building codes and construction practices by consulting local building officials and profe
  1
ssionals, including any additional requirements.  Logix reserves the right to make changes to the drawing without notice and assumes no liability in connection with the use of the drawing including modification, copying or distribution.}
 73
     1
 44
1.0
1001
ACAD
1000
ACAD_MTEXT_DEFINED_HEIGHT_BEGIN
1070
    46
1040
9.76950453337551
1000
ACAD_MTEXT_DEFINED_HEIGHT_END
  0
LWPOLYLINE
  5
7B97
330
1F
100
AcDbEntity
  8
Dim
100
AcDbPolyline
 90
        2
 70
     0
 43
0.2
 10
72.41481418920075
 20
-0.5702746285459455
 10
72.41481418920075
 20
11.21316310090452
  0
LWPOLYLINE
  5
7BA4
330
1F
100
AcDbEntity
  8
Dim
100
AcDbPolyline
 90
        2
 70
     0
 43
0.2
 10
72.55639506238067
 20
6.821444236179289
 10
113.2734236536866
 20
6.821444236179289
  0
LWPOLYLINE
  5
7BA5
330
1F
100
AcDbEntity
  8
Dim
100
AcDbPolyline
 90
        2
 70
     0
 43
0.2
 10
96.91490935803365
 20
6.821444236179289
 10
96.91490935803365
 20
11.21316310090452
  0
TEXT
  5
7BA7
330
1F
100
AcDbEntity
  8
Dim
100
AcDbText
 10
73.05639506238067
 20
8.234029020783879
 30
0.0
 40
1.0
  1
5.8.1
  7
Logix
100
AcDbText
  0
MTEXT
  5
7BA9
330
1F
100
AcDbEntity
  8
Dim
100
AcDbMText
 10
73.05639506238067
 20
10.71316310090452
 30
0.0
 40
0.75
 41
2.5
 46
0.9791340801206377
 71
     1
 72
     5
  1
Drawing:
  7
Logix
 73
     1
 44
1.0
1001
ACAD
1000
ACAD_MTEXT_DEFINED_HEIGHT_BEGIN
1070
    46
1040
0.9791340801206377
1000
ACAD_MTEXT_DEFINED_HEIGHT_END
  0
TEXT
  5
7BAB
330
1F
100
AcDbEntity
  8
Dim
100
AcDbText
 10
97.41490935803366
 20
8.234029020783879
 30
0.0
 40
1.0
  1
Oct 20/08
  7
Logix
100
AcDbText
  0
MTEXT
  5
7BAC
330
1F
100
AcDbEntity
  8
Dim
100
AcDbMText
 10
97.41490935803366
 20
10.71316310090452
 30
0.0
 40
0.75
 41
2.5
 46
0.9791340801206377
 71
     1
 72
     5
  1
Date:
  7
Logix
 73
     1
 44
1.0
1001
ACAD
1000
ACAD_MTEXT_DEFINED_HEIGHT_BEGIN
1070
    46
1040
0.9791340801206377
1000
ACAD_MTEXT_DEFINED_HEIGHT_END
  0
MTEXT
  5
7BAD
330
1F
100
AcDbEntity
  8
Dim
100
AcDbMText
 10
73.05639506238067
 20
6.321444236179289
 30
0.0
 40
0.75
 41
2.5
 46
0.9791340801206377
 71
     1
 72
     5
  1
Title:
  7
Logix
 73
     1
 44
1.0
1001
ACAD
1000
ACAD_MTEXT_DEFINED_HEIGHT_BEGIN
1070
    46
1040
0.9791340801206377
1000
ACAD_MTEXT_DEFINED_HEIGHT_END
  0
MTEXT
  5
7BAF
330
1F
100
AcDbEntity
  8
Dim
100
AcDbMText
 10
92.80639506238067
 20
2.564027763763462
 30
0.0
 40
1.25
 41
39.5
 46
5.340002514040832
 71
     5
 72
     5
  1
LOGIX 4" (102mm) WALL LAYOUT FOR STC50
  7
Logix
 73
     1
 44
1.0
1001
ACAD
1000
ACAD_MTEXT_DEFINED_HEIGHT_BEGIN
1070
    46
1040
5.340002514040832
1000
ACAD_MTEXT_DEFINED_HEIGHT_END
  0
LINE
  5
81F1
330
1F
100
AcDbEntity
  8
Dim
100
AcDbLine
 10
27.11748254559107
 20
110.8962373936953
 30
0.0
 11
113.3734236536866
 21
110.8962373936953
 31
0.0
  0
LINE
  5
81F2
330
1F
100
AcDbEntity
  8
Dim
100
AcDbLine
 10
113.3734236536866
 20
110.8962373936953
 30
0.0
 11
113.3734236536866
 21
-0.6702746285459398
 31
0.0
  0
LINE
  5
81F3
330
1F
100
AcDbEntity
  8
Dim
100
AcDbLine
 10
113.3734236536866
 20
-0.6702746285459398
 30
0.0
 11
27.11748254559108
 21
-0.6702746285459455
 31
0.0
  0
LINE
  5
81F4
330
1F
100
AcDbEntity
  8
Dim
100
AcDbLine
 10
27.11748254559108
 20
-0.6702746285459455
 30
0.0
 11
27.11748254559107
 21
110.8962373936953
 31
0.0
  0
INSERT
  5
197A5
330
1F
100
AcDbEntity
  8
ASHADE
 62
     1
100
AcDbBlockReference
  2
AVE_RENDER
 10
0.0
 20
0.0
 30
0.0
1001
AVE_RENDER
1002
{
1070
     7
1000
Pref
1070
    50
1070
    20
1070
     1
1070
     0
1000

1070
    10
1070
     1
1070
    10
1040
1.0
1070
     1
1040
0.7
1040
1.0
1040
0.0
1040
10.0
1010
-1.0
1020
-1.0
1030
-1.0
1040
0.3
1070
    49
1070
     0
1070
     0
1010
1.0
1020
1.0
1030
1.0
1040
45.0
1070
     1
1070
     0
1000
WCS
1040
0.0
1070
     0
1040
10.0
1002
}
  0
INSERT
  5
197A6
330
1F
100
AcDbEntity
  8
ASHADE
 62
     3
100
AcDbBlockReference
  2
AVE_RENDER
 10
0.0
 20
0.0
 30
0.0
1001
AVE_RENDER
1002
{
1070
     0
1000
Full Opt
1070
     0
1070
     1
1070
     1
1070
     1
1070
     0
1070
     0
1070
     0
1070
     1
1070
     1
1040
0.0001
1040
0.0001
1002
}
  0
INSERT
  5
197A7
330
1F
100
AcDbEntity
  8
ASHADE
 62
     4
100
AcDbBlockReference
  2
AVE_RENDER
 10
0.0
 20
0.0
 30
0.0
1001
AVE_RENDER
1002
{
1070
     0
1000
Quick Opt
1070
     0
1070
     1
1070
     1
1070
     1
1070
     0
1070
     0
1070
     1
1002
}
  0
INSERT
  5
197A8
330
1F
100
AcDbEntity
  8
ASHADE
 62
     5
100
AcDbBlockReference
  2
AVE_RENDER
 10
0.0
 20
0.0
 30
0.0
1001
AVE_RENDER
1002
{
1070
     1
1000
Scanl Opt
1070
     2
1070
     0
1070
     2
1040
2.0
1040
4.0
1070
     0
1070
     1
1070
     0
1040
0.03
1002
}
  0
INSERT
  5
197A9
330
1F
100
AcDbEntity
  8
ASHADE
 62
     6
100
AcDbBlockReference
  2
AVE_RENDER
 10
0.0
 20
0.0
 30
0.0
1001
AVE_RENDER
1002
{
1070
     2
1000
Raytr Opt
1070
     2
1070
     0
1070
     2
1040
2.0
1040
4.0
1070
     0
1070
     1
1070
     1
1040
0.03
1070
     3
1040
0.03
1002
}
  0
INSERT
  5
197AA
330
1F
100
AcDbEntity
  8
ASHADE
 62
     7
100
AcDbBlockReference
  2
AVE_RENDER
 10
0.0
 20
0.0
 30
0.0
1001
AVE_RENDER
1002
{
1070
     0
1000
RFile Opt
1070
     1
1070
   640
1070
   480
1070
 10000
1070
     1
1070
     8
1070
     8
1070
     0
1070
     0
1070
     0
1070
     1
1070
     0
1070
     0
1070
     0
1002
}
  0
INSERT
  5
197AB
330
1F
100
AcDbEntity
  8
ASHADE
 62
     8
100
AcDbBlockReference
  2
AVE_RENDER
 10
0.0
 20
0.0
 30
0.0
1001
AVE_RENDER
1002
{
1070
     0
1000
Fog Opt
1070
     0
1070
     0
1040
0.0
1040
1.0
1040
0.0
1040
1.0
1010
0.5
1020
0.5
1030
0.5
1002
}
  0
INSERT
  5
197AC
330
1F
100
AcDbEntity
  8
ASHADE
 62
     9
100
AcDbBlockReference
  2
AVE_RENDER
 10
0.0
 20
0.0
 30
0.0
1001
AVE_RENDER
1002
{
1070
     0
1000
BG Opt
1070
     0
1070
     1
1010
1.0
1020
1.0
1030
1.0
1010
1.0
1020
0.0
1030
0.0
1010
0.0
1020
1.0
1030
0.0
1010
0.0
1020
0.0
1030
1.0
1040
0.5
1040
0.33
1040
0.0
1000

1070
     1
1000

1070
     1
1070
     1
1040
1.0
1040
1.0
1040
0.0
1040
0.0
1070
     0
1002
}
  0
INSERT
  5
197B3
330
1F
100
AcDbEntity
  8
ASHADE
 62
     1
100
AcDbBlockReference
  2
AVE_GLOBAL
 10
0.0
 20
0.0
 30
0.0
1001
AVE_MATERIAL
1002
{
1000
*GLOBAL*
1000
2
1000
Global finish.
1002
{
1002
}
1002
{
1070
    63
1002
{
1002
{
1010
-1.0
1020
-1.0
1030
-1.0
1002
}
1040
0.6999999880790711
1000

1040
0.0
1002
{
1002
}
1040
0.0
1002
{
1002
}
1040
0.0
1002
}
1002
{
1002
{
1010
-1.0
1020
-1.0
1030
-1.0
1002
}
1040
1.0
1000

1040
0.0
1002
{
1002
}
1040
0.0
1002
{
1002
}
1040
0.0
1002
}
1002
{
1002
{
1010
-1.0
1020
-1.0
1030
-1.0
1002
}
1040
0.2000000029802322
1000

1040
0.0
1002
{
1002
}
1040
0.0
1002
{
1002
}
1040
0.0
1002
}
1002
{
1070
     0
1002
{
1070
     1
1002
{
1040
1.0
1040
1.0
1000

1040
0.0
1002
{
1002
}
1040
0.0
1002
{
1002
}
1040
0.0
1002
}
1002
}
1040
1.0
1040
0.0
1040
0.0
1002
}
1002
{
1040
1.0
1040
1.0
1000

1040
0.0
1002
{
1002
}
1040
0.0
1002
{
1002
}
1040
0.0
1002
}
1002
{
1040
0.5
1040
1.0
1000

1040
0.0
1002
{
1002
}
1040
0.0
1002
{
1002
}
1040
0.0
1002
}
1002
{
1070
     0
1040
0.0
1002
{
1002
}
1040
1.0
1002
{
1002
}
1040
0.0
1002
}
1002
{
1040
0.0
1002
{
1002
{
1010
0.0
1020
0.0
1030
0.0
1002
}
1040
1.0
1000

1040
0.0
1002
{
1002
}
1040
0.0
1002
{
1002
}
1040
0.0
1002
}
1002
}
1002
{
1002
{
1070
     1
1002
{
1040
0.0
1040
1.0
1000

1040
0.0
1002
{
1002
}
1040
0.0
1002
{
1002
}
1040
0.0
1002
}
1002
}
1040
0.0
1002
{
1002
}
1010
1.0
1020
0.0
1030
0.0
1010
0.0
1020
1.0
1030
0.0
1010
0.0
1020
0.0
1030
1.0
1070
     0
1002
}
1002
{
1002
{
1040
1.0
1040
1.0
1002
{
1070
     1
1002
{
1040
1.0
1040
1.0
1000

1040
0.0
1002
{
1002
}
1040
0.0
1002
{
1002
}
1040
0.0
1002
}
1002
}
1002
}
1070
     0
1040
0.0
1002
{
1002
}
1002
}
1002
{
1002
}
1002
}
1002
{
1071
        3
1070
     3
1070
     0
1002
{
1070
     2
1070
     0
1070
     0
1040
0.0
1002
}
1070
     0
1070
     2
1002
{
1002
}
1002
}
1002
{
1040
8030.0
1040
190.3000030517578
1040
0.3050000071525574
1040
228.0
1040
545.0
1040
14.0
1040
17.39999961853027
1040
0.4560000002384186
1002
}
1000

1002
}
  0
MTEXT
  5
1A591
330
1F
100
AcDbEntity
  8
Dim
100
AcDbMText
 10
40.48582483734544
 20
91.72913225133346
 30
0.0
 40
1.0
 41
0.0
 46
0.0
 71
     9
 72
     1
  1
\A1;
  7
Logix
 73
     1
 44
1.0
  0
LWPOLYLINE
  5
1AFCB
330
1F
100
AcDbEntity
  8
Dim
100
AcDbPolyline
 90
        2
 70
     1
 43
0.2
 10
27.21748254559106
 20
-0.6475212664373658
 10
113.2734236536866
 20
-0.6475212664373658
  0
LWPOLYLINE
  5
1AFCC
330
1F
100
AcDbEntity
  8
Dim
100
AcDbPolyline
 90
        2
 70
     1
 43
0.2
 10
27.21748254559107
 20
110.9189907558038
 10
113.2734236536866
 20
110.9189907558038
  0
LWPOLYLINE
  5
1AFCE
330
1F
100
AcDbEntity
  8
Dim
100
AcDbPolyline
 90
        2
 70
     1
 43
0.2
 10
113.2734236536866
 20
110.9189907558038
 10
113.3734236536866
 20
-0.6702746285459398
  0
LWPOLYLINE
  5
1AFCF
330
1F
100
AcDbEntity
  8
Dim
100
AcDbPolyline
 90
        2
 70
     1
 43
0.2
 10
27.21748254559107
 20
110.9189907558038
 10
27.11748254559108
 20
-0.6702746285459398
  0
LWPOLYLINE
  5
1AFD9
330
1F
100
AcDbEntity
  8
Conc
100
AcDbPolyline
 90
        4
 70
     1
 43
0.0
 10
27.09837136382942
 20
111.0424789585042
 10
113.4754913651642
 20
111.0424789585042
 10
113.4754913651642
 20
-0.7465694939592141
 10
27.09837136382942
 20
-0.7465694939592141
  0
MTEXT
  5
1D2E6
330
1F
100
AcDbEntity
  8
Dim
100
AcDbMText
 10
368.7941963072877
 20
44.93883691413884
 30
0.0
 40
1.05
 41
0.0
 46
0.0
 71
     1
 72
     1
  1
\A1;
 73
     1
 44
1.0
  0
HATCH
  5
2A91C
330
1F
100
AcDbEntity
  8
Conc
100
AcDbHatch
 10
0.0
 20
0.0
 30
0.0
210
0.0
220
0.0
230
1.0
  2
AR-CONC
 70
     0
 71
     0
 91
        1
 92
        1
 93
        3
 72
     1
 10
71.00619848543097
 20
105.8056920740881
 11
71.00620346089232
 21
105.8056784041204
 72
     1
 10
71.00620346089232
 20
105.8056784041204
 11
71.00677006189719
 21
105.8054876332146
 72
     1
 10
71.00677006189719
 20
105.8054876332146
 11
71.00619848543097
 21
105.8056920740881
 97
        0
 75
     0
 76
     1
 52
0.0
 41
0.3333333333333333
 77
     0
 78
    13
 53
50.0
 43
-82.01150614025969
 44
-32.1456469918977
 45
2.390867275335844
 46
-0.209173783275317
 79
     2
 49
0.25
 49
-2.75
 53
355.0
 43
-82.01150614025969
 44
-32.1456469918977
 45
-0.4625044453766667
 46
2.507307112333372
 79
     2
 49
0.2
 49
-2.199999999999999
 53
100.4514
 43
-81.81226720692636
 44
-32.16307812523103
 45
1.928364605713405
 46
2.298131806869845
 79
     2
 49
0.2124672999999999
 49
-2.337140373333331
 53
46.1842
 43
-82.01150614025969
 44
-31.47898032523103
 45
3.557470162085481
 46
-0.5517300477633935
 79
     2
 49
0.375
 49
-4.125
 53
96.63559999999998
 43
-81.71505032359304
 44
-31.52495801523103
 45
3.11554235182901
 46
3.247059569668139
 79
     2
 49
0.3187009599999998
 49
-3.505709999999997
 53
351.1842000000001
 43
-82.01150614025969
 44
-31.47898032523103
 45
3.11553981711209
 46
3.247062003084415
 79
     2
 49
0.3
 49
-3.3
 53
21.0
 43
-81.67817280692636
 44
-31.6456469918977
 45
1.989690173728205
 46
-1.342062968884462
 79
     2
 49
0.25
 49
-2.75
 53
326.0
 43
-81.67817280692636
 44
-31.6456469918977
 45
0.8110511064052722
 46
2.417166816822843
 79
     2
 49
0.2
 49
-2.199999999999999
 53
71.45140000000001
 43
-81.51236536359304
 44
-31.75748567856436
 45
2.800742095271632
 46
1.075101655699841
 79
     2
 49
0.2124673
 49
-2.337140373333332
 53
37.5
 43
-82.01150614025969
 44
-32.1456469918977
 45
0.0405328510576356
 46
1.109646179437704
 79
     6
 49
0.0
 49
-2.173333333333332
 49
0.0
 49
-2.233333333333333
 49
0.0
 49
-2.208333333333333
 53
7.499999999999999
 43
-82.01150614025969
 44
-32.1456469918977
 45
0.8768984581404952
 46
1.314705706274533
 79
     6
 49
0.0
 49
-1.273333333333333
 49
0.0
 49
-2.123333333333333
 49
0.0
 49
-0.8416666666666666
 53
327.5
 43
-82.75483947359303
 44
-32.1456469918977
 45
1.779408120574696
 46
-0.075182905781266
 79
     6
 49
0.0
 49
-0.8333333333333332
 49
0.0
 49
-2.599999999999999
 49
0.0
 49
-3.449999999999999
 53
317.5
 43
-83.08817280692636
 44
-32.1456469918977
 45
1.943953897807953
 46
0.3336832744410588
 79
     6
 49
0.0
 49
-1.083333333333333
 49
0.0
 49
-1.726666666666666
 49
0.0
 49
-2.449999999999999
 98
        1
 10
-82.01150614025969
 20
-32.1456469918977
1001
ACAD
1010
0.0
1020
0.0
1030
0.0
  0
LINE
  5
2AC7B
102
{ACAD_REACTORS
330
2AE29
330
2AE57
102
}
330
1F
100
AcDbEntity
  8
Block
100
AcDbLine
 10
67.43468351400853
 20
57.8121474071549
 30
0.0
 11
67.43468351400853
 21
37.04622261236
 31
0.0
  0
LINE
  5
2AC7D
330
1F
100
AcDbEntity
  8
Block
100
AcDbLine
 10
63.30968351400852
 20
37.04622261236
 30
0.0
 11
63.30968351400852
 21
57.8121474071549
 31
0.0
  0
LINE
  5
2AC7E
330
1F
100
AcDbEntity
  8
Block
100
AcDbLine
 10
63.30968351400852
 20
57.8121474071549
 30
0.0
 11
67.43468351400853
 21
57.8121474071549
 31
0.0
  0
LINE
  5
2AC7F
330
1F
100
AcDbEntity
  8
Block
100
AcDbLine
 10
77.55968351400861
 20
57.8121474071549
 30
0.0
 11
77.55968351400861
 21
37.04622261236
 31
0.0
  0
LINE
  5
2AC81
102
{ACAD_REACTORS
330
2AE29
102
}
330
1F
100
AcDbEntity
  8
Block
100
AcDbLine
 10
73.43468351400861
 20
37.04622261236
 30
0.0
 11
73.43468351400861
 21
57.8121474071549
 31
0.0
  0
LINE
  5
2AC82
330
1F
100
AcDbEntity
  8
Block
100
AcDbLine
 10
73.43468351400861
 20
57.8121474071549
 30
0.0
 11
77.55968351400861
 21
57.8121474071549
 31
0.0
  0
ARC
  5
2ACE0
330
1F
100
AcDbEntity
  8
Web
  6
HIDDEN
100
AcDbCircle
 10
68.41718351400854
 20
44.12464740715494
 30
0.0
 40
1.125
100
AcDbArc
 50
209.1516643022508
 51
270.0
  0
ARC
  5
2ACE1
330
1F
100
AcDbEntity
  8
Web
  6
HIDDEN
100
AcDbCircle
 10
72.45218351400862
 20
44.12464740715494
 30
0.0
 40
1.125
100
AcDbArc
 50
270.0
 51
330.8483356977486
  0
LINE
  5
2ACE2
330
1F
100
AcDbEntity
  8
Web
  6
HIDDEN
100
AcDbLine
 10
73.43468351400824
 20
40.74964740715476
 30
0.0
 11
72.24512580034965
 21
40.74964740715476
 31
0.0
  0
ARC
  5
2ACE3
330
1F
100
AcDbEntity
  8
Web
  6
HIDDEN
100
AcDbCircle
 10
71.93468351400892
 20
41.12464740715494
 30
0.0
 40
0.375
100
AcDbArc
 50
0.0
 51
180.0
  0
LINE
  5
2ACE4
330
1F
100
AcDbEntity
  8
Web
  6
HIDDEN
100
AcDbLine
 10
70.99718351400892
 20
41.31214740715494
 30
0.0
 11
70.99718351400892
 21
40.74964740715476
 31
0.0
  0
LINE
  5
2ACE5
330
1F
100
AcDbEntity
  8
Web
  6
HIDDEN
100
AcDbLine
 10
71.55968351400824
 20
41.12464740715494
 30
0.0
 11
71.55968351400824
 21
40.74964740715476
 31
0.0
  0
LINE
  5
2ACE6
330
1F
100
AcDbEntity
  8
Web
  6
HIDDEN
100
AcDbLine
 10
72.30968351400858
 20
41.12464740715494
 30
0.0
 11
72.30968351400858
 21
40.74964740715476
 31
0.0
  0
LINE
  5
2ACE7
330
1F
100
AcDbEntity
  8
Web
  6
HIDDEN
100
AcDbLine
 10
71.55968351400824
 20
41.04528215225518
 30
0.0
 11
71.65207659797633
 21
40.79143424034042
 31
0.0
  0
LINE
  5
2ACE8
330
1F
100
AcDbEntity
  8
Web
  6
HIDDEN
100
AcDbLine
 10
71.64372679925347
 20
40.76089740715501
 30
0.0
 11
71.65041908559371
 21
40.77248878711559
 31
0.0
  0
ARC
  5
2ACE9
330
1F
100
AcDbEntity
  8
Web
  6
HIDDEN
100
AcDbCircle
 10
71.63093351400843
 20
40.78373878711549
 30
0.0
 40
0.0225
100
AcDbArc
 50
329.9999999999936
 51
20.00000000000703
  0
ARC
  5
2ACEA
330
1F
100
AcDbEntity
  8
Web
  6
HIDDEN
100
AcDbCircle
 10
71.62424122766819
 20
40.77214740715492
 30
0.0
 40
0.0225
100
AcDbArc
 50
270.0
 51
330.0000000000232
  0
ARC
  5
2ACEB
330
1F
100
AcDbEntity
  8
Web
  6
HIDDEN
100
AcDbCircle
 10
72.24512580034965
 20
40.77214740715492
 30
0.0
 40
0.0225
100
AcDbArc
 50
209.9999999999763
 51
270.0
  0
LINE
  5
2ACEC
330
1F
100
AcDbEntity
  8
Web
  6
HIDDEN
100
AcDbLine
 10
72.22564022876437
 20
40.76089740715501
 30
0.0
 11
72.21894794242311
 21
40.77248878711559
 31
0.0
  0
ARC
  5
2ACED
330
1F
100
AcDbEntity
  8
Web
  6
HIDDEN
100
AcDbCircle
 10
72.23843351400873
 20
40.78373878711549
 30
0.0
 40
0.0225
100
AcDbArc
 50
159.999999999993
 51
210.0000000000063
  0
LINE
  5
2ACEE
330
1F
100
AcDbEntity
  8
Web
  6
HIDDEN
100
AcDbLine
 10
72.30968351400858
 20
41.04528215225518
 30
0.0
 11
72.21729043004083
 21
40.79143424034042
 31
0.0
  0
LINE
  5
2ACEF
330
1F
100
AcDbEntity
  8
Web
  6
HIDDEN
100
AcDbLine
 10
70.99718351400892
 20
40.74964740715476
 30
0.0
 11
71.62424122766819
 21
40.74964740715476
 31
0.0
  0
ARC
  5
2ACF0
330
1F
100
AcDbEntity
  8
Web
  6
HIDDEN
100
AcDbCircle
 10
68.93468351400859
 20
41.12464740715494
 30
0.0
 40
0.375
100
AcDbArc
 50
0.0
 51
180.0
  0
LINE
  5
2ACF1
330
1F
100
AcDbEntity
  8
Web
  6
HIDDEN
100
AcDbLine
 10
69.87218351400859
 20
41.31214740715494
 30
0.0
 11
69.87218351400859
 21
40.74964740715476
 31
0.0
  0
LINE
  5
2ACF2
330
1F
100
AcDbEntity
  8
Web
  6
HIDDEN
100
AcDbLine
 10
67.43468351400892
 20
40.74964740715476
 30
0.0
 11
68.62424122766819
 21
40.74964740715476
 31
0.0
  0
LINE
  5
2ACF3
330
1F
100
AcDbEntity
  8
Web
  6
HIDDEN
100
AcDbLine
 10
68.55968351400858
 20
41.04528215225518
 30
0.0
 11
68.65207659797633
 21
40.79143424034042
 31
0.0
  0
ARC
  5
2ACF4
330
1F
100
AcDbEntity
  8
Web
  6
HIDDEN
100
AcDbCircle
 10
68.63093351400843
 20
40.78373878711549
 30
0.0
 40
0.0225
100
AcDbArc
 50
329.9999999999926
 51
20.00000000000703
  0
LINE
  5
2ACF5
330
1F
100
AcDbEntity
  8
Web
  6
HIDDEN
100
AcDbLine
 10
68.64372679925313
 20
40.76089740715501
 30
0.0
 11
68.65041908559405
 21
40.77248878711559
 31
0.0
  0
ARC
  5
2ACF6
330
1F
100
AcDbEntity
  8
Web
  6
HIDDEN
100
AcDbCircle
 10
68.62424122766819
 20
40.77214740715492
 30
0.0
 40
0.0225
100
AcDbArc
 50
270.0
 51
330.0000000000232
  0
LINE
  5
2ACF7
330
1F
100
AcDbEntity
  8
Web
  6
HIDDEN
100
AcDbLine
 10
68.55968351400858
 20
41.12464740715494
 30
0.0
 11
68.55968351400858
 21
40.74964740715476
 31
0.0
  0
ARC
  5
2ACF8
330
1F
100
AcDbEntity
  8
Web
  6
HIDDEN
100
AcDbCircle
 10
69.24512580034897
 20
40.77214740715492
 30
0.0
 40
0.0225
100
AcDbArc
 50
209.9999999999763
 51
270.0
  0
ARC
  5
2ACF9
330
1F
100
AcDbEntity
  8
Web
  6
HIDDEN
100
AcDbCircle
 10
69.23843351400873
 20
40.78373878711549
 30
0.0
 40
0.0225
100
AcDbArc
 50
159.999999999993
 51
210.0000000000063
  0
LINE
  5
2ACFA
330
1F
100
AcDbEntity
  8
Web
  6
HIDDEN
100
AcDbLine
 10
69.22564022876404
 20
40.76089740715501
 30
0.0
 11
69.21894794242345
 21
40.77248878711559
 31
0.0
  0
LINE
  5
2ACFB
330
1F
100
AcDbEntity
  8
Web
  6
HIDDEN
100
AcDbLine
 10
69.30968351400892
 20
41.04528215225518
 30
0.0
 11
69.21729043004117
 21
40.79143424034042
 31
0.0
  0
LINE
  5
2ACFC
330
1F
100
AcDbEntity
  8
Web
  6
HIDDEN
100
AcDbLine
 10
69.30968351400892
 20
41.12464740715494
 30
0.0
 11
69.30968351400892
 21
40.74964740715476
 31
0.0
  0
LINE
  5
2ACFD
330
1F
100
AcDbEntity
  8
Web
  6
HIDDEN
100
AcDbLine
 10
69.87218351400859
 20
40.74964740715476
 30
0.0
 11
69.24512580034897
 21
40.74964740715476
 31
0.0
  0
LINE
  5
2ACFE
330
1F
100
AcDbEntity
  8
Web
  6
HIDDEN
100
AcDbLine
 10
72.45218351400862
 20
42.99964740715494
 30
0.0
 11
68.41718351400854
 21
42.99964740715494
 31
0.0
  0
ARC
  5
2ACFF
330
1F
100
AcDbEntity
  8
Web
  6
HIDDEN
100
AcDbCircle
 10
70.43468351400858
 20
41.31214740715494
 30
0.0
 40
0.5625000000000001
100
AcDbArc
 50
0.0
 51
180.0
  0
LINE
  5
2AD00
330
1F
100
AcDbEntity
  8
Web
  6
HIDDEN
100
AcDbLine
 10
73.43468351400824
 20
50.87464740715494
 30
0.0
 11
72.24512580034965
 21
50.87464740715494
 31
0.0
  0
LINE
  5
2AD01
330
1F
100
AcDbEntity
  8
Web
  6
HIDDEN
100
AcDbLine
 10
71.55968351400824
 20
50.57901266205452
 30
0.0
 11
71.65207659797633
 21
50.83286057396946
 31
0.0
  0
LINE
  5
2AD02
330
1F
100
AcDbEntity
  8
Web
  6
HIDDEN
100
AcDbLine
 10
71.64372679925347
 20
50.86339740715486
 30
0.0
 11
71.65041908559371
 21
50.8518060271942
 31
0.0
  0
ARC
  5
2AD03
330
1F
100
AcDbEntity
  8
Web
  6
HIDDEN
100
AcDbCircle
 10
71.63093351400843
 20
50.84055602719421
 30
0.0
 40
0.0225
100
AcDbArc
 50
339.9999999999929
 51
30.00000000000628
  0
ARC
  5
2AD04
330
1F
100
AcDbEntity
  8
Web
  6
HIDDEN
100
AcDbCircle
 10
71.62424122766819
 20
50.85214740715487
 30
0.0
 40
0.0225
100
AcDbArc
 50
29.99999999997672
 51
90.0
  0
LINE
  5
2AD05
330
1F
100
AcDbEntity
  8
Web
  6
HIDDEN
100
AcDbLine
 10
70.99718351400892
 20
50.87464740715494
 30
0.0
 11
71.62424122766819
 21
50.87464740715494
 31
0.0
  0
LINE
  5
2AD06
330
1F
100
AcDbEntity
  8
Web
  6
HIDDEN
100
AcDbLine
 10
71.55968351400824
 20
50.49964740715494
 30
0.0
 11
71.55968351400824
 21
50.87464740715494
 31
0.0
  0
ARC
  5
2AD07
330
1F
100
AcDbEntity
  8
Web
  6
HIDDEN
100
AcDbCircle
 10
72.24512580034965
 20
50.85214740715487
 30
0.0
 40
0.0225
100
AcDbArc
 50
90.0
 51
150.0000000000232
  0
LINE
  5
2AD08
330
1F
100
AcDbEntity
  8
Web
  6
HIDDEN
100
AcDbLine
 10
72.22564022876437
 20
50.86339740715486
 30
0.0
 11
72.21894794242311
 21
50.8518060271942
 31
0.0
  0
ARC
  5
2AD09
330
1F
100
AcDbEntity
  8
Web
  6
HIDDEN
100
AcDbCircle
 10
72.23843351400873
 20
50.84055602719421
 30
0.0
 40
0.0225
100
AcDbArc
 50
149.9999999999936
 51
200.0000000000069
  0
LINE
  5
2AD0A
330
1F
100
AcDbEntity
  8
Web
  6
HIDDEN
100
AcDbLine
 10
72.30968351400858
 20
50.57901266205452
 30
0.0
 11
72.21729043004083
 21
50.83286057396946
 31
0.0
  0
LINE
  5
2AD0B
330
1F
100
AcDbEntity
  8
Web
  6
HIDDEN
100
AcDbLine
 10
72.30968351400858
 20
50.49964740715494
 30
0.0
 11
72.30968351400858
 21
50.87464740715494
 31
0.0
  0
LINE
  5
2AD0C
330
1F
100
AcDbEntity
  8
Web
  6
HIDDEN
100
AcDbLine
 10
70.99718351400892
 20
50.31214740715485
 30
0.0
 11
70.99718351400892
 21
50.87464740715494
 31
0.0
  0
ARC
  5
2AD0D
330
1F
100
AcDbEntity
  8
Web
  6
HIDDEN
100
AcDbCircle
 10
71.93468351400892
 20
50.49964740715494
 30
0.0
 40
0.375
100
AcDbArc
 50
180.0
 51
0.0
  0
ARC
  5
2AD0E
330
1F
100
AcDbEntity
  8
Web
  6
HIDDEN
100
AcDbCircle
 10
72.45218351400862
 20
47.49964740715485
 30
0.0
 40
1.125
100
AcDbArc
 50
29.15166430225085
 51
90.0
  0
ARC
  5
2AD0F
330
1F
100
AcDbEntity
  8
Web
  6
HIDDEN
100
AcDbCircle
 10
68.41718351400854
 20
47.49964740715485
 30
0.0
 40
1.125
100
AcDbArc
 50
90.0
 51
150.8483356977486
  0
LINE
  5
2AD10
330
1F
100
AcDbEntity
  8
Web
  6
HIDDEN
100
AcDbLine
 10
67.43468351400892
 20
50.87464740715494
 30
0.0
 11
68.62424122766819
 21
50.87464740715494
 31
0.0
  0
LINE
  5
2AD11
330
1F
100
AcDbEntity
  8
Web
  6
HIDDEN
100
AcDbLine
 10
69.87218351400859
 20
50.87464740715494
 30
0.0
 11
69.24512580034897
 21
50.87464740715494
 31
0.0
  0
LINE
  5
2AD12
330
1F
100
AcDbEntity
  8
Web
  6
HIDDEN
100
AcDbLine
 10
69.30968351400892
 20
50.49964740715494
 30
0.0
 11
69.30968351400892
 21
50.87464740715494
 31
0.0
  0
LINE
  5
2AD13
330
1F
100
AcDbEntity
  8
Web
  6
HIDDEN
100
AcDbLine
 10
68.55968351400858
 20
50.49964740715494
 30
0.0
 11
68.55968351400858
 21
50.87464740715494
 31
0.0
  0
LINE
  5
2AD14
330
1F
100
AcDbEntity
  8
Web
  6
HIDDEN
100
AcDbLine
 10
69.30968351400892
 20
50.57901266205452
 30
0.0
 11
69.21729043004117
 21
50.83286057396946
 31
0.0
  0
LINE
  5
2AD15
330
1F
100
AcDbEntity
  8
Web
  6
HIDDEN
100
AcDbLine
 10
69.22564022876404
 20
50.86339740715486
 30
0.0
 11
69.21894794242345
 21
50.8518060271942
 31
0.0
  0
ARC
  5
2AD16
330
1F
100
AcDbEntity
  8
Web
  6
HIDDEN
100
AcDbCircle
 10
69.23843351400873
 20
50.84055602719421
 30
0.0
 40
0.0225
100
AcDbArc
 50
149.9999999999936
 51
200.0000000000069
  0
ARC
  5
2AD17
330
1F
100
AcDbEntity
  8
Web
  6
HIDDEN
100
AcDbCircle
 10
69.24512580034897
 20
50.85214740715487
 30
0.0
 40
0.0225
100
AcDbArc
 50
90.0
 51
150.0000000000232
  0
ARC
  5
2AD18
330
1F
100
AcDbEntity
  8
Web
  6
HIDDEN
100
AcDbCircle
 10
68.62424122766819
 20
50.85214740715487
 30
0.0
 40
0.0225
100
AcDbArc
 50
29.99999999997672
 51
90.0
  0
LINE
  5
2AD19
330
1F
100
AcDbEntity
  8
Web
  6
HIDDEN
100
AcDbLine
 10
68.64372679925313
 20
50.86339740715486
 30
0.0
 11
68.65041908559405
 21
50.8518060271942
 31
0.0
  0
ARC
  5
2AD1A
330
1F
100
AcDbEntity
  8
Web
  6
HIDDEN
100
AcDbCircle
 10
68.63093351400843
 20
50.84055602719421
 30
0.0
 40
0.0225
100
AcDbArc
 50
339.9999999999929
 51
30.00000000000628
  0
LINE
  5
2AD1B
330
1F
100
AcDbEntity
  8
Web
  6
HIDDEN
100
AcDbLine
 10
68.55968351400858
 20
50.57901266205452
 30
0.0
 11
68.65207659797633
 21
50.83286057396946
 31
0.0
  0
LINE
  5
2AD1C
330
1F
100
AcDbEntity
  8
Web
  6
HIDDEN
100
AcDbLine
 10
69.87218351400859
 20
50.31214740715485
 30
0.0
 11
69.87218351400859
 21
50.87464740715494
 31
0.0
  0
ARC
  5
2AD1D
330
1F
100
AcDbEntity
  8
Web
  6
HIDDEN
100
AcDbCircle
 10
68.93468351400859
 20
50.49964740715494
 30
0.0
 40
0.375
100
AcDbArc
 50
180.0
 51
0.0
  0
LINE
  5
2AD1E
330
1F
100
AcDbEntity
  8
Web
  6
HIDDEN
100
AcDbLine
 10
72.45218351400862
 20
48.62464740715494
 30
0.0
 11
68.41718351400854
 21
48.62464740715494
 31
0.0
  0
ARC
  5
2AD1F
330
1F
100
AcDbEntity
  8
Web
  6
HIDDEN
100
AcDbCircle
 10
70.43468351400858
 20
50.31214740715485
 30
0.0
 40
0.5625000000000001
100
AcDbArc
 50
180.0
 51
0.0
  0
LINE
  5
2AD20
330
1F
100
AcDbEntity
  8
Block
100
AcDbLine
 10
67.43468351400853
 20
48.04766086501881
 30
0.0
 11
67.43468351400853
 21
43.57663394929098
 31
0.0
  0
LINE
  5
2AD21
330
1F
100
AcDbEntity
  8
Block
100
AcDbLine
 10
73.43468351400861
 20
48.04766086501881
 30
0.0
 11
73.43468351400861
 21
43.57663394929098
 31
0.0
  0
HATCH
  5
2AD22
330
1F
100
AcDbEntity
  8
Hatch
100
AcDbHatch
 10
0.0
 20
0.0
 30
0.0
210
0.0
220
0.0
230
1.0
  2
SACNCR
 70
     0
 71
     0
 91
        2
 92
        5
 93
        4
 72
     1
 10
73.43468351400861
 20
37.04622261235999
 11
77.55968351400861
 21
37.04622261236
 72
     1
 10
77.55968351400861
 20
37.04622261236
 11
77.55968351400861
 21
57.8121474071549
 72
     1
 10
77.55968351400861
 20
57.8121474071549
 11
73.43468351400861
 21
57.8121474071549
 72
     1
 10
73.43468351400861
 20
57.8121474071549
 11
73.43468351400861
 21
37.04622261235999
 97
        0
 92
        5
 93
        4
 72
     1
 10
63.30968351400852
 20
37.04622261236
 11
67.43468351400849
 21
37.04622261236
 72
     1
 10
67.43468351400849
 20
37.04622261236
 11
67.43468351400853
 21
57.8121474071549
 72
     1
 10
67.43468351400853
 20
57.8121474071549
 11
63.30968351400852
 21
57.8121474071549
 72
     1
 10
63.30968351400852
 20
57.8121474071549
 11
63.30968351400852
 21
37.04622261236
 97
        0
 75
     0
 76
     1
 52
0.0
 41
15.0
 77
     0
 78
     2
 53
45.0
 43
-1.027033592785187
 44
0.0
 45
-0.9943689110435823
 46
0.9943689110435826
 79
     0
 53
45.0
 43
-0.0326646777851876
 44
0.0
 45
-0.9943689110435823
 46
0.9943689110435826
 79
     2
 49
0.0
 49
-1.40625
 47
0.0623239743625045
 98
        2
 10
75.49718351400861
 20
47.42918500975744
 10
65.37218351400852
 20
47.42918500975746
1001
ACAD
1010
0.0
1020
0.0
1030
0.0
  0
HATCH
  5
2AD23
330
1F
100
AcDbEntity
  8
Hatch
100
AcDbHatch
 10
0.0
 20
0.0
 30
0.0
210
0.0
220
0.0
230
1.0
  2
SACNCR
 70
     0
 71
     1
 91
        2
 92
        1
 93
        4
 72
     1
 10
73.43468351400861
 20
81.81214740715489
 11
77.55968351400861
 21
81.81214740715489
 72
     1
 10
77.55968351400861
 20
81.81214740715489
 11
77.55968351400861
 21
57.8121474071549
 72
     1
 10
77.55968351400861
 20
57.8121474071549
 11
73.43468351400861
 21
57.8121474071549
 72
     1
 10
73.43468351400861
 20
57.8121474071549
 11
73.43468351400861
 21
81.81214740715489
 97
        4
330
2AD2B
330
2AD28
330
2AD29
330
2AD2A
 92
        1
 93
        4
 72
     1
 10
63.30968351400852
 20
81.81214740715489
 11
67.43468351400853
 21
81.81214740715489
 72
     1
 10
67.43468351400853
 20
81.81214740715489
 11
67.43468351400853
 21
57.8121474071549
 72
     1
 10
67.43468351400853
 20
57.8121474071549
 11
63.30968351400852
 21
57.8121474071549
 72
     1
 10
63.30968351400852
 20
57.8121474071549
 11
63.30968351400852
 21
81.81214740715489
 97
        4
330
2AD27
330
2AD24
330
2AD25
330
2AD26
 75
     0
 76
     1
 52
0.0
 41
15.0
 77
     0
 78
     2
 53
45.0
 43
-1.027033592785187
 44
0.0
 45
-0.9943689110435823
 46
0.9943689110435826
 79
     0
 53
45.0
 43
-0.0326646777851876
 44
0.0
 45
-0.9943689110435823
 46
0.9943689110435826
 79
     2
 49
0.0
 49
-1.40625
 98
        1
 10
-214.3803105164997
 20
-40.93242824733368
1001
ACAD
1010
0.0
1020
0.0
1030
0.0
  0
LINE
  5
2AD24
102
{ACAD_REACTORS
330
2AD23
330
2AE29
102
}
330
1F
100
AcDbEntity
  8
Block
100
AcDbLine
 10
67.43468351400853
 20
81.81214740715489
 30
0.0
 11
67.43468351400853
 21
57.8121474071549
 31
0.0
  0
LINE
  5
2AD25
102
{ACAD_REACTORS
330
2AD23
102
}
330
1F
100
AcDbEntity
  8
Block
100
AcDbLine
 10
67.43468351400853
 20
57.8121474071549
 30
0.0
 11
63.30968351400852
 21
57.8121474071549
 31
0.0
  0
LINE
  5
2AD26
102
{ACAD_REACTORS
330
2AD23
102
}
330
1F
100
AcDbEntity
  8
Block
100
AcDbLine
 10
63.30968351400852
 20
57.8121474071549
 30
0.0
 11
63.30968351400852
 21
81.81214740715489
 31
0.0
  0
LINE
  5
2AD27
102
{ACAD_REACTORS
330
2AD23
102
}
330
1F
100
AcDbEntity
  8
Block
100
AcDbLine
 10
63.30968351400852
 20
81.81214740715489
 30
0.0
 11
67.43468351400853
 21
81.81214740715489
 31
0.0
  0
LINE
  5
2AD28
102
{ACAD_REACTORS
330
2AD23
102
}
330
1F
100
AcDbEntity
  8
Block
100
AcDbLine
 10
77.55968351400861
 20
81.81214740715489
 30
0.0
 11
77.55968351400861
 21
57.8121474071549
 31
0.0
  0
LINE
  5
2AD29
102
{ACAD_REACTORS
330
2AD23
102
}
330
1F
100
AcDbEntity
  8
Block
100
AcDbLine
 10
77.55968351400861
 20
57.8121474071549
 30
0.0
 11
73.43468351400861
 21
57.8121474071549
 31
0.0
  0
LINE
  5
2AD2A
102
{ACAD_REACTORS
330
2AD23
330
2AE29
102
}
330
1F
100
AcDbEntity
  8
Block
100
AcDbLine
 10
73.43468351400861
 20
57.8121474071549
 30
0.0
 11
73.43468351400861
 21
81.81214740715489
 31
0.0
  0
LINE
  5
2AD2B
102
{ACAD_REACTORS
330
2AD23
102
}
330
1F
100
AcDbEntity
  8
Block
100
AcDbLine
 10
73.43468351400861
 20
81.81214740715489
 30
0.0
 11
77.55968351400861
 21
81.81214740715489
 31
0.0
  0
ARC
  5
2AD2C
330
1F
100
AcDbEntity
  8
Web
  6
HIDDEN
100
AcDbCircle
 10
68.41718351400854
 20
68.12464740715494
 30
0.0
 40
1.125
100
AcDbArc
 50
209.1516643022508
 51
270.0
  0
ARC
  5
2AD2D
330
1F
100
AcDbEntity
  8
Web
  6
HIDDEN
100
AcDbCircle
 10
72.45218351400862
 20
68.12464740715494
 30
0.0
 40
1.125
100
AcDbArc
 50
270.0
 51
330.8483356977486
  0
LINE
  5
2AD2E
330
1F
100
AcDbEntity
  8
Web
  6
HIDDEN
100
AcDbLine
 10
73.43468351400824
 20
64.74964740715477
 30
0.0
 11
72.24512580034965
 21
64.74964740715477
 31
0.0
  0
ARC
  5
2AD2F
330
1F
100
AcDbEntity
  8
Web
  6
HIDDEN
100
AcDbCircle
 10
71.93468351400892
 20
65.12464740715493
 30
0.0
 40
0.375
100
AcDbArc
 50
0.0
 51
180.0
  0
LINE
  5
2AD30
330
1F
100
AcDbEntity
  8
Web
  6
HIDDEN
100
AcDbLine
 10
70.99718351400892
 20
65.31214740715494
 30
0.0
 11
70.99718351400892
 21
64.74964740715477
 31
0.0
  0
LINE
  5
2AD31
330
1F
100
AcDbEntity
  8
Web
  6
HIDDEN
100
AcDbLine
 10
71.55968351400824
 20
65.12464740715493
 30
0.0
 11
71.55968351400824
 21
64.74964740715477
 31
0.0
  0
LINE
  5
2AD32
330
1F
100
AcDbEntity
  8
Web
  6
HIDDEN
100
AcDbLine
 10
72.30968351400858
 20
65.12464740715493
 30
0.0
 11
72.30968351400858
 21
64.74964740715477
 31
0.0
  0
LINE
  5
2AD33
330
1F
100
AcDbEntity
  8
Web
  6
HIDDEN
100
AcDbLine
 10
71.55968351400824
 20
65.04528215225518
 30
0.0
 11
71.65207659797633
 21
64.79143424034042
 31
0.0
  0
LINE
  5
2AD34
330
1F
100
AcDbEntity
  8
Web
  6
HIDDEN
100
AcDbLine
 10
71.64372679925347
 20
64.76089740715501
 30
0.0
 11
71.65041908559371
 21
64.77248878711559
 31
0.0
  0
ARC
  5
2AD35
330
1F
100
AcDbEntity
  8
Web
  6
HIDDEN
100
AcDbCircle
 10
71.63093351400843
 20
64.7837387871155
 30
0.0
 40
0.0225
100
AcDbArc
 50
329.9999999999936
 51
20.00000000000696
  0
ARC
  5
2AD36
330
1F
100
AcDbEntity
  8
Web
  6
HIDDEN
100
AcDbCircle
 10
71.62424122766819
 20
64.77214740715492
 30
0.0
 40
0.0225
100
AcDbArc
 50
270.0
 51
330.0000000000232
  0
ARC
  5
2AD37
330
1F
100
AcDbEntity
  8
Web
  6
HIDDEN
100
AcDbCircle
 10
72.24512580034965
 20
64.77214740715492
 30
0.0
 40
0.0225
100
AcDbArc
 50
209.9999999999763
 51
270.0
  0
LINE
  5
2AD38
330
1F
100
AcDbEntity
  8
Web
  6
HIDDEN
100
AcDbLine
 10
72.22564022876437
 20
64.76089740715501
 30
0.0
 11
72.21894794242311
 21
64.77248878711559
 31
0.0
  0
ARC
  5
2AD39
330
1F
100
AcDbEntity
  8
Web
  6
HIDDEN
100
AcDbCircle
 10
72.23843351400873
 20
64.7837387871155
 30
0.0
 40
0.0225
100
AcDbArc
 50
159.999999999993
 51
210.0000000000063
  0
LINE
  5
2AD3A
330
1F
100
AcDbEntity
  8
Web
  6
HIDDEN
100
AcDbLine
 10
72.30968351400858
 20
65.04528215225518
 30
0.0
 11
72.21729043004083
 21
64.79143424034042
 31
0.0
  0
LINE
  5
2AD3B
330
1F
100
AcDbEntity
  8
Web
  6
HIDDEN
100
AcDbLine
 10
70.99718351400892
 20
64.74964740715477
 30
0.0
 11
71.62424122766819
 21
64.74964740715477
 31
0.0
  0
ARC
  5
2AD3C
330
1F
100
AcDbEntity
  8
Web
  6
HIDDEN
100
AcDbCircle
 10
68.93468351400859
 20
65.12464740715493
 30
0.0
 40
0.375
100
AcDbArc
 50
0.0
 51
180.0
  0
LINE
  5
2AD3D
330
1F
100
AcDbEntity
  8
Web
  6
HIDDEN
100
AcDbLine
 10
69.87218351400859
 20
65.31214740715494
 30
0.0
 11
69.87218351400859
 21
64.74964740715477
 31
0.0
  0
LINE
  5
2AD3E
330
1F
100
AcDbEntity
  8
Web
  6
HIDDEN
100
AcDbLine
 10
67.43468351400892
 20
64.74964740715477
 30
0.0
 11
68.62424122766819
 21
64.74964740715477
 31
0.0
  0
LINE
  5
2AD3F
330
1F
100
AcDbEntity
  8
Web
  6
HIDDEN
100
AcDbLine
 10
68.55968351400858
 20
65.04528215225518
 30
0.0
 11
68.65207659797633
 21
64.79143424034042
 31
0.0
  0
ARC
  5
2AD40
330
1F
100
AcDbEntity
  8
Web
  6
HIDDEN
100
AcDbCircle
 10
68.63093351400843
 20
64.7837387871155
 30
0.0
 40
0.0225
100
AcDbArc
 50
329.9999999999926
 51
20.00000000000696
  0
LINE
  5
2AD41
330
1F
100
AcDbEntity
  8
Web
  6
HIDDEN
100
AcDbLine
 10
68.64372679925313
 20
64.76089740715501
 30
0.0
 11
68.65041908559405
 21
64.77248878711559
 31
0.0
  0
ARC
  5
2AD42
330
1F
100
AcDbEntity
  8
Web
  6
HIDDEN
100
AcDbCircle
 10
68.62424122766819
 20
64.77214740715492
 30
0.0
 40
0.0225
100
AcDbArc
 50
270.0
 51
330.0000000000232
  0
LINE
  5
2AD43
330
1F
100
AcDbEntity
  8
Web
  6
HIDDEN
100
AcDbLine
 10
68.55968351400858
 20
65.12464740715493
 30
0.0
 11
68.55968351400858
 21
64.74964740715477
 31
0.0
  0
ARC
  5
2AD44
330
1F
100
AcDbEntity
  8
Web
  6
HIDDEN
100
AcDbCircle
 10
69.24512580034897
 20
64.77214740715492
 30
0.0
 40
0.0225
100
AcDbArc
 50
209.9999999999763
 51
270.0
  0
ARC
  5
2AD45
330
1F
100
AcDbEntity
  8
Web
  6
HIDDEN
100
AcDbCircle
 10
69.23843351400873
 20
64.7837387871155
 30
0.0
 40
0.0225
100
AcDbArc
 50
159.999999999993
 51
210.0000000000063
  0
LINE
  5
2AD46
330
1F
100
AcDbEntity
  8
Web
  6
HIDDEN
100
AcDbLine
 10
69.22564022876404
 20
64.76089740715501
 30
0.0
 11
69.21894794242345
 21
64.77248878711559
 31
0.0
  0
LINE
  5
2AD47
330
1F
100
AcDbEntity
  8
Web
  6
HIDDEN
100
AcDbLine
 10
69.30968351400892
 20
65.04528215225518
 30
0.0
 11
69.21729043004117
 21
64.79143424034042
 31
0.0
  0
LINE
  5
2AD48
330
1F
100
AcDbEntity
  8
Web
  6
HIDDEN
100
AcDbLine
 10
69.30968351400892
 20
65.12464740715493
 30
0.0
 11
69.30968351400892
 21
64.74964740715477
 31
0.0
  0
LINE
  5
2AD49
330
1F
100
AcDbEntity
  8
Web
  6
HIDDEN
100
AcDbLine
 10
69.87218351400859
 20
64.74964740715477
 30
0.0
 11
69.24512580034897
 21
64.74964740715477
 31
0.0
  0
LINE
  5
2AD4A
330
1F
100
AcDbEntity
  8
Web
  6
HIDDEN
100
AcDbLine
 10
72.45218351400862
 20
66.99964740715493
 30
0.0
 11
68.41718351400854
 21
66.99964740715493
 31
0.0
  0
ARC
  5
2AD4B
330
1F
100
AcDbEntity
  8
Web
  6
HIDDEN
100
AcDbCircle
 10
70.43468351400858
 20
65.31214740715494
 30
0.0
 40
0.5625000000000001
100
AcDbArc
 50
0.0
 51
180.0
  0
LINE
  5
2AD4C
330
1F
100
AcDbEntity
  8
Web
  6
HIDDEN
100
AcDbLine
 10
73.43468351400824
 20
74.87464740715494
 30
0.0
 11
72.24512580034965
 21
74.87464740715494
 31
0.0
  0
LINE
  5
2AD4D
330
1F
100
AcDbEntity
  8
Web
  6
HIDDEN
100
AcDbLine
 10
71.55968351400824
 20
74.57901266205452
 30
0.0
 11
71.65207659797633
 21
74.83286057396945
 31
0.0
  0
LINE
  5
2AD4E
330
1F
100
AcDbEntity
  8
Web
  6
HIDDEN
100
AcDbLine
 10
71.64372679925347
 20
74.86339740715486
 30
0.0
 11
71.65041908559371
 21
74.8518060271942
 31
0.0
  0
ARC
  5
2AD4F
330
1F
100
AcDbEntity
  8
Web
  6
HIDDEN
100
AcDbCircle
 10
71.63093351400843
 20
74.84055602719421
 30
0.0
 40
0.0225
100
AcDbArc
 50
339.9999999999929
 51
30.00000000000628
  0
ARC
  5
2AD50
330
1F
100
AcDbEntity
  8
Web
  6
HIDDEN
100
AcDbCircle
 10
71.62424122766819
 20
74.85214740715488
 30
0.0
 40
0.0225
100
AcDbArc
 50
29.99999999997672
 51
90.0
  0
LINE
  5
2AD51
330
1F
100
AcDbEntity
  8
Web
  6
HIDDEN
100
AcDbLine
 10
70.99718351400892
 20
74.87464740715494
 30
0.0
 11
71.62424122766819
 21
74.87464740715494
 31
0.0
  0
LINE
  5
2AD52
330
1F
100
AcDbEntity
  8
Web
  6
HIDDEN
100
AcDbLine
 10
71.55968351400824
 20
74.49964740715493
 30
0.0
 11
71.55968351400824
 21
74.87464740715494
 31
0.0
  0
ARC
  5
2AD53
330
1F
100
AcDbEntity
  8
Web
  6
HIDDEN
100
AcDbCircle
 10
72.24512580034965
 20
74.85214740715488
 30
0.0
 40
0.0225
100
AcDbArc
 50
90.0
 51
150.0000000000232
  0
LINE
  5
2AD54
330
1F
100
AcDbEntity
  8
Web
  6
HIDDEN
100
AcDbLine
 10
72.22564022876437
 20
74.86339740715486
 30
0.0
 11
72.21894794242311
 21
74.8518060271942
 31
0.0
  0
ARC
  5
2AD55
330
1F
100
AcDbEntity
  8
Web
  6
HIDDEN
100
AcDbCircle
 10
72.23843351400873
 20
74.84055602719421
 30
0.0
 40
0.0225
100
AcDbArc
 50
149.9999999999936
 51
200.0000000000071
  0
LINE
  5
2AD56
330
1F
100
AcDbEntity
  8
Web
  6
HIDDEN
100
AcDbLine
 10
72.30968351400858
 20
74.57901266205452
 30
0.0
 11
72.21729043004083
 21
74.83286057396945
 31
0.0
  0
LINE
  5
2AD57
330
1F
100
AcDbEntity
  8
Web
  6
HIDDEN
100
AcDbLine
 10
72.30968351400858
 20
74.49964740715493
 30
0.0
 11
72.30968351400858
 21
74.87464740715494
 31
0.0
  0
LINE
  5
2AD58
330
1F
100
AcDbEntity
  8
Web
  6
HIDDEN
100
AcDbLine
 10
70.99718351400892
 20
74.31214740715486
 30
0.0
 11
70.99718351400892
 21
74.87464740715494
 31
0.0
  0
ARC
  5
2AD59
330
1F
100
AcDbEntity
  8
Web
  6
HIDDEN
100
AcDbCircle
 10
71.93468351400892
 20
74.49964740715493
 30
0.0
 40
0.375
100
AcDbArc
 50
180.0
 51
0.0
  0
ARC
  5
2AD5A
330
1F
100
AcDbEntity
  8
Web
  6
HIDDEN
100
AcDbCircle
 10
72.45218351400862
 20
71.49964740715486
 30
0.0
 40
1.125
100
AcDbArc
 50
29.15166430225102
 51
90.0
  0
ARC
  5
2AD5B
330
1F
100
AcDbEntity
  8
Web
  6
HIDDEN
100
AcDbCircle
 10
68.41718351400854
 20
71.49964740715486
 30
0.0
 40
1.125
100
AcDbArc
 50
90.0
 51
150.8483356977486
  0
LINE
  5
2AD5C
330
1F
100
AcDbEntity
  8
Web
  6
HIDDEN
100
AcDbLine
 10
67.43468351400892
 20
74.87464740715494
 30
0.0
 11
68.62424122766819
 21
74.87464740715494
 31
0.0
  0
LINE
  5
2AD5D
330
1F
100
AcDbEntity
  8
Web
  6
HIDDEN
100
AcDbLine
 10
69.87218351400859
 20
74.87464740715494
 30
0.0
 11
69.24512580034897
 21
74.87464740715494
 31
0.0
  0
LINE
  5
2AD5E
330
1F
100
AcDbEntity
  8
Web
  6
HIDDEN
100
AcDbLine
 10
69.30968351400892
 20
74.49964740715493
 30
0.0
 11
69.30968351400892
 21
74.87464740715494
 31
0.0
  0
LINE
  5
2AD5F
330
1F
100
AcDbEntity
  8
Web
  6
HIDDEN
100
AcDbLine
 10
68.55968351400858
 20
74.49964740715493
 30
0.0
 11
68.55968351400858
 21
74.87464740715494
 31
0.0
  0
LINE
  5
2AD60
330
1F
100
AcDbEntity
  8
Web
  6
HIDDEN
100
AcDbLine
 10
69.30968351400892
 20
74.57901266205452
 30
0.0
 11
69.21729043004117
 21
74.83286057396945
 31
0.0
  0
LINE
  5
2AD61
330
1F
100
AcDbEntity
  8
Web
  6
HIDDEN
100
AcDbLine
 10
69.22564022876404
 20
74.86339740715486
 30
0.0
 11
69.21894794242345
 21
74.8518060271942
 31
0.0
  0
ARC
  5
2AD62
330
1F
100
AcDbEntity
  8
Web
  6
HIDDEN
100
AcDbCircle
 10
69.23843351400873
 20
74.84055602719421
 30
0.0
 40
0.0225
100
AcDbArc
 50
149.9999999999936
 51
200.0000000000071
  0
ARC
  5
2AD63
330
1F
100
AcDbEntity
  8
Web
  6
HIDDEN
100
AcDbCircle
 10
69.24512580034897
 20
74.85214740715488
 30
0.0
 40
0.0225
100
AcDbArc
 50
90.0
 51
150.0000000000232
  0
ARC
  5
2AD64
330
1F
100
AcDbEntity
  8
Web
  6
HIDDEN
100
AcDbCircle
 10
68.62424122766819
 20
74.85214740715488
 30
0.0
 40
0.0225
100
AcDbArc
 50
29.99999999997672
 51
90.0
  0
LINE
  5
2AD65
330
1F
100
AcDbEntity
  8
Web
  6
HIDDEN
100
AcDbLine
 10
68.64372679925313
 20
74.86339740715486
 30
0.0
 11
68.65041908559405
 21
74.8518060271942
 31
0.0
  0
ARC
  5
2AD66
330
1F
100
AcDbEntity
  8
Web
  6
HIDDEN
100
AcDbCircle
 10
68.63093351400843
 20
74.84055602719421
 30
0.0
 40
0.0225
100
AcDbArc
 50
339.9999999999929
 51
30.00000000000628
  0
LINE
  5
2AD67
330
1F
100
AcDbEntity
  8
Web
  6
HIDDEN
100
AcDbLine
 10
68.55968351400858
 20
74.57901266205452
 30
0.0
 11
68.65207659797633
 21
74.83286057396945
 31
0.0
  0
LINE
  5
2AD68
330
1F
100
AcDbEntity
  8
Web
  6
HIDDEN
100
AcDbLine
 10
69.87218351400859
 20
74.31214740715486
 30
0.0
 11
69.87218351400859
 21
74.87464740715494
 31
0.0
  0
ARC
  5
2AD69
330
1F
100
AcDbEntity
  8
Web
  6
HIDDEN
100
AcDbCircle
 10
68.93468351400859
 20
74.49964740715493
 30
0.0
 40
0.375
100
AcDbArc
 50
180.0
 51
0.0
  0
LINE
  5
2AD6A
330
1F
100
AcDbEntity
  8
Web
  6
HIDDEN
100
AcDbLine
 10
72.45218351400862
 20
72.62464740715493
 30
0.0
 11
68.41718351400854
 21
72.62464740715493
 31
0.0
  0
ARC
  5
2AD6B
330
1F
100
AcDbEntity
  8
Web
  6
HIDDEN
100
AcDbCircle
 10
70.43468351400858
 20
74.31214740715486
 30
0.0
 40
0.5625000000000001
100
AcDbArc
 50
180.0
 51
0.0
  0
LINE
  5
2AD6C
330
1F
100
AcDbEntity
  8
Block
100
AcDbLine
 10
67.43468351400853
 20
72.0476608650188
 30
0.0
 11
67.43468351400853
 21
67.576633949291
 31
0.0
  0
LINE
  5
2AD6D
330
1F
100
AcDbEntity
  8
Block
100
AcDbLine
 10
73.43468351400861
 20
72.0476608650188
 30
0.0
 11
73.43468351400861
 21
67.576633949291
 31
0.0
  0
HATCH
  5
2AD6E
330
1F
100
AcDbEntity
  8
Hatch
100
AcDbHatch
 10
0.0
 20
0.0
 30
0.0
210
0.0
220
0.0
230
1.0
  2
SACNCR
 70
     0
 71
     0
 91
        2
 92
        5
 93
        4
 72
     1
 10
77.55968351400861
 20
102.5301443723744
 11
73.43468351400864
 21
102.5301443723744
 72
     1
 10
73.43468351400864
 20
102.5301443723744
 11
73.43468351400861
 21
81.81214740715489
 72
     1
 10
73.43468351400861
 20
81.81214740715489
 11
77.55968351400861
 21
81.81214740715489
 72
     1
 10
77.55968351400861
 20
81.81214740715489
 11
77.55968351400861
 21
102.5301443723744
 97
        0
 92
        5
 93
        4
 72
     1
 10
67.43468351400853
 20
102.5301443723744
 11
63.30968351400851
 21
102.5301443723744
 72
     1
 10
63.30968351400852
 20
102.5301443723744
 11
63.30968351400855
 21
81.81214740715489
 72
     1
 10
63.30968351400855
 20
81.81214740715489
 11
67.43468351400854
 21
81.81214740715489
 72
     1
 10
67.43468351400853
 20
81.81214740715489
 11
67.43468351400853
 21
102.5301443723744
 97
        0
 75
     0
 76
     1
 52
0.0
 41
15.0
 77
     0
 78
     2
 53
45.0
 43
-1.027033592785187
 44
0.0
 45
-0.9943689110435823
 46
0.9943689110435826
 79
     0
 53
45.0
 43
-0.0326646777851876
 44
0.0
 45
-0.9943689110435823
 46
0.9943689110435826
 79
     2
 49
0.0
 49
-1.40625
 47
0.0
 98
        2
 10
75.49718351400861
 20
92.17114588976462
 10
65.37218351400852
 20
92.17114588976466
1001
ACAD
1010
0.0
1020
0.0
1030
0.0
  0
LINE
  5
2AD6F
102
{ACAD_REACTORS
330
2AE29
102
}
330
1F
100
AcDbEntity
  8
Block
100
AcDbLine
 10
67.43468351400853
 20
102.5301443723744
 30
0.0
 11
67.43468351400853
 21
81.81214740715489
 31
0.0
  0
LINE
  5
2AD70
330
1F
100
AcDbEntity
  8
Block
100
AcDbLine
 10
67.43468351400853
 20
81.81214740715489
 30
0.0
 11
63.30968351400855
 21
81.81214740715489
 31
0.0
  0
LINE
  5
2AD71
330
1F
100
AcDbEntity
  8
Block
100
AcDbLine
 10
63.30968351400855
 20
81.81214740715489
 30
0.0
 11
63.30968351400855
 21
102.5301443723744
 31
0.0
  0
LINE
  5
2AD73
102
{ACAD_REACTORS
330
2AE10
102
}
330
1F
100
AcDbEntity
  8
Block
100
AcDbLine
 10
77.55968351400861
 20
102.5301443723744
 30
0.0
 11
77.55968351400861
 21
81.81214740715489
 31
0.0
  0
LINE
  5
2AD74
330
1F
100
AcDbEntity
  8
Block
100
AcDbLine
 10
77.55968351400861
 20
81.81214740715489
 30
0.0
 11
73.43468351400861
 21
81.81214740715489
 31
0.0
  0
LINE
  5
2AD75
102
{ACAD_REACTORS
330
2AE29
102
}
330
1F
100
AcDbEntity
  8
Block
100
AcDbLine
 10
73.43468351400861
 20
81.81214740715489
 30
0.0
 11
73.43468351400861
 21
102.5301443723744
 31
0.0
  0
ARC
  5
2AD77
330
1F
100
AcDbEntity
  8
Web
  6
HIDDEN
100
AcDbCircle
 10
68.41718351400854
 20
92.12464740715494
 30
0.0
 40
1.125
100
AcDbArc
 50
209.1516643022508
 51
270.0
  0
ARC
  5
2AD78
330
1F
100
AcDbEntity
  8
Web
  6
HIDDEN
100
AcDbCircle
 10
72.45218351400862
 20
92.12464740715494
 30
0.0
 40
1.125
100
AcDbArc
 50
270.0
 51
330.8483356977486
  0
LINE
  5
2AD79
330
1F
100
AcDbEntity
  8
Web
  6
HIDDEN
100
AcDbLine
 10
73.43468351400824
 20
88.74964740715476
 30
0.0
 11
72.24512580034965
 21
88.74964740715476
 31
0.0
  0
ARC
  5
2AD7A
330
1F
100
AcDbEntity
  8
Web
  6
HIDDEN
100
AcDbCircle
 10
71.93468351400892
 20
89.12464740715494
 30
0.0
 40
0.375
100
AcDbArc
 50
0.0
 51
180.0
  0
LINE
  5
2AD7B
330
1F
100
AcDbEntity
  8
Web
  6
HIDDEN
100
AcDbLine
 10
70.99718351400892
 20
89.31214740715494
 30
0.0
 11
70.99718351400892
 21
88.74964740715476
 31
0.0
  0
LINE
  5
2AD7C
330
1F
100
AcDbEntity
  8
Web
  6
HIDDEN
100
AcDbLine
 10
71.55968351400824
 20
89.12464740715494
 30
0.0
 11
71.55968351400824
 21
88.74964740715476
 31
0.0
  0
LINE
  5
2AD7D
330
1F
100
AcDbEntity
  8
Web
  6
HIDDEN
100
AcDbLine
 10
72.30968351400858
 20
89.12464740715494
 30
0.0
 11
72.30968351400858
 21
88.74964740715476
 31
0.0
  0
LINE
  5
2AD7E
330
1F
100
AcDbEntity
  8
Web
  6
HIDDEN
100
AcDbLine
 10
71.55968351400824
 20
89.04528215225518
 30
0.0
 11
71.65207659797633
 21
88.79143424034042
 31
0.0
  0
LINE
  5
2AD7F
330
1F
100
AcDbEntity
  8
Web
  6
HIDDEN
100
AcDbLine
 10
71.64372679925347
 20
88.76089740715501
 30
0.0
 11
71.65041908559371
 21
88.7724887871156
 31
0.0
  0
ARC
  5
2AD80
330
1F
100
AcDbEntity
  8
Web
  6
HIDDEN
100
AcDbCircle
 10
71.63093351400843
 20
88.78373878711549
 30
0.0
 40
0.0225
100
AcDbArc
 50
329.9999999999936
 51
20.00000000000696
  0
ARC
  5
2AD81
330
1F
100
AcDbEntity
  8
Web
  6
HIDDEN
100
AcDbCircle
 10
71.62424122766819
 20
88.77214740715492
 30
0.0
 40
0.0225
100
AcDbArc
 50
270.0
 51
330.0000000000232
  0
ARC
  5
2AD82
330
1F
100
AcDbEntity
  8
Web
  6
HIDDEN
100
AcDbCircle
 10
72.24512580034965
 20
88.77214740715492
 30
0.0
 40
0.0225
100
AcDbArc
 50
209.9999999999765
 51
270.0
  0
LINE
  5
2AD83
330
1F
100
AcDbEntity
  8
Web
  6
HIDDEN
100
AcDbLine
 10
72.22564022876437
 20
88.76089740715501
 30
0.0
 11
72.21894794242311
 21
88.7724887871156
 31
0.0
  0
ARC
  5
2AD84
330
1F
100
AcDbEntity
  8
Web
  6
HIDDEN
100
AcDbCircle
 10
72.23843351400873
 20
88.78373878711549
 30
0.0
 40
0.0225
100
AcDbArc
 50
159.999999999993
 51
210.0000000000063
  0
LINE
  5
2AD85
330
1F
100
AcDbEntity
  8
Web
  6
HIDDEN
100
AcDbLine
 10
72.30968351400858
 20
89.04528215225518
 30
0.0
 11
72.21729043004083
 21
88.79143424034042
 31
0.0
  0
LINE
  5
2AD86
330
1F
100
AcDbEntity
  8
Web
  6
HIDDEN
100
AcDbLine
 10
70.99718351400892
 20
88.74964740715476
 30
0.0
 11
71.62424122766819
 21
88.74964740715476
 31
0.0
  0
ARC
  5
2AD87
330
1F
100
AcDbEntity
  8
Web
  6
HIDDEN
100
AcDbCircle
 10
68.93468351400859
 20
89.12464740715494
 30
0.0
 40
0.375
100
AcDbArc
 50
0.0
 51
180.0
  0
LINE
  5
2AD88
330
1F
100
AcDbEntity
  8
Web
  6
HIDDEN
100
AcDbLine
 10
69.87218351400859
 20
89.31214740715494
 30
0.0
 11
69.87218351400859
 21
88.74964740715476
 31
0.0
  0
LINE
  5
2AD89
330
1F
100
AcDbEntity
  8
Web
  6
HIDDEN
100
AcDbLine
 10
67.43468351400892
 20
88.74964740715476
 30
0.0
 11
68.62424122766819
 21
88.74964740715476
 31
0.0
  0
LINE
  5
2AD8A
330
1F
100
AcDbEntity
  8
Web
  6
HIDDEN
100
AcDbLine
 10
68.55968351400858
 20
89.04528215225518
 30
0.0
 11
68.65207659797633
 21
88.79143424034042
 31
0.0
  0
ARC
  5
2AD8B
330
1F
100
AcDbEntity
  8
Web
  6
HIDDEN
100
AcDbCircle
 10
68.63093351400843
 20
88.78373878711549
 30
0.0
 40
0.0225
100
AcDbArc
 50
329.9999999999924
 51
20.00000000000696
  0
LINE
  5
2AD8C
330
1F
100
AcDbEntity
  8
Web
  6
HIDDEN
100
AcDbLine
 10
68.64372679925313
 20
88.76089740715501
 30
0.0
 11
68.65041908559405
 21
88.7724887871156
 31
0.0
  0
ARC
  5
2AD8D
330
1F
100
AcDbEntity
  8
Web
  6
HIDDEN
100
AcDbCircle
 10
68.62424122766819
 20
88.77214740715492
 30
0.0
 40
0.0225
100
AcDbArc
 50
270.0
 51
330.0000000000232
  0
LINE
  5
2AD8E
330
1F
100
AcDbEntity
  8
Web
  6
HIDDEN
100
AcDbLine
 10
68.55968351400858
 20
89.12464740715494
 30
0.0
 11
68.55968351400858
 21
88.74964740715476
 31
0.0
  0
ARC
  5
2AD8F
330
1F
100
AcDbEntity
  8
Web
  6
HIDDEN
100
AcDbCircle
 10
69.24512580034897
 20
88.77214740715492
 30
0.0
 40
0.0225
100
AcDbArc
 50
209.9999999999765
 51
270.0
  0
ARC
  5
2AD90
330
1F
100
AcDbEntity
  8
Web
  6
HIDDEN
100
AcDbCircle
 10
69.23843351400873
 20
88.78373878711549
 30
0.0
 40
0.0225
100
AcDbArc
 50
159.999999999993
 51
210.0000000000063
  0
LINE
  5
2AD91
330
1F
100
AcDbEntity
  8
Web
  6
HIDDEN
100
AcDbLine
 10
69.22564022876404
 20
88.76089740715501
 30
0.0
 11
69.21894794242345
 21
88.7724887871156
 31
0.0
  0
LINE
  5
2AD92
330
1F
100
AcDbEntity
  8
Web
  6
HIDDEN
100
AcDbLine
 10
69.30968351400892
 20
89.04528215225518
 30
0.0
 11
69.21729043004117
 21
88.79143424034042
 31
0.0
  0
LINE
  5
2AD93
330
1F
100
AcDbEntity
  8
Web
  6
HIDDEN
100
AcDbLine
 10
69.30968351400892
 20
89.12464740715494
 30
0.0
 11
69.30968351400892
 21
88.74964740715476
 31
0.0
  0
LINE
  5
2AD94
330
1F
100
AcDbEntity
  8
Web
  6
HIDDEN
100
AcDbLine
 10
69.87218351400859
 20
88.74964740715476
 30
0.0
 11
69.24512580034897
 21
88.74964740715476
 31
0.0
  0
LINE
  5
2AD95
330
1F
100
AcDbEntity
  8
Web
  6
HIDDEN
100
AcDbLine
 10
72.45218351400862
 20
90.99964740715494
 30
0.0
 11
68.41718351400854
 21
90.99964740715494
 31
0.0
  0
ARC
  5
2AD96
330
1F
100
AcDbEntity
  8
Web
  6
HIDDEN
100
AcDbCircle
 10
70.43468351400858
 20
89.31214740715494
 30
0.0
 40
0.5625000000000001
100
AcDbArc
 50
0.0
 51
180.0
  0
LINE
  5
2AD97
330
1F
100
AcDbEntity
  8
Web
  6
HIDDEN
100
AcDbLine
 10
73.43468351400824
 20
98.87464740715493
 30
0.0
 11
72.24512580034965
 21
98.87464740715493
 31
0.0
  0
LINE
  5
2AD98
330
1F
100
AcDbEntity
  8
Web
  6
HIDDEN
100
AcDbLine
 10
71.55968351400824
 20
98.57901266205452
 30
0.0
 11
71.65207659797633
 21
98.83286057396945
 31
0.0
  0
LINE
  5
2AD99
330
1F
100
AcDbEntity
  8
Web
  6
HIDDEN
100
AcDbLine
 10
71.64372679925347
 20
98.86339740715486
 30
0.0
 11
71.65041908559371
 21
98.85180602719421
 31
0.0
  0
ARC
  5
2AD9A
330
1F
100
AcDbEntity
  8
Web
  6
HIDDEN
100
AcDbCircle
 10
71.63093351400843
 20
98.84055602719421
 30
0.0
 40
0.0225
100
AcDbArc
 50
339.999999999993
 51
30.00000000000648
  0
ARC
  5
2AD9B
330
1F
100
AcDbEntity
  8
Web
  6
HIDDEN
100
AcDbCircle
 10
71.62424122766819
 20
98.85214740715488
 30
0.0
 40
0.0225
100
AcDbArc
 50
29.99999999997692
 51
90.0
  0
LINE
  5
2AD9C
330
1F
100
AcDbEntity
  8
Web
  6
HIDDEN
100
AcDbLine
 10
70.99718351400892
 20
98.87464740715493
 30
0.0
 11
71.62424122766819
 21
98.87464740715493
 31
0.0
  0
LINE
  5
2AD9D
330
1F
100
AcDbEntity
  8
Web
  6
HIDDEN
100
AcDbLine
 10
71.55968351400824
 20
98.49964740715494
 30
0.0
 11
71.55968351400824
 21
98.87464740715493
 31
0.0
  0
ARC
  5
2AD9E
330
1F
100
AcDbEntity
  8
Web
  6
HIDDEN
100
AcDbCircle
 10
72.24512580034965
 20
98.85214740715488
 30
0.0
 40
0.0225
100
AcDbArc
 50
90.0
 51
150.0000000000231
  0
LINE
  5
2AD9F
330
1F
100
AcDbEntity
  8
Web
  6
HIDDEN
100
AcDbLine
 10
72.22564022876437
 20
98.86339740715486
 30
0.0
 11
72.21894794242311
 21
98.85180602719421
 31
0.0
  0
ARC
  5
2ADA0
330
1F
100
AcDbEntity
  8
Web
  6
HIDDEN
100
AcDbCircle
 10
72.23843351400873
 20
98.84055602719421
 30
0.0
 40
0.0225
100
AcDbArc
 50
149.9999999999935
 51
200.0000000000069
  0
LINE
  5
2ADA1
330
1F
100
AcDbEntity
  8
Web
  6
HIDDEN
100
AcDbLine
 10
72.30968351400858
 20
98.57901266205452
 30
0.0
 11
72.21729043004083
 21
98.83286057396945
 31
0.0
  0
LINE
  5
2ADA2
330
1F
100
AcDbEntity
  8
Web
  6
HIDDEN
100
AcDbLine
 10
72.30968351400858
 20
98.49964740715494
 30
0.0
 11
72.30968351400858
 21
98.87464740715493
 31
0.0
  0
LINE
  5
2ADA3
330
1F
100
AcDbEntity
  8
Web
  6
HIDDEN
100
AcDbLine
 10
70.99718351400892
 20
98.31214740715486
 30
0.0
 11
70.99718351400892
 21
98.87464740715493
 31
0.0
  0
ARC
  5
2ADA4
330
1F
100
AcDbEntity
  8
Web
  6
HIDDEN
100
AcDbCircle
 10
71.93468351400892
 20
98.49964740715494
 30
0.0
 40
0.375
100
AcDbArc
 50
180.0
 51
0.0
  0
ARC
  5
2ADA5
330
1F
100
AcDbEntity
  8
Web
  6
HIDDEN
100
AcDbCircle
 10
72.45218351400862
 20
95.49964740715486
 30
0.0
 40
1.125
100
AcDbArc
 50
29.15166430225102
 51
90.0
  0
ARC
  5
2ADA6
330
1F
100
AcDbEntity
  8
Web
  6
HIDDEN
100
AcDbCircle
 10
68.41718351400854
 20
95.49964740715486
 30
0.0
 40
1.125
100
AcDbArc
 50
90.0
 51
150.8483356977485
  0
LINE
  5
2ADA7
330
1F
100
AcDbEntity
  8
Web
  6
HIDDEN
100
AcDbLine
 10
67.43468351400892
 20
98.87464740715493
 30
0.0
 11
68.62424122766819
 21
98.87464740715493
 31
0.0
  0
LINE
  5
2ADA8
330
1F
100
AcDbEntity
  8
Web
  6
HIDDEN
100
AcDbLine
 10
69.87218351400859
 20
98.87464740715493
 30
0.0
 11
69.24512580034897
 21
98.87464740715493
 31
0.0
  0
LINE
  5
2ADA9
330
1F
100
AcDbEntity
  8
Web
  6
HIDDEN
100
AcDbLine
 10
69.30968351400892
 20
98.49964740715494
 30
0.0
 11
69.30968351400892
 21
98.87464740715493
 31
0.0
  0
LINE
  5
2ADAA
330
1F
100
AcDbEntity
  8
Web
  6
HIDDEN
100
AcDbLine
 10
68.55968351400858
 20
98.49964740715494
 30
0.0
 11
68.55968351400858
 21
98.87464740715493
 31
0.0
  0
LINE
  5
2ADAB
330
1F
100
AcDbEntity
  8
Web
  6
HIDDEN
100
AcDbLine
 10
69.30968351400892
 20
98.57901266205452
 30
0.0
 11
69.21729043004117
 21
98.83286057396945
 31
0.0
  0
LINE
  5
2ADAC
330
1F
100
AcDbEntity
  8
Web
  6
HIDDEN
100
AcDbLine
 10
69.22564022876404
 20
98.86339740715486
 30
0.0
 11
69.21894794242345
 21
98.85180602719421
 31
0.0
  0
ARC
  5
2ADAD
330
1F
100
AcDbEntity
  8
Web
  6
HIDDEN
100
AcDbCircle
 10
69.23843351400873
 20
98.84055602719421
 30
0.0
 40
0.0225
100
AcDbArc
 50
149.9999999999935
 51
200.0000000000069
  0
ARC
  5
2ADAE
330
1F
100
AcDbEntity
  8
Web
  6
HIDDEN
100
AcDbCircle
 10
69.24512580034897
 20
98.85214740715488
 30
0.0
 40
0.0225
100
AcDbArc
 50
90.0
 51
150.0000000000231
  0
ARC
  5
2ADAF
330
1F
100
AcDbEntity
  8
Web
  6
HIDDEN
100
AcDbCircle
 10
68.62424122766819
 20
98.85214740715488
 30
0.0
 40
0.0225
100
AcDbArc
 50
29.99999999997692
 51
90.0
  0
LINE
  5
2ADB0
330
1F
100
AcDbEntity
  8
Web
  6
HIDDEN
100
AcDbLine
 10
68.64372679925313
 20
98.86339740715486
 30
0.0
 11
68.65041908559405
 21
98.85180602719421
 31
0.0
  0
ARC
  5
2ADB1
330
1F
100
AcDbEntity
  8
Web
  6
HIDDEN
100
AcDbCircle
 10
68.63093351400843
 20
98.84055602719421
 30
0.0
 40
0.0225
100
AcDbArc
 50
339.999999999993
 51
30.00000000000648
  0
LINE
  5
2ADB2
330
1F
100
AcDbEntity
  8
Web
  6
HIDDEN
100
AcDbLine
 10
68.55968351400858
 20
98.57901266205452
 30
0.0
 11
68.65207659797633
 21
98.83286057396945
 31
0.0
  0
LINE
  5
2ADB3
330
1F
100
AcDbEntity
  8
Web
  6
HIDDEN
100
AcDbLine
 10
69.87218351400859
 20
98.31214740715486
 30
0.0
 11
69.87218351400859
 21
98.87464740715493
 31
0.0
  0
ARC
  5
2ADB4
330
1F
100
AcDbEntity
  8
Web
  6
HIDDEN
100
AcDbCircle
 10
68.93468351400859
 20
98.49964740715494
 30
0.0
 40
0.375
100
AcDbArc
 50
180.0
 51
0.0
  0
LINE
  5
2ADB5
330
1F
100
AcDbEntity
  8
Web
  6
HIDDEN
100
AcDbLine
 10
72.45218351400862
 20
96.62464740715494
 30
0.0
 11
68.41718351400854
 21
96.62464740715494
 31
0.0
  0
ARC
  5
2ADB6
330
1F
100
AcDbEntity
  8
Web
  6
HIDDEN
100
AcDbCircle
 10
70.43468351400858
 20
98.31214740715486
 30
0.0
 40
0.5625000000000001
100
AcDbArc
 50
180.0
 51
0.0
  0
LINE
  5
2ADB7
330
1F
100
AcDbEntity
  8
Block
100
AcDbLine
 10
67.43468351400853
 20
96.0476608650188
 30
0.0
 11
67.43468351400853
 21
91.576633949291
 31
0.0
  0
LINE
  5
2ADB8
330
1F
100
AcDbEntity
  8
Block
100
AcDbLine
 10
73.43468351400861
 20
96.0476608650188
 30
0.0
 11
73.43468351400861
 21
91.576633949291
 31
0.0
  0
LINE
  5
2ADB9
330
1F
100
AcDbEntity
  8
Sills
100
AcDbLine
 10
61.05968351400854
 20
53.06807805296893
 30
0.0
 11
63.30968351400852
 21
53.06807805296893
 31
0.0
  0
LINE
  5
2ADBA
330
1F
100
AcDbEntity
  8
Sills
100
AcDbLine
 10
63.30968351400852
 20
53.06807805296893
 30
0.0
 11
63.30968351400852
 21
50.81807805296893
 31
0.0
  0
LINE
  5
2ADBB
330
1F
100
AcDbEntity
  8
Sills
100
AcDbLine
 10
63.30968351400852
 20
50.81807805296893
 30
0.0
 11
61.05968351400854
 21
50.81807805296893
 31
0.0
  0
LINE
  5
2ADBC
330
1F
100
AcDbEntity
  8
Sills
100
AcDbLine
 10
61.05968351400854
 20
50.81807805296893
 30
0.0
 11
61.05968351400854
 21
53.06807805296893
 31
0.0
  0
LINE
  5
2ADBD
330
1F
100
AcDbEntity
  8
Sills
100
AcDbLine
 10
61.05968351400854
 20
53.06807805296893
 30
0.0
 11
63.30968351400852
 21
50.81807805296893
 31
0.0
  0
LINE
  5
2ADBE
330
1F
100
AcDbEntity
  8
Sills
100
AcDbLine
 10
63.30968351400852
 20
53.06807805296893
 30
0.0
 11
61.05968351400854
 21
50.81807805296893
 31
0.0
  0
LINE
  5
2ADC9
330
1F
100
AcDbEntity
  8
Sills
100
AcDbLine
 10
61.05968351400854
 20
89.06807805296892
 30
0.0
 11
63.30968351400852
 21
89.06807805296892
 31
0.0
  0
LINE
  5
2ADCA
330
1F
100
AcDbEntity
  8
Sills
100
AcDbLine
 10
63.30968351400852
 20
89.06807805296892
 30
0.0
 11
63.30968351400852
 21
86.81807805296893
 31
0.0
  0
LINE
  5
2ADCB
330
1F
100
AcDbEntity
  8
Sills
100
AcDbLine
 10
63.30968351400852
 20
86.81807805296893
 30
0.0
 11
61.05968351400854
 21
86.81807805296893
 31
0.0
  0
LINE
  5
2ADCC
330
1F
100
AcDbEntity
  8
Sills
100
AcDbLine
 10
61.05968351400854
 20
86.81807805296893
 30
0.0
 11
61.05968351400854
 21
89.06807805296892
 31
0.0
  0
LINE
  5
2ADCD
330
1F
100
AcDbEntity
  8
Sills
100
AcDbLine
 10
61.05968351400854
 20
89.06807805296892
 30
0.0
 11
63.30968351400852
 21
86.81807805296893
 31
0.0
  0
LINE
  5
2ADCE
102
{ACAD_REACTORS
330
2AE1C
102
}
330
1F
100
AcDbEntity
  8
Sills
100
AcDbLine
 10
63.30968351400852
 20
89.06807805296892
 30
0.0
 11
61.05968351400854
 21
86.81807805296893
 31
0.0
  0
LINE
  5
2ADDF
102
{ACAD_REACTORS
330
2AE10
102
}
330
1F
100
AcDbEntity
  8
Drywall
100
AcDbLine
 10
61.05968351400854
 20
102.5301443723744
 30
0.0
 11
61.05968351400854
 21
37.04622261236
 31
0.0
  0
LINE
  5
2ADE0
102
{ACAD_REACTORS
330
2AE10
330
2AE14
102
}
330
1F
100
AcDbEntity
  8
Drywall
100
AcDbLine
 10
60.30968351400853
 20
37.04622261236
 30
0.0
 11
60.30968351400853
 21
102.5301443723744
 31
0.0
  0
LINE
  5
2ADEC
102
{ACAD_REACTORS
330
2AE10
330
2AE18
102
}
330
1F
100
AcDbEntity
  8
Drywall
100
AcDbLine
 10
78.30968351400861
 20
102.5301443723744
 30
0.0
 11
78.30968351400861
 21
37.04622261236
 31
0.0
  0
LINE
  5
2ADED
102
{ACAD_REACTORS
330
2AE10
102
}
330
1F
100
AcDbEntity
  8
Drywall
100
AcDbLine
 10
77.55968351400861
 20
37.04622261236
 30
0.0
 11
77.55968351400861
 21
102.5301443723744
 31
0.0
  0
LWPOLYLINE
  5
2ADF6
330
1F
100
AcDbEntity
  8
Dim
  6
Continuous
100
AcDbPolyline
 90
        6
 70
     0
 43
0.0
 10
79.80968351400861
 20
37.04622261236
 10
70.8096835140085
 20
37.04622261236
 10
70.05968351400849
 20
39.10683067695098
 10
68.5596835140085
 20
34.98561454776906
 10
67.8096835140085
 20
37.04622261236
 10
58.80968351400852
 20
37.04622261236
  0
LWPOLYLINE
  5
2AE02
330
1F
100
AcDbEntity
  8
Dim
  6
Continuous
100
AcDbPolyline
 90
        6
 70
     0
 43
0.0
 10
79.80968351400861
 20
102.5301443723744
 10
70.8096835140085
 20
102.5301443723744
 10
70.05968351400849
 20
104.5907524369654
 10
68.5596835140085
 20
100.4695363077835
 10
67.8096835140085
 20
102.5301443723744
 10
58.80968351400852
 20
102.5301443723744
  0
LINE
  5
2AE0B
102
{ACAD_REACTORS
330
2AE10
102
}
330
1F
100
AcDbEntity
  8
DEFPOINTS
100
AcDbLine
 10
61.05968351400854
 20
102.5301443723744
 30
0.0
 11
60.30968351400854
 21
102.5301443723744
 31
0.0
  0
LINE
  5
2AE0C
102
{ACAD_REACTORS
330
2AE10
102
}
330
1F
100
AcDbEntity
  8
DEFPOINTS
100
AcDbLine
 10
60.30968351400853
 20
37.04622261236
 30
0.0
 11
61.05968351400854
 21
37.04622261236
 31
0.0
  0
LINE
  5
2AE0D
102
{ACAD_REACTORS
330
2AE10
102
}
330
1F
100
AcDbEntity
  8
DEFPOINTS
100
AcDbLine
 10
77.55968351400861
 20
37.04622261236
 30
0.0
 11
78.30968351400861
 21
37.04622261236
 31
0.0
  0
LINE
  5
2AE0E
102
{ACAD_REACTORS
330
2AE10
102
}
330
1F
100
AcDbEntity
  8
DEFPOINTS
100
AcDbLine
 10
78.30968351400861
 20
102.5301443723744
 30
0.0
 11
77.55968351400861
 21
102.5301443723744
 31
0.0
  0
HATCH
  5
2AE10
330
1F
100
AcDbEntity
  8
Drywall
100
AcDbHatch
 10
0.0
 20
0.0
 30
0.0
210
0.0
220
0.0
230
1.0
  2
AR-SAND
 70
     0
 71
     1
 91
        3
 92
        1
 93
        4
 72
     1
 10
60.30968351400853
 20
37.04622261236
 11
60.30968351400853
 21
102.5301443723744
 72
     1
 10
60.30968351400854
 20
102.5301443723744
 11
61.05968351400854
 21
102.5301443723744
 72
     1
 10
61.05968351400854
 20
102.5301443723744
 11
61.05968351400854
 21
37.04622261236
 72
     1
 10
61.05968351400854
 20
37.04622261236
 11
60.30968351400853
 21
37.04622261236
 97
        4
330
2ADE0
330
2AE0B
330
2ADDF
330
2AE0C
 92
        1
 93
        4
 72
     1
 10
77.55968351400861
 20
37.04622261236
 11
77.55968351400861
 21
102.5301443723744
 72
     1
 10
77.55968351400861
 20
102.5301443723744
 11
78.30968351400861
 21
102.5301443723744
 72
     1
 10
78.30968351400861
 20
102.5301443723744
 11
78.30968351400861
 21
37.04622261236
 72
     1
 10
78.30968351400861
 20
37.04622261236
 11
77.55968351400861
 21
37.04622261236
 97
        4
330
2ADED
330
2AE0E
330
2ADEC
330
2AE0D
 92
       49
 93
        1
 72
     1
 10
77.55968351400861
 20
102.5301443723744
 11
77.55968351400861
 21
81.81214740715489
 97
        5
330
2ADED
330
2AE0E
330
2ADEC
330
2AE0D
330
2AD73
 75
     0
 76
     1
 52
0.0
 41
0.75
 77
     0
 78
     4
 53
37.5
 43
-31.55240699148836
 44
-15.59492451914838
 45
-0.0472450185822061
 46
1.445117826759869
 79
     6
 49
0.0
 49
-1.14
 49
0.0
 49
-1.275
 49
0.0
 49
-1.21875
 53
7.499999999999999
 43
-31.55240699148836
 44
-15.59492451914838
 45
1.327332528950795
 46
2.116609548922305
 79
     6
 49
0.0
 49
-0.6149999999999999
 49
0.0
 49
-1.027499999999999
 49
0.0
 49
-0.3937499999999999
 53
327.5
 43
-32.47490699148836
 44
-15.59492451914838
 45
2.335606396313621
 46
0.0042442901527234
 79
     6
 49
0.0
 49
-0.375
 49
0.0
 49
-1.35
 49
0.0
 49
-1.7625
 53
317.5
 43
-32.47490699148836
 44
-15.59492451914838
 45
2.25459495342922
 46
0.6582566737006869
 79
     6
 49
0.0
 49
-0.1875
 49
0.0
 49
-0.8849999999999999
 49
0.0
 49
-1.0125
 98
        1
 10
-31.55240699148836
 20
-15.59492451914838
1001
ACAD
1010
0.0
1020
0.0
1030
0.0
  0
LEADER
  5
2AE11
102
{ACAD_XDICTIONARY
360
2AE13
102
}
102
{ACAD_REACTORS
330
2AE14
102
}
330
1F
100
AcDbEntity
  8
Dim
100
AcDbLeader
  3
FBR
 73
     0
 40
1.966666666666666
 41
14.09047619047618
 76
     2
 10
60.30968351400852
 20
95.53241223833481
 30
0.0
 10
43.84515448037837
 20
95.53241223833481
 30
0.0
340
2AE12
213
0.0
223
0.5
233
0.0
1001
ACAD
1000
DSTYLE
1002
{
1070
   147
1040
0.3
1070
    77
1070
     0
1002
}
  0
MTEXT
  5
2AE12
102
{ACAD_REACTORS
330
2AE11
102
}
330
1F
100
AcDbEntity
  8
Dim
100
AcDbMText
 10
43.54515448037837
 20
95.03241223833482
 30
0.0
 40
1.0
 41
0.0
 46
0.0
 71
     9
 72
     1
  1
\A1;{\H0.7x;\S1/2;}" [13mm] drywall
  7
Logix
 73
     1
 44
1.0
1001
ACAD
1000
ACAD_MTEXT_DEFINED_HEIGHT_BEGIN
1070
    46
1040
0.0
1000
ACAD_MTEXT_DEFINED_HEIGHT_END
  0
LEADER
  5
2AE15
102
{ACAD_XDICTIONARY
360
2AE17
102
}
102
{ACAD_REACTORS
330
2AE18
102
}
330
1F
100
AcDbEntity
  8
Dim
100
AcDbLeader
  3
FBR
 73
     0
 40
1.966666666666666
 41
14.09047619047618
 76
     2
 10
78.30968351400861
 20
95.53241223833483
 30
0.0
 10
93.98528357810425
 20
95.53241223833483
 30
0.0
340
2AE16
213
0.0
223
-0.5
233
0.0
1001
ACAD
1000
DSTYLE
1002
{
1070
   147
1040
0.3
1070
    77
1070
     0
1002
}
  0
MTEXT
  5
2AE16
102
{ACAD_REACTORS
330
2AE15
102
}
330
1F
100
AcDbEntity
  8
Dim
100
AcDbMText
 10
94.28528357810426
 20
96.03241223833483
 30
0.0
 40
1.0
 41
0.0
 46
0.0
 71
     1
 72
     1
  1
\A1;{\H0.7x;\S1/2;}" [13mm] drywall
  7
Logix
 73
     1
 44
1.0
1001
ACAD
1000
ACAD_MTEXT_DEFINED_HEIGHT_BEGIN
1070
    46
1040
0.0
1000
ACAD_MTEXT_DEFINED_HEIGHT_END
  0
LEADER
  5
2AE19
102
{ACAD_XDICTIONARY
360
2AE1B
102
}
102
{ACAD_REACTORS
330
2AE1C
102
}
330
1F
100
AcDbEntity
  8
Dim
100
AcDbLeader
  3
FBR
 73
     0
 40
3.19047619047619
 41
16.38095238095237
 76
     2
 10
62.18468351400852
 20
87.94307805296893
 30
0.0
 10
46.88554373075032
 20
87.94307805296893
 30
0.0
340
2AE1A
213
0.0
223
0.5
233
0.0
1001
ACAD
1000
DSTYLE
1002
{
1070
   147
1040
0.3
1070
    77
1070
     0
1002
}
  0
MTEXT
  5
2AE1A
102
{ACAD_REACTORS
330
2AE19
102
}
330
1F
100
AcDbEntity
  8
Dim
100
AcDbMText
 10
46.58554373075033
 20
87.44307805296893
 30
0.0
 40
1.0
 41
0.0
 46
0.0
 71
     9
 72
     1
  1
\A1;2x2 wood strips\P@ 24" [610mm] o/c
  7
Logix
 73
     1
 44
1.0
  0
LEADER
  5
2AE1D
330
1F
100
AcDbEntity
  8
Dim
100
AcDbLeader
  3
FBR
 73
     0
 40
2.857142857142857
 41
17.14285714285713
 76
     2
 10
75.9927553287531
 20
88.07777358193863
 30
0.0
 10
93.84354741654737
 20
88.07777358193863
 30
0.0
340
2AE1E
213
0.0
223
-0.5
233
0.0
1001
ACAD
1000
DSTYLE
1002
{
1070
   147
1040
0.3
1070
    77
1070
     0
1002
}
  0
MTEXT
  5
2AE1E
102
{ACAD_REACTORS
330
2AE1D
102
}
330
1F
100
AcDbEntity
  8
Dim
100
AcDbMText
 10
94.14354741654738
 20
88.57777358193862
 30
0.0
 40
1.0
 41
0.0
 46
0.0
 71
     1
 72
     1
  1
4" [102mm]\PLOGIX Standard Forms
  7
Logix
 73
     1
 44
1.0
1001
ACAD
1000
ACAD_MTEXT_DEFINED_HEIGHT_BEGIN
1070
    46
1040
0.0
1000
ACAD_MTEXT_DEFINED_HEIGHT_END
  0
LINE
  5
2AE1F
102
{ACAD_REACTORS
330
2AE29
102
}
330
1F
100
AcDbEntity
  8
DEFPOINTS
100
AcDbLine
 10
67.43468351400853
 20
102.5301443723744
 30
0.0
 11
67.8096835140085
 21
102.5301443723744
 31
0.0
  0
LINE
  5
2AE20
102
{ACAD_REACTORS
330
2AE29
102
}
330
1F
100
AcDbEntity
  8
DEFPOINTS
100
AcDbLine
 10
67.8096835140085
 20
102.5301443723744
 30
0.0
 11
68.5596835140085
 21
100.4695363077835
 31
0.0
  0
LINE
  5
2AE21
102
{ACAD_REACTORS
330
2AE29
102
}
330
1F
100
AcDbEntity
  8
DEFPOINTS
100
AcDbLine
 10
68.5596835140085
 20
100.4695363077835
 30
0.0
 11
70.05968351400849
 21
104.5907524369654
 31
0.0
  0
LINE
  5
2AE22
102
{ACAD_REACTORS
330
2AE29
102
}
330
1F
100
AcDbEntity
  8
DEFPOINTS
100
AcDbLine
 10
70.05968351400849
 20
104.5907524369654
 30
0.0
 11
70.8096835140085
 21
102.5301443723744
 31
0.0
  0
LINE
  5
2AE23
102
{ACAD_REACTORS
330
2AE29
102
}
330
1F
100
AcDbEntity
  8
DEFPOINTS
100
AcDbLine
 10
70.8096835140085
 20
102.5301443723744
 30
0.0
 11
73.43468351400861
 21
102.5301443723744
 31
0.0
  0
LINE
  5
2AE24
102
{ACAD_REACTORS
330
2AE29
330
2AE57
102
}
330
1F
100
AcDbEntity
  8
DEFPOINTS
100
AcDbLine
 10
73.43468351400861
 20
37.04622261236
 30
0.0
 11
70.8096835140085
 21
37.04622261236
 31
0.0
  0
LINE
  5
2AE25
102
{ACAD_REACTORS
330
2AE29
102
}
330
1F
100
AcDbEntity
  8
DEFPOINTS
100
AcDbLine
 10
70.8096835140085
 20
37.04622261236
 30
0.0
 11
70.05968351400849
 21
39.10683067695098
 31
0.0
  0
LINE
  5
2AE26
102
{ACAD_REACTORS
330
2AE29
102
}
330
1F
100
AcDbEntity
  8
DEFPOINTS
100
AcDbLine
 10
70.05968351400849
 20
39.10683067695098
 30
0.0
 11
68.5596835140085
 21
34.98561454776906
 31
0.0
  0
LINE
  5
2AE27
102
{ACAD_REACTORS
330
2AE29
102
}
330
1F
100
AcDbEntity
  8
DEFPOINTS
100
AcDbLine
 10
68.5596835140085
 20
34.98561454776906
 30
0.0
 11
67.8096835140085
 21
37.04622261236
 31
0.0
  0
LINE
  5
2AE28
102
{ACAD_REACTORS
330
2AE29
102
}
330
1F
100
AcDbEntity
  8
DEFPOINTS
100
AcDbLine
 10
67.8096835140085
 20
37.04622261236
 30
0.0
 11
67.43468351400853
 21
37.04622261236
 31
0.0
  0
HATCH
  5
2AE29
330
1F
100
AcDbEntity
  8
Conc
100
AcDbHatch
 10
0.0
 20
0.0
 30
0.0
210
0.0
220
0.0
230
1.0
  2
AR-CONC
 70
     0
 71
     1
 91
        1
 92
        1
 93
       16
 72
     1
 10
68.5596835140085
 20
100.4695363077835
 11
70.05968351400849
 21
104.5907524369654
 72
     1
 10
70.05968351400849
 20
104.5907524369654
 11
70.8096835140085
 21
102.5301443723744
 72
     1
 10
70.8096835140085
 20
102.5301443723744
 11
73.43468351400861
 21
102.5301443723744
 72
     1
 10
73.43468351400861
 20
102.5301443723744
 11
73.43468351400861
 21
81.81214740715489
 72
     1
 10
73.43468351400861
 20
81.81214740715489
 11
73.43468351400861
 21
57.8121474071549
 72
     1
 10
73.43468351400861
 20
57.8121474071549
 11
73.43468351400861
 21
37.04622261236
 72
     1
 10
73.43468351400861
 20
37.04622261236
 11
70.8096835140085
 21
37.04622261236
 72
     1
 10
70.8096835140085
 20
37.04622261236
 11
70.05968351400849
 21
39.10683067695098
 72
     1
 10
70.05968351400849
 20
39.10683067695098
 11
68.5596835140085
 21
34.98561454776906
 72
     1
 10
68.5596835140085
 20
34.98561454776906
 11
67.8096835140085
 21
37.04622261236
 72
     1
 10
67.8096835140085
 20
37.04622261236
 11
67.43468351400853
 21
37.04622261236
 72
     1
 10
67.43468351400853
 20
37.04622261236
 11
67.43468351400853
 21
57.8121474071549
 72
     1
 10
67.43468351400853
 20
57.8121474071549
 11
67.43468351400853
 21
81.81214740715489
 72
     1
 10
67.43468351400853
 20
81.81214740715489
 11
67.43468351400853
 21
102.5301443723744
 72
     1
 10
67.43468351400853
 20
102.5301443723744
 11
67.8096835140085
 21
102.5301443723744
 72
     1
 10
67.8096835140085
 20
102.5301443723744
 11
68.5596835140085
 21
100.4695363077835
 97
       16
330
2AE21
330
2AE22
330
2AE23
330
2AD75
330
2AD2A
330
2AC81
330
2AE24
330
2AE25
330
2AE26
330
2AE27
330
2AE28
330
2AC7B
330
2AD24
330
2AD6F
330
2AE1F
330
2AE20
 75
     0
 76
     1
 52
0.0
 41
1.0
 77
     0
 78
    13
 53
50.0
 43
-1.027033592785187
 44
0.0
 45
7.172601826007534
 46
-0.6275213498259511
 79
     2
 49
0.75
 49
-8.25
 53
355.0
 43
-1.027033592785187
 44
0.0
 45
-1.38751333613
 46
7.521921337000118
 79
     2
 49
0.6
 49
-6.599999999999999
 53
100.4514
 43
-0.4293167927851874
 44
-0.0522934
 45
5.785093817140215
 46
6.894395420609535
 79
     2
 49
0.6374019000000001
 49
-7.011421119999999
 53
46.1842
 43
-1.027033592785187
 44
2.0
 45
10.67241048625644
 46
-1.65519014329018
 79
     2
 49
1.125
 49
-12.375
 53
96.63559999999998
 43
-0.1376661427851875
 44
1.862066929999999
 45
9.346627055487033
 46
9.741178709004417
 79
     2
 49
0.9561028799999998
 49
-10.51713
 53
351.1842000000001
 43
-1.027033592785187
 44
2.0
 45
9.346619451336271
 46
9.741186009253246
 79
     2
 49
0.9
 49
-9.9
 53
21.0
 43
-0.0270335927851875
 44
1.5
 45
5.969070521184616
 46
-4.026188906653388
 79
     2
 49
0.75
 49
-8.25
 53
326.0
 43
-0.0270335927851875
 44
1.5
 45
2.433153319215817
 46
7.25150045046853
 79
     2
 49
0.6
 49
-6.599999999999999
 53
71.45140000000001
 43
0.4703887372148126
 44
1.164483939999999
 45
8.402226285814899
 46
3.225304967099523
 79
     2
 49
0.6374019000000001
 49
-7.011421119999999
 53
37.5
 43
-1.027033592785187
 44
0.0
 45
0.1215985531729067
 46
3.328938538313114
 79
     6
 49
0.0
 49
-6.519999999999999
 49
0.0
 49
-6.7
 49
0.0
 49
-6.625
 53
7.499999999999999
 43
-1.027033592785187
 44
0.0
 45
2.630695374421486
 46
3.944117118823602
 79
     6
 49
0.0
 49
-3.819999999999999
 49
0.0
 49
-6.37
 49
0.0
 49
-2.524999999999999
 53
327.5
 43
-3.257033592785187
 44
0.0
 45
5.33822436172409
 46
-0.225548717343798
 79
     6
 49
0.0
 49
-2.5
 49
0.0
 49
-7.799999999999999
 49
0.0
 49
-10.35
 53
317.5
 43
-4.257033592785187
 44
0.0
 45
5.831861693423862
 46
1.001049823323176
 79
     6
 49
0.0
 49
-3.25
 49
0.0
 49
-5.179999999999999
 49
0.0
 49
-7.349999999999999
 98
        1
 10
-1.027033592785187
 20
0.0
1001
ACAD
1010
0.0
1020
0.0
1030
0.0
  0
LWPOLYLINE
  5
2AE32
330
1F
100
AcDbEntity
  8
SteelBars
100
AcDbPolyline
 90
        2
 70
     0
 43
0.3
 10
70.58468382119892
 20
103.1483259477529
 10
70.58468382119892
 20
37.66440418773855
  0
LWPOLYLINE
  5
2AE3B
330
1F
100
AcDbEntity
  8
SteelBars
100
AcDbPolyline
 90
        2
 70
     1
 43
0.25
 10
71.80968351400892
 20
98.49964740715494
 42
1.0
 10
72.05968351400892
 20
98.49964740715494
 42
1.0
  0
LWPOLYLINE
  5
2AE3C
330
1F
100
AcDbEntity
  8
SteelBars
100
AcDbPolyline
 90
        2
 70
     1
 43
0.25
 10
68.80968351400858
 20
74.49964740715493
 42
1.0
 10
69.05968351400858
 20
74.49964740715493
 42
1.0
  0
LWPOLYLINE
  5
2AE3D
330
1F
100
AcDbEntity
  8
SteelBars
100
AcDbPolyline
 90
        2
 70
     1
 43
0.25
 10
71.80968351400892
 20
50.49964740715494
 42
1.0
 10
72.05968351400892
 20
50.49964740715494
 42
1.0
  0
DIMENSION
  5
2AE3E
102
{ACAD_XDICTIONARY
360
2AE4C
102
}
102
{ACAD_REACTORS
330
2AE57
102
}
330
1F
100
AcDbEntity
  8
Dim
100
AcDbDimension
280
     0
  2
*D12
 10
67.43468351400853
 20
28.03144498970045
 30
0.0
 11
70.64794410097579
 21
25.24376594812861
 31
0.0
 70
   160
  1
4"\P[102mm]
 71
     5
 42
6.000000000000085
 73
     0
 74
     0
 75
     0
  3
FBR
100
AcDbAlignedDimension
 13
73.43468351400861
 23
37.04622261236
 33
0.0
 14
67.43468351400853
 24
37.04622261235999
 34
0.0
100
AcDbRotatedDimension
  0
MTEXT
  5
2AE7A
330
1F
100
AcDbEntity
  8
Dim
100
AcDbMText
 10
70.19995647144662
 20
18.40289006647767
 30
0.0
 40
1.25
 41
55.963563520438
 46
1.349709632233193
 71
     2
 72
     5
  1
{\fSansSerif|b1|i0|c2|p2;\LSTC50 - 4" [102mm] LOGIX WALL}
  7
Logix
 73
     1
 44
1.0
1001
ACAD
1000
ACAD_MTEXT_DEFINED_HEIGHT_BEGIN
1070
    46
1040
1.349709632233193
1000
ACAD_MTEXT_DEFINED_HEIGHT_END
  0
MTEXT
  5
2B064
330
1F
100
AcDbEntity
  8
Title Block
100
AcDbMText
 10
36.68230906020381
 20
7.783400224116713
 30
0.0
 40
3.007588226546747
 41
15.56946784513218
 46
0.0
 71
     5
 72
     5
  1
{\fSansSerif|b1|i0|c2|p2;LOGIX}
 73
     1
 44
1.0
  0
HATCH
  5
2B065
330
1F
100
AcDbEntity
  8
Title Block
 62
    12
420
 14024704
100
AcDbHatch
 10
0.0
 20
0.0
 30
0.0
210
0.0
220
0.0
230
1.0
  2
SOLID
 70
     1
 71
     0
 91
        1
 92
        1
 93
        4
 72
     1
 10
39.94236928557186
 20
9.68633341946731
 11
39.9423692855719
 21
10.31211122234183
 72
     1
 10
39.9423692855719
 20
10.31211122234183
 11
39.31301670066769
 21
10.31645777336133
 72
     1
 10
39.31301670066769
 20
10.31645777336133
 11
39.31301670066769
 21
9.690679970486812
 72
     1
 10
39.31301670066769
 20
9.69067997048681
 11
39.94236928557187
 21
9.68633341946731
 97
        0
 75
     0
 76
     1
 98
        1
 10
40.11808691294798
 20
9.906845744190977
450
        0
451
        0
460
0.0
461
0.0
452
        0
462
0.0
453
        0
470

  0
TEXT
  5
2B066
330
1F
100
AcDbEntity
  8
Title Block
100
AcDbText
 10
32.2877364268425
 20
5.689201494297114
 30
0.0
 40
0.4784799451324372
  1
INSULATED CONCRETE FORMS
  7
TITLE
100
AcDbText
  0
LWPOLYLINE
  5
2B067
330
1F
100
AcDbEntity
  8
Title Block
100
AcDbPolyline
 90
        3
 70
     0
 43
0.5468342230084997
 10
29.52210210772469
 20
7.00377539555629
 10
29.52210210772469
 20
5.413447063758765
 10
32.3691264308929
 20
5.413447063758765
  0
HATCH
  5
2B068
330
1F
100
AcDbEntity
  8
Title Block
 62
    12
420
 14024704
100
AcDbHatch
 10
0.0
 20
0.0
 30
0.0
210
0.0
220
0.0
230
1.0
  2
SOLID
 70
     1
 71
     0
 91
        1
 92
        1
 93
        4
 72
     1
 10
30.43216987813206
 20
5.684118285932747
 11
30.43216987813206
 21
6.319098549356697
 72
     1
 10
30.43216987813206
 20
6.319098549356699
 11
29.79097460649777
 21
6.319098549356699
 72
     1
 10
29.79097460649777
 20
6.319098549356699
 11
29.79097460649777
 21
5.684118285932749
 72
     1
 10
29.79097460649777
 20
5.684118285932747
 11
30.43216987813205
 21
5.684118285932747
 97
        0
 75
     0
 76
     1
 98
        1
 10
30.21346768417827
 20
5.981496335360526
450
        0
451
        0
460
0.0
461
0.0
452
        0
462
0.0
453
        0
470

  0
LWPOLYLINE
  5
2B069
330
1F
100
AcDbEntity
  8
Title Block
 62
    10
100
AcDbPolyline
 90
        4
 70
     1
 43
0.0
 10
30.43216987813206
 20
5.684118285932751
 10
29.79097460649777
 20
5.684118285932751
 10
29.79097460649777
 20
6.319098549356702
 10
30.43216987813206
 20
6.319098549356702
  0
MTEXT
  5
2B06A
102
{ACAD_XDICTIONARY
360
2B06B
102
}
330
1F
100
AcDbEntity
  8
Title Block
100
AcDbMText
 10
44.29430153135327
 20
9.282479794336294
 30
0.0
 40
0.7291122973446662
 41
1.434444221211763
 46
0.0
 71
     3
 72
     5
  1
{\fArial|b0|i0|c0|p34;\H1.0833x;®}
 73
     1
 44
1.0
  0
MTEXT
  5
2B06C
102
{ACAD_XDICTIONARY
360
2B06D
102
}
330
1F
100
AcDbEntity
  8
0
 48
0.01
100
AcDbMText
 10
29.22157595581797
 20
4.452877177810204
 30
0.0
 40
0.9302832220866575
 41
15.04930642254516
 46
0.0
 71
     1
 72
     5
  1
\pi0.07421;{\C256;\c16777215;Build Anything \fCalibri|b1|i0|c0|p34;Better.}
  7
Logix
 73
     1
 44
1.0
 90
        1
 63
    83
 45
1.5
441
        0
1001
AcadAnnotative
1000
AnnotativeData
1002
{
1070
     1
1070
     1
1002
}
  0
MTEXT
  5
2B071
330
1F
100
AcDbEntity
  8
Title Block
100
AcDbMText
 10
36.28528278694951
 20
0.663805762987296
 30
0.0
 40
0.7291122973446662
 41
21.0123188684256
 46
0.0
 71
     5
 72
     5
  1
{\fArial|b0|i0|c0|p34;1-866-944-0153}
 73
     1
 44
1.0
  0
MTEXT
  5
2B072
330
1F
100
AcDbEntity
  8
Title Block
100
AcDbMText
 10
36.28528278694951
 20
1.798243196370294
 30
0.0
 40
0.7291122973446662
 41
21.0123188684256
 46
0.0
 71
     5
 72
     5
  1
{\fArial|b0|i0|c0|p34;www.logixicf.com}
 73
     1
 44
1.0
  0
VIEWPORT
  5
11F07
330
5D
100
AcDbEntity
 67
     1
  8
0
100
AcDbViewport
 10
5.249999639556163
 20
3.999999883606677
 30
0.0
 40
21.60469660038833
 41
8.992999745766947
 68
     1
 69
     1
 12
5.249999639556163
 22
3.999999883606677
 13
0.0
 23
0.0
 14
0.5
 24
0.5
 15
0.5
 25
0.5
 16
0.0
 26
0.0
 36
1.0
 17
0.0
 27
0.0
 37
0.0
 42
50.0
 43
0.0
 44
0.0
 45
8.992999745766947
 50
0.0
 51
0.0
 72
  1000
 90
    32800
  1

281
     0
 71
     1
 74
     0
110
0.0
120
0.0
130
0.0
111
1.0
121
0.0
131
0.0
112
0.0
122
1.0
132
0.0
 79
     0
146
0.0
170
     0
 61
     5
348
2AF2D
292
     1
282
     1
141
0.0
142
0.0
 63
   250
421
  3355443
  0
VIEWPORT
  5
11F09
330
5D
100
AcDbEntity
 67
     1
  8
Dim
100
AcDbViewport
 10
5.24999976158142
 20
3.99999976158142
 30
0.0
 40
8.399999618530271
 41
6.399999618530272
 68
     2
 69
     2
 12
70.24570646213799
 22
55.11630672257945
 13
0.0
 23
0.0
 14
0.5
 24
0.5
 15
0.5
 25
0.5
 16
0.0
 26
0.0
 36
1.0
 17
0.0
 27
0.0
 37
0.0
 42
50.0
 43
0.0
 44
0.0
 45
113.4515982453417
 50
0.0
 51
0.0
 72
  1000
 90
    32864
  1

281
     0
 71
     1
 74
     0
110
0.0
120
0.0
130
0.0
111
1.0
121
0.0
131
0.0
112
0.0
122
1.0
132
0.0
 79
     0
146
0.0
170
     0
 61
     5
348
2AF2D
292
     1
282
     1
141
0.0
142
0.0
 63
   250
421
  3355443
  0
ENDSEC
  0
SECTION
  2
OBJECTS
  0
DICTIONARY
  5
C
330
0
100
AcDbDictionary
281
     1
  3
ACAD_CIP_PREVIOUS_PRODUCT_INFO
350
2B035
  3
ACAD_COLOR
350
73
  3
ACAD_DETAILVIEWSTYLE
350
2B024
  3
ACAD_FIELDLIST
350
7B86
  3
ACAD_GROUP
350
D
  3
ACAD_LAYOUT
350
1A
  3
ACAD_MATERIAL
350
72
  3
ACAD_MLEADERSTYLE
350
2AF5A
  3
ACAD_MLINESTYLE
350
17
  3
ACAD_PLOTSETTINGS
350
19
  3
ACAD_PLOTSTYLENAME
350
E
  3
ACAD_SCALELIST
350
2AF38
  3
ACAD_SECTIONVIEWSTYLE
350
2B022
  3
ACAD_TABLESTYLE
350
86
  3
ACAD_VISUALSTYLE
350
2AF27
  3
AcadDim
350
1F7C0
  3
ACDB_RECOMPOSE_DATA
350
2B0AC
  3
AcDbVariableDictionary
350
66
  3
AcDsDecomposeData
350
2B0B2
  3
AEC_CLASSIFICATION_SYSTEM_DEFS
350
7B87
  3
AEC_PROPERTY_SET_DEFS
350
2B060
  3
ASE_INDEX_DICTIONARY
350
2AFE7
  3
AVE_ACITABLE
350
197B4
  3
BNS_VARIABLES
350
1401
  0
DICTIONARY
  5
8D
330
2
100
AcDbDictionary
280
     1
281
     1
  3
ACAD_LAYERFILTERS
360
2AE8E
  3
ACAD_LAYERSTATES
360
11EFF
  3
ACLYDICTIONARY
360
2AE8D
  0
DICTIONARY
  5
2AF90
330
10
100
AcDbDictionary
280
     1
281
     1
  3
ADSK_XREC_LAYER_RECONCILED
360
2AF91
  0
DICTIONARY
  5
2AF92
330
8B
100
AcDbDictionary
280
     1
281
     1
  3
ADSK_XREC_LAYER_RECONCILED
360
2AF93
  0
DICTIONARY
  5
2AF94
330
770
100
AcDbDictionary
280
     1
281
     1
  3
ADSK_XREC_LAYER_RECONCILED
360
2AF95
  0
DICTIONARY
  5
2AF96
330
13AF
100
AcDbDictionary
280
     1
281
     1
  3
ADSK_XREC_LAYER_RECONCILED
360
2AF97
  0
DICTIONARY
  5
2AF98
330
32CE
100
AcDbDictionary
280
     1
281
     1
  3
ADSK_XREC_LAYER_RECONCILED
360
2AF99
  0
DICTIONARY
  5
2AF9A
330
11F4A
100
AcDbDictionary
280
     1
281
     1
  3
ADSK_XREC_LAYER_RECONCILED
360
2AF9B
  0
DICTIONARY
  5
2AF9C
330
121C7
100
AcDbDictionary
280
     1
281
     1
  3
ADSK_XREC_LAYER_RECONCILED
360
2AF9D
  0
DICTIONARY
  5
2AF9E
330
121CA
100
AcDbDictionary
280
     1
281
     1
  3
ADSK_XREC_LAYER_RECONCILED
360
2AF9F
  0
DICTIONARY
  5
2AFA0
330
121CF
100
AcDbDictionary
280
     1
281
     1
  3
ADSK_XREC_LAYER_RECONCILED
360
2AFA1
  0
DICTIONARY
  5
2AFA2
330
121E2
100
AcDbDictionary
280
     1
281
     1
  3
ADSK_XREC_LAYER_RECONCILED
360
2AFA3
  0
DICTIONARY
  5
2AFA4
330
121F7
100
AcDbDictionary
280
     1
281
     1
  3
ADSK_XREC_LAYER_RECONCILED
360
2AFA5
  0
DICTIONARY
  5
2AFA6
330
12238
100
AcDbDictionary
280
     1
281
     1
  3
ADSK_XREC_LAYER_RECONCILED
360
2AFA7
  0
DICTIONARY
  5
2AFA8
330
12273
100
AcDbDictionary
280
     1
281
     1
  3
ADSK_XREC_LAYER_RECONCILED
360
2AFA9
  0
DICTIONARY
  5
2AFAA
330
1233D
100
AcDbDictionary
280
     1
281
     1
  3
ADSK_XREC_LAYER_RECONCILED
360
2AFAB
  0
DICTIONARY
  5
2AFAC
330
1958B
100
AcDbDictionary
280
     1
281
     1
  3
ADSK_XREC_LAYER_RECONCILED
360
2AFAD
  0
DICTIONARY
  5
2AFAE
330
197A1
100
AcDbDictionary
280
     1
281
     1
  3
ADSK_XREC_LAYER_RECONCILED
360
2AFAF
  0
DICTIONARY
  5
2AFB0
330
197C9
100
AcDbDictionary
280
     1
281
     1
  3
ADSK_XREC_LAYER_RECONCILED
360
2AFB1
  0
DICTIONARY
  5
2AFB2
330
1A74F
100
AcDbDictionary
280
     1
281
     1
  3
ADSK_XREC_LAYER_RECONCILED
360
2AFB3
  0
DICTIONARY
  5
2AFB4
330
1B20B
100
AcDbDictionary
280
     1
281
     1
  3
ADSK_XREC_LAYER_RECONCILED
360
2AFB5
  0
DICTIONARY
  5
2AFB6
330
1CF9D
100
AcDbDictionary
280
     1
281
     1
  3
ADSK_XREC_LAYER_RECONCILED
360
2AFB7
  0
DICTIONARY
  5
2AFB8
330
1D689
100
AcDbDictionary
280
     1
281
     1
  3
ADSK_XREC_LAYER_RECONCILED
360
2AFB9
  0
DICTIONARY
  5
2AFBA
330
1D68A
100
AcDbDictionary
280
     1
281
     1
  3
ADSK_XREC_LAYER_RECONCILED
360
2AFBB
  0
DICTIONARY
  5
2AFBC
330
1E3D0
100
AcDbDictionary
280
     1
281
     1
  3
ADSK_XREC_LAYER_RECONCILED
360
2AFBD
  0
DICTIONARY
  5
2AFBE
330
1E3D2
100
AcDbDictionary
280
     1
281
     1
  3
ADSK_XREC_LAYER_RECONCILED
360
2AFBF
  0
DICTIONARY
  5
2AFC0
330
1F3E8
100
AcDbDictionary
280
     1
281
     1
  3
ADSK_XREC_LAYER_RECONCILED
360
2AFC1
  0
DICTIONARY
  5
2AFC2
330
29DB1
100
AcDbDictionary
280
     1
281
     1
  3
ADSK_XREC_LAYER_RECONCILED
360
2AFC3
  0
DICTIONARY
  5
2AFC4
330
2AE8C
100
AcDbDictionary
280
     1
281
     1
  3
ADSK_XREC_LAYER_RECONCILED
360
2AFC5
  0
DICTIONARY
  5
2B038
330
2B037
100
AcDbDictionary
280
     1
281
     1
  0
DICTIONARY
  5
39A
330
1F
100
AcDbDictionary
280
     1
281
     1
  3
ACAD_SORTENTS
360
39B
  0
DICTIONARY
  5
2AF6F
330
7B76
100
AcDbDictionary
280
     1
281
     1
  0
DICTIONARY
  5
21CC4
330
21CC2
100
AcDbDictionary
280
     1
281
     1
  3
ACAD_SORTENTS
360
21CC5
  0
DICTIONARY
  5
2AE13
330
2AE11
100
AcDbDictionary
280
     1
281
     1
  3
ACAD_DIMASSOC
360
2AE14
  0
DICTIONARY
  5
2AE17
330
2AE15
100
AcDbDictionary
280
     1
281
     1
  3
ACAD_DIMASSOC
360
2AE18
  0
DICTIONARY
  5
2AE1B
330
2AE19
100
AcDbDictionary
280
     1
281
     1
  3
ACAD_DIMASSOC
360
2AE1C
  0
DICTIONARY
  5
2AE4C
330
2AE3E
100
AcDbDictionary
280
     1
281
     1
  3
ACAD_DIMASSOC
360
2AE57
  0
DICTIONARY
  5
2B06B
330
2B06A
100
AcDbDictionary
280
     1
281
     1
  3
ACAD_MTEXT_2008_RT
360
2B0AA
  0
DICTIONARY
  5
2B06D
330
2B06C
100
AcDbDictionary
280
     1
281
     1
  3
ACAD_MTEXT_2008_RT
360
2B0AB
  3
AcDbContextDataManager
360
2B06E
  0
XRECORD
  5
2B035
102
{ACAD_REACTORS
330
C
102
}
330
C
100
AcDbXrecord
280
     1
300
ACD
300
2022
300

  0
DICTIONARY
  5
73
102
{ACAD_REACTORS
330
C
102
}
330
C
100
AcDbDictionary
281
     1
  0
DICTIONARY
  5
2B024
102
{ACAD_REACTORS
330
C
102
}
330
C
100
AcDbDictionary
281
     1
  3
Imperial24
350
2B025
  0
FIELDLIST
  5
7B86
102
{ACAD_REACTORS
330
C
102
}
330
C
100
AcDbIdSet
 90
        0
100
AcDbFieldList
  0
DICTIONARY
  5
D
102
{ACAD_REACTORS
330
C
102
}
330
C
100
AcDbDictionary
281
     1
  0
DICTIONARY
  5
1A
102
{ACAD_REACTORS
330
C
102
}
330
C
100
AcDbDictionary
281
     1
  3
Layout1
350
59
  3
Layout2
350
5E
  3
Model
350
22
  0
DICTIONARY
  5
72
102
{ACAD_REACTORS
330
C
102
}
330
C
100
AcDbDictionary
281
     1
  3
ByBlock
350
2AF17
  3
ByLayer
350
2AF0F
  3
Global
350
2AF1F
  0
DICTIONARY
  5
2AF5A
102
{ACAD_REACTORS
330
C
102
}
330
C
100
AcDbDictionary
281
     1
  3
Standard
350
2AF5B
  0
DICTIONARY
  5
17
102
{ACAD_REACTORS
330
C
102
}
330
C
100
AcDbDictionary
281
     1
  3
Standard
350
18
  0
DICTIONARY
  5
19
102
{ACAD_REACTORS
330
C
102
}
330
C
100
AcDbDictionary
281
     1
  0
ACDBDICTIONARYWDFLT
  5
E
102
{ACAD_REACTORS
330
C
102
}
330
C
100
AcDbDictionary
281
     1
  3
Normal
350
F
100
AcDbDictionaryWithDefault
340
F
  0
DICTIONARY
  5
2AF38
102
{ACAD_REACTORS
330
C
102
}
330
C
100
AcDbDictionary
281
     1
  3
A0
350
2AF39
  3
A1
350
2AF3A
  3
A2
350
2AF3B
  3
A3
350
2AF3C
  3
A4
350
2AF3D
  3
A5
350
2AF3E
  3
A6
350
2AF3F
  3
A7
350
2AF40
  3
A8
350
2AF41
  3
A9
350
2AF42
  3
B0
350
2AF43
  3
B1
350
2AF44
  3
B2
350
2AF45
  3
B3
350
2AF46
  3
B4
350
2AF47
  3
B5
350
2AF48
  3
B6
350
2AF49
  3
B7
350
2AF4A
  3
B8
350
2AF4B
  3
B9
350
2AF4C
  3
C0
350
2AF4D
  3
C1
350
2AF4E
  3
C2
350
2AF4F
  3
C3
350
2AF50
  3
C4
350
2AF51
  3
C5
350
2AF52
  3
C6
350
2AF53
  3
C7
350
2AF54
  3
C8
350
2AF55
  3
C9
350
2AF56
  3
D0
350
2AF57
  3
D1
350
2AF58
  3
D2
350
2AF59
  0
DICTIONARY
  5
2B022
102
{ACAD_REACTORS
330
C
102
}
330
C
100
AcDbDictionary
281
     1
  3
Imperial24
350
2B023
  0
DICTIONARY
  5
86
102
{ACAD_REACTORS
330
C
102
}
330
C
100
AcDbDictionary
281
     1
  3
Example1
350
37C9
  3
Example2
350
36AB
  3
Standard
350
87
  0
DICTIONARY
  5
2AF27
102
{ACAD_REACTORS
330
C
102
}
330
C
100
AcDbDictionary
281
     1
  3
2dWireframe
350
2AF2D
  3
3D Hidden
350
2AF2F
  3
3dWireframe
350
2AF2E
  3
Basic
350
2AF2C
  3
Brighten
350
2AF33
  3
ColorChange
350
2AF37
  3
Conceptual
350
2AF30
  3
Dim
350
2AF32
  3
EdgeColorOff
350
2AFD8
  3
Facepattern
350
2AF36
  3
Flat
350
2AF28
  3
FlatWithEdges
350
2AF29
  3
Gouraud
350
2AF2A
  3
GouraudWithEdges
350
2AF2B
  3
Hidden
350
2B01C
  3
JitterOff
350
2AFD6
  3
Linepattern
350
2AF35
  3
OverhangOff
350
2AFD7
  3
Realistic
350
2AF31
  3
Shaded
350
2B021
  3
Shaded with edges
350
2B020
  3
Shades of Gray
350
2B01D
  3
Sketchy
350
2B01E
  3
Thicken
350
2AF34
  3
Wireframe
350
2B01B
  3
X-Ray
350
2B01F
  0
XRECORD
  5
1F7C0
102
{ACAD_REACTORS
330
C
102
}
330
C
100
AcDbXrecord
280
     1
 90
   990106
  3

 60
     0
 61
     0
 62
     1
 63
     3
 64
     0
 65
     0
 66
     0
 67
     3
 68
     1
 69
     0
 70
     0
 71
     0
 72
     0
 40
0.0
170
     0
340
2AE1E
  0
XRECORD
  5
2B0AC
102
{ACAD_REACTORS
330
C
102
}
330
C
100
AcDbXrecord
280
     1
 90
        1
330
87
330
36AB
330
37C9
330
2B06A
330
2B06C
  0
DICTIONARY
  5
66
102
{ACAD_REACTORS
330
C
102
}
330
C
100
AcDbDictionary
281
     1
  3
CANNOSCALE
350
2AF7F
  3
CMLEADERSTYLE
350
2AF7D
  3
CTABLESTYLE
350
364
  3
CVIEWDETAILSTYLE
350
2B094
  3
CVIEWSECTIONSTYLE
350
2B095
  3
DIMASSOC
350
67
  3
HIDETEXT
350
6B
  3
LAYEREVAL
350
2AFF2
  3
LAYERNOTIFY
350
2AFF3
  3
LIGHTINGUNITS
350
2AF80
  3
MSLTSCALE
350
2AF7E
  3
PROJECTNAME
350
8305
  0
DICTIONARY
  5
2B0B2
102
{ACAD_REACTORS
330
C
102
}
330
C
100
AcDbDictionary
281
     1
  3
AcDsRecords
350
2B0B4
  3
AcDsSchemas
350
2B0B3
1001
ACAD
1070
     2
  0
DICTIONARY
  5
7B87
102
{ACAD_REACTORS
330
C
102
}
330
C
100
AcDbDictionary
281
     1
  0
DICTIONARY
  5
2B060
102
{ACAD_REACTORS
330
C
102
}
330
C
100
AcDbDictionary
281
     1
  0
DICTIONARY
  5
2AFE7
102
{ACAD_REACTORS
330
C
102
}
330
C
100
AcDbDictionary
281
     1
  3
ASEBlockHierarchyIndexRecord
350
2AFE8
1001
DCO15
1040
1788862091.371
  0
DICTIONARY
  5
197B4
102
{ACAD_REACTORS
330
C
102
}
330
C
100
AcDbDictionary
281
     1
  0
DICTIONARY
  5
1401
102
{ACAD_REACTORS
330
C
102
}
330
C
100
AcDbDictionary
281
     1
  3
ACET.BREAKLINE-BLKEXE
350
1402
  0
DICTIONARY
  5
2AE8E
102
{ACAD_REACTORS
330
8D
102
}
330
8D
100
AcDbDictionary
281
     1
  0
DICTIONARY
  5
11EFF
102
{ACAD_REACTORS
330
8D
102
}
330
8D
100
AcDbDictionary
281
     1
  0
DICTIONARY
  5
2AE8D
102
{ACAD_REACTORS
330
8D
102
}
330
8D
100
AcDbDictionary
281
     1
1001
ACAD
1000
<All
  0
XRECORD
  5
2AF91
102
{ACAD_REACTORS
330
2AF90
102
}
330
2AF90
100
AcDbXrecord
280
     1
290
     1
  0
XRECORD
  5
2AF93
102
{ACAD_REACTORS
330
2AF92
102
}
330
2AF92
100
AcDbXrecord
280
     1
290
     1
  0
XRECORD
  5
2AF95
102
{ACAD_REACTORS
330
2AF94
102
}
330
2AF94
100
AcDbXrecord
280
     1
290
     1
  0
XRECORD
  5
2AF97
102
{ACAD_REACTORS
330
2AF96
102
}
330
2AF96
100
AcDbXrecord
280
     1
290
     1
  0
XRECORD
  5
2AF99
102
{ACAD_REACTORS
330
2AF98
102
}
330
2AF98
100
AcDbXrecord
280
     1
290
     1
  0
XRECORD
  5
2AF9B
102
{ACAD_REACTORS
330
2AF9A
102
}
330
2AF9A
100
AcDbXrecord
280
     1
290
     1
  0
XRECORD
  5
2AF9D
102
{ACAD_REACTORS
330
2AF9C
102
}
330
2AF9C
100
AcDbXrecord
280
     1
290
     1
  0
XRECORD
  5
2AF9F
102
{ACAD_REACTORS
330
2AF9E
102
}
330
2AF9E
100
AcDbXrecord
280
     1
290
     1
  0
XRECORD
  5
2AFA1
102
{ACAD_REACTORS
330
2AFA0
102
}
330
2AFA0
100
AcDbXrecord
280
     1
290
     1
  0
XRECORD
  5
2AFA3
102
{ACAD_REACTORS
330
2AFA2
102
}
330
2AFA2
100
AcDbXrecord
280
     1
290
     1
  0
XRECORD
  5
2AFA5
102
{ACAD_REACTORS
330
2AFA4
102
}
330
2AFA4
100
AcDbXrecord
280
     1
290
     1
  0
XRECORD
  5
2AFA7
102
{ACAD_REACTORS
330
2AFA6
102
}
330
2AFA6
100
AcDbXrecord
280
     1
290
     1
  0
XRECORD
  5
2AFA9
102
{ACAD_REACTORS
330
2AFA8
102
}
330
2AFA8
100
AcDbXrecord
280
     1
290
     1
  0
XRECORD
  5
2AFAB
102
{ACAD_REACTORS
330
2AFAA
102
}
330
2AFAA
100
AcDbXrecord
280
     1
290
     1
  0
XRECORD
  5
2AFAD
102
{ACAD_REACTORS
330
2AFAC
102
}
330
2AFAC
100
AcDbXrecord
280
     1
290
     1
  0
XRECORD
  5
2AFAF
102
{ACAD_REACTORS
330
2AFAE
102
}
330
2AFAE
100
AcDbXrecord
280
     1
290
     1
  0
XRECORD
  5
2AFB1
102
{ACAD_REACTORS
330
2AFB0
102
}
330
2AFB0
100
AcDbXrecord
280
     1
290
     1
  0
XRECORD
  5
2AFB3
102
{ACAD_REACTORS
330
2AFB2
102
}
330
2AFB2
100
AcDbXrecord
280
     1
290
     1
  0
XRECORD
  5
2AFB5
102
{ACAD_REACTORS
330
2AFB4
102
}
330
2AFB4
100
AcDbXrecord
280
     1
290
     1
  0
XRECORD
  5
2AFB7
102
{ACAD_REACTORS
330
2AFB6
102
}
330
2AFB6
100
AcDbXrecord
280
     1
290
     1
  0
XRECORD
  5
2AFB9
102
{ACAD_REACTORS
330
2AFB8
102
}
330
2AFB8
100
AcDbXrecord
280
     1
290
     1
  0
XRECORD
  5
2AFBB
102
{ACAD_REACTORS
330
2AFBA
102
}
330
2AFBA
100
AcDbXrecord
280
     1
290
     1
  0
XRECORD
  5
2AFBD
102
{ACAD_REACTORS
330
2AFBC
102
}
330
2AFBC
100
AcDbXrecord
280
     1
290
     1
  0
XRECORD
  5
2AFBF
102
{ACAD_REACTORS
330
2AFBE
102
}
330
2AFBE
100
AcDbXrecord
280
     1
290
     1
  0
XRECORD
  5
2AFC1
102
{ACAD_REACTORS
330
2AFC0
102
}
330
2AFC0
100
AcDbXrecord
280
     1
290
     1
  0
XRECORD
  5
2AFC3
102
{ACAD_REACTORS
330
2AFC2
102
}
330
2AFC2
100
AcDbXrecord
280
     1
290
     1
  0
XRECORD
  5
2AFC5
102
{ACAD_REACTORS
330
2AFC4
102
}
330
2AFC4
100
AcDbXrecord
280
     1
290
     1
  0
SORTENTSTABLE
  5
39B
102
{ACAD_REACTORS
330
39A
102
}
330
39A
100
AcDbSortentsTable
330
1F
331
7B8A
  5
7BA5
331
7B8C
  5
7BA7
331
7B96
  5
7BAB
331
7B97
  5
7BAC
331
7BA4
  5
7BAD
331
7BA5
  5
7BAF
331
7BA7
  5
80CD
331
7BA9
  5
80EB
331
7BAB
  5
81F0
331
7BAC
  5
81F1
331
7BAD
  5
81F2
331
7BAF
  5
11F9B
331
81F1
  5
7B95
331
81F2
  5
7B96
331
81F3
  5
7B97
331
81F4
  5
7BA4
331
197A5
  5
197AA
331
197A6
  5
197AB
331
197A7
  5
197AC
331
197A8
  5
197B3
331
197A9
  5
19ED9
331
197AA
  5
1AA65
331
197AB
  5
1AFCC
331
197AC
  5
1AFCE
331
197B3
  5
1AFCF
331
1A591
  5
1AFD9
331
1AFCB
  5
1B0EC
331
1AFCC
  5
1C15C
331
1AFCE
  5
1C1D2
331
1AFCF
  5
1C1D3
331
1AFD9
  5
1C1D4
331
1D2E6
  5
1E8C8
331
2A91C
  5
2A920
331
2AC7B
  5
2AC7E
331
2AC7D
  5
2AC7F
331
2AC7E
  5
2AC80
331
2AC7F
  5
2AC82
331
2AC81
  5
2ACDF
331
2AC82
  5
2ACE1
331
2ACE0
  5
2ACE2
331
2ACE1
  5
2ACE3
331
2ACE2
  5
2ACE4
331
2ACE3
  5
2ACE5
331
2ACE4
  5
2ACE6
331
2ACE5
  5
2ACE7
331
2ACE6
  5
2ACE8
331
2ACE7
  5
2ACE9
331
2ACE8
  5
2ACEA
331
2ACE9
  5
2ACEB
331
2ACEA
  5
2ACEC
331
2ACEB
  5
2ACED
331
2ACEC
  5
2ACEE
331
2ACED
  5
2ACEF
331
2ACEE
  5
2ACF0
331
2ACEF
  5
2ACF1
331
2ACF0
  5
2ACF2
331
2ACF1
  5
2ACF3
331
2ACF2
  5
2ACF4
331
2ACF3
  5
2ACF5
331
2ACF4
  5
2ACF6
331
2ACF5
  5
2ACF7
331
2ACF6
  5
2ACF8
331
2ACF7
  5
2ACF9
331
2ACF8
  5
2ACFA
331
2ACF9
  5
2ACFB
331
2ACFA
  5
2ACFC
331
2ACFB
  5
2ACFD
331
2ACFC
  5
2ACFE
331
2ACFD
  5
2ACFF
331
2ACFE
  5
2AD00
331
2ACFF
  5
2AD01
331
2AD00
  5
2AD02
331
2AD01
  5
2AD03
331
2AD02
  5
2AD04
331
2AD03
  5
2AD05
331
2AD04
  5
2AD06
331
2AD05
  5
2AD07
331
2AD06
  5
2AD08
331
2AD07
  5
2AD09
331
2AD08
  5
2AD0A
331
2AD09
  5
2AD0B
331
2AD0A
  5
2AD0C
331
2AD0B
  5
2AD0D
331
2AD0C
  5
2AD0E
331
2AD0D
  5
2AD0F
331
2AD0E
  5
2AD10
331
2AD0F
  5
2AD11
331
2AD10
  5
2AD12
331
2AD11
  5
2AD13
331
2AD12
  5
2AD14
331
2AD13
  5
2AD15
331
2AD14
  5
2AD16
331
2AD15
  5
2AD17
331
2AD16
  5
2AD18
331
2AD17
  5
2AD19
331
2AD18
  5
2AD1A
331
2AD19
  5
2AD1B
331
2AD1A
  5
2AD1C
331
2AD1B
  5
2AD1D
331
2AD1C
  5
2AD1E
331
2AD1D
  5
2AD1F
331
2AD1E
  5
2AD20
331
2AD1F
  5
2AD21
331
2AD20
  5
2AD22
331
2AD21
  5
2AD23
331
2AD22
  5
2AC7B
331
2AD23
  5
2AD24
331
2AD24
  5
2AD25
331
2AD25
  5
2AD26
331
2AD26
  5
2AD27
331
2AD27
  5
2AD28
331
2AD28
  5
2AD29
331
2AD29
  5
2AD2A
331
2AD2A
  5
2AD2B
331
2AD2B
  5
2AD2C
331
2AD2C
  5
2AD2D
331
2AD2D
  5
2AD2E
331
2AD2E
  5
2AD2F
331
2AD2F
  5
2AD30
331
2AD30
  5
2AD31
331
2AD31
  5
2AD32
331
2AD32
  5
2AD33
331
2AD33
  5
2AD34
331
2AD34
  5
2AD35
331
2AD35
  5
2AD36
331
2AD36
  5
2AD37
331
2AD37
  5
2AD38
331
2AD38
  5
2AD39
331
2AD39
  5
2AD3A
331
2AD3A
  5
2AD3B
331
2AD3B
  5
2AD3C
331
2AD3C
  5
2AD3D
331
2AD3D
  5
2AD3E
331
2AD3E
  5
2AD3F
331
2AD3F
  5
2AD40
331
2AD40
  5
2AD41
331
2AD41
  5
2AD42
331
2AD42
  5
2AD43
331
2AD43
  5
2AD44
331
2AD44
  5
2AD45
331
2AD45
  5
2AD46
331
2AD46
  5
2AD47
331
2AD47
  5
2AD48
331
2AD48
  5
2AD49
331
2AD49
  5
2AD4A
331
2AD4A
  5
2AD4B
331
2AD4B
  5
2AD4C
331
2AD4C
  5
2AD4D
331
2AD4D
  5
2AD4E
331
2AD4E
  5
2AD4F
331
2AD4F
  5
2AD50
331
2AD50
  5
2AD51
331
2AD51
  5
2AD52
331
2AD52
  5
2AD53
331
2AD53
  5
2AD54
331
2AD54
  5
2AD55
331
2AD55
  5
2AD56
331
2AD56
  5
2AD57
331
2AD57
  5
2AD58
331
2AD58
  5
2AD59
331
2AD59
  5
2AD5A
331
2AD5A
  5
2AD5B
331
2AD5B
  5
2AD5C
331
2AD5C
  5
2AD5D
331
2AD5D
  5
2AD5E
331
2AD5E
  5
2AD5F
331
2AD5F
  5
2AD60
331
2AD60
  5
2AD61
331
2AD61
  5
2AD62
331
2AD62
  5
2AD63
331
2AD63
  5
2AD64
331
2AD64
  5
2AD65
331
2AD65
  5
2AD66
331
2AD66
  5
2AD67
331
2AD67
  5
2AD68
331
2AD68
  5
2AD69
331
2AD69
  5
2AD6A
331
2AD6A
  5
2AD6B
331
2AD6B
  5
2AD6C
331
2AD6C
  5
2AD6D
331
2AD6D
  5
2AD6E
331
2AD6E
  5
2AD6F
331
2AD6F
  5
2AD70
331
2AD70
  5
2AD71
331
2AD71
  5
2AD74
331
2AD73
  5
2AD77
331
2AD74
  5
2AD78
331
2AD75
  5
2AD79
331
2AD77
  5
2AD7A
331
2AD78
  5
2AD7B
331
2AD79
  5
2AD7C
331
2AD7A
  5
2AD7D
331
2AD7B
  5
2AD7E
331
2AD7C
  5
2AD7F
331
2AD7D
  5
2AD80
331
2AD7E
  5
2AD81
331
2AD7F
  5
2AD82
331
2AD80
  5
2AD83
331
2AD81
  5
2AD84
331
2AD82
  5
2AD85
331
2AD83
  5
2AD86
331
2AD84
  5
2AD87
331
2AD85
  5
2AD88
331
2AD86
  5
2AD89
331
2AD87
  5
2AD8A
331
2AD88
  5
2AD8B
331
2AD89
  5
2AD8C
331
2AD8A
  5
2AD8D
331
2AD8B
  5
2AD8E
331
2AD8C
  5
2AD8F
331
2AD8D
  5
2AD90
331
2AD8E
  5
2AD91
331
2AD8F
  5
2AD92
331
2AD90
  5
2AD93
331
2AD91
  5
2AD94
331
2AD92
  5
2AD95
331
2AD93
  5
2AD96
331
2AD94
  5
2AD97
331
2AD95
  5
2AD98
331
2AD96
  5
2AD99
331
2AD97
  5
2AD9A
331
2AD98
  5
2AD9B
331
2AD99
  5
2AD9C
331
2AD9A
  5
2AD9D
331
2AD9B
  5
2AD9E
331
2AD9C
  5
2AD9F
331
2AD9D
  5
2ADA0
331
2AD9E
  5
2ADA1
331
2AD9F
  5
2ADA2
331
2ADA0
  5
2ADA3
331
2ADA1
  5
2ADA4
331
2ADA2
  5
2ADA5
331
2ADA3
  5
2ADA6
331
2ADA4
  5
2ADA7
331
2ADA5
  5
2ADA8
331
2ADA6
  5
2ADA9
331
2ADA7
  5
2ADAA
331
2ADA8
  5
2ADAB
331
2ADA9
  5
2ADAC
331
2ADAA
  5
2ADAD
331
2ADAB
  5
2ADAE
331
2ADAC
  5
2ADAF
331
2ADAD
  5
2ADB0
331
2ADAE
  5
2ADB1
331
2ADAF
  5
2ADB2
331
2ADB0
  5
2ADB3
331
2ADB1
  5
2ADB4
331
2ADB2
  5
2ADB5
331
2ADB3
  5
2ADB6
331
2ADB4
  5
2ADB7
331
2ADB5
  5
2ADB8
331
2ADB6
  5
2ADB9
331
2ADB7
  5
2ADBC
331
2ADB8
  5
2ADBD
331
2ADB9
  5
2ADBE
331
2ADBA
  5
2ADBF
331
2ADBB
  5
2ADC6
331
2ADBC
  5
2ADC9
331
2ADBD
  5
2ADCA
331
2ADBE
  5
2ADCB
331
2ADC9
  5
2ADCC
331
2ADCA
  5
2ADCD
331
2ADCB
  5
2ADCE
331
2ADCC
  5
2ADDF
331
2ADCD
  5
2ADE0
331
2ADCE
  5
2ADEC
331
2ADDF
  5
2ADED
331
2ADE0
  5
2ADF6
331
2ADEC
  5
2AE02
331
2ADED
  5
2AE0B
331
2ADF6
  5
2AE0C
331
2AE02
  5
2AE0D
331
2AE0B
  5
2AE0E
331
2AE0C
  5
2AE0F
331
2AE0D
  5
2AE10
331
2AE0E
  5
2AE11
331
2AE10
  5
2AD75
331
2AE11
  5
2AE12
331
2AE12
  5
2AE15
331
2AE15
  5
2AE16
331
2AE16
  5
2AE19
331
2AE19
  5
2AE1A
331
2AE1A
  5
2AE1D
331
2AE1D
  5
2AE1E
331
2AE1E
  5
2AE1F
331
2AE1F
  5
2AE20
331
2AE20
  5
2AE21
331
2AE21
  5
2AE22
331
2AE22
  5
2AE23
331
2AE23
  5
2AE24
331
2AE24
  5
2AE25
331
2AE25
  5
2AE26
331
2AE26
  5
2AE27
331
2AE27
  5
2AE28
331
2AE28
  5
2AE29
331
2AE29
  5
2AC7C
  0
SORTENTSTABLE
  5
21CC5
102
{ACAD_REACTORS
330
21CC4
102
}
330
21CC4
100
AcDbSortentsTable
330
21CC2
  0
DIMASSOC
  5
2AE14
102
{ACAD_REACTORS
330
2AE13
102
}
330
2AE13
100
AcDbDimAssoc
330
2AE11
 90
        1
 70
     0
 71
     0
  1
AcDbOsnapPointRef
 72
    10
331
2ADE0
 73
     2
 91
        0
 40
0.8931381635986172
 10
0.0
 20
0.0
 30
0.0
 75
     0
  0
DIMASSOC
  5
2AE18
102
{ACAD_REACTORS
330
2AE17
102
}
330
2AE17
100
AcDbDimAssoc
330
2AE15
 90
        1
 70
     0
 71
     0
  1
AcDbOsnapPointRef
 72
     8
331
2ADEC
 73
     2
 91
        0
 40
0.1068618364013825
 10
0.0
 20
0.0
 30
0.0
 75
     0
  0
DIMASSOC
  5
2AE1C
102
{ACAD_REACTORS
330
2AE1B
102
}
330
2AE1B
100
AcDbDimAssoc
330
2AE19
 90
        1
 70
     0
 71
     0
  1
AcDbOsnapPointRef
 72
     2
331
2ADCE
 73
     2
 91
        0
 40
0.5000000000000008
 10
0.0
 20
0.0
 30
0.0
 75
     0
  0
DIMASSOC
  5
2AE57
102
{ACAD_REACTORS
330
2AE4C
102
}
330
2AE4C
100
AcDbDimAssoc
330
2AE3E
 90
        3
 70
     0
 71
     0
  1
AcDbOsnapPointRef
 72
    13
331
2AE24
 73
     2
 91
        0
 40
0.0
 10
0.0
 20
0.0
 30
2.000000000000000E+50
 75
     0
  1
AcDbOsnapPointRef
 72
     8
331
2AC7B
 73
     2
 91
        0
 40
1.0
 10
0.0
 20
0.0
 30
0.0
 75
     1
  1
AcDbOsnapPointRef
 72
    13
331
2AE24
 73
     2
 91
        0
 40
0.0
 10
0.0
 20
0.0
 30
2.000000000000000E+50
 75
     0
  0
XRECORD
  5
2B0AA
102
{ACAD_REACTORS
330
2B06B
102
}
330
2B06B
100
AcDbXrecord
280
     1
 40
49533.0
  1
\pxql;{\fArial|b0|i0|c0|p34;\H1.0833x;®}
  0
XRECORD
  5
2B0AB
102
{ACAD_REACTORS
330
2B06D
102
}
330
2B06D
100
AcDbXrecord
280
     1
 40
250958.0
  1
\pxqc;{\C256;\c16777215;Build Anything \fCalibri|b1|i0|c0|p34;Better.}
  0
DICTIONARY
  5
2B06E
102
{ACAD_REACTORS
330
2B06D
102
}
330
2B06D
100
AcDbDictionary
281
     1
  3
ACDB_ANNOTATIONSCALES
350
2B06F
  0
ACDBDETAILVIEWSTYLE
  5
2B025
102
{ACAD_XDICTIONARY
360
2B0EB
102
}
102
{ACAD_REACTORS
330
2B024
102
}
330
2B024
100
AcDbModelDocViewStyle
 70
     0
  3
Imperial24
290
     0
100
AcDbDetailViewStyle
 70
     0
 71
     0
 90
        3
 71
     1
340
11
 62
   256
 40
0.24
340
0
 62
   256
 40
0.24
300

 40
0.36
280
     3
 71
     2
340
16
 90
       25
 62
   256
 71
     3
340
11
 62
   256
 40
0.24
 90
        1
 40
0.75
 90
        1
300
%<\AcVar ViewType \f "%tc1">% %<\AcVar ViewDetailId>%\PSCALE %<\AcVar ViewScale \f "%sn">%
 71
     4
340
16
 90
       25
 62
   256
340
16
 90
       25
 62
   256
280
     0
  0
LAYOUT
  5
59
102
{ACAD_XDICTIONARY
360
11F01
102
}
102
{ACAD_REACTORS
330
1A
102
}
330
1A
100
AcDbPlotSettings
  1

  2
none_device
  4
Letter_(8.50_x_11.00_Inches)
  6

 40
6.349999904632568
 41
6.349999904632568
 42
6.350006103515625
 43
6.350006103515625
 44
215.8999938964844
 45
279.3999938964844
 46
0.0
 47
0.0
 48
0.0
 49
0.0
140
0.0
141
0.0
142
1.0
143
1.0
 70
   688
 72
     0
 73
     1
 74
     5
  7
monochrome.ctb
 75
    16
147
1.0
 76
     0
 77
     2
 78
   300
148
0.0
149
0.0
100
AcDbLayout
  1
Layout1
 70
     1
 71
     1
 10
-0.2500002402958907
 20
-0.2499999962453767
 11
10.74999951940821
 21
8.249999763458731
 12
0.0
 22
0.0
 32
0.0
 14
1.049999952316284
 24
0.7999999523162842
 34
0.0
 15
9.449999570846555
 25
7.199999570846556
 35
0.0
146
0.0
 13
0.0
 23
0.0
 33
0.0
 16
1.0
 26
0.0
 36
0.0
 17
0.0
 27
1.0
 37
0.0
 76
     0
330
58
331
11EF8
1001
ACAD_PSEXT
1000
None
1000
None
1000
Not applicable
1000
The layout will not be plotted unless a new plotter configuration name is selected.
1070
     0
  0
LAYOUT
  5
5E
102
{ACAD_XDICTIONARY
360
11F0E
102
}
102
{ACAD_REACTORS
330
1A
102
}
330
1A
100
AcDbPlotSettings
  1

  2
none_device
  4
Letter_(8.50_x_11.00_Inches)
  6

 40
6.349999904632568
 41
6.349999904632568
 42
6.350006103515625
 43
6.350006103515625
 44
215.8999938964844
 45
279.3999938964844
 46
0.0
 47
0.0
 48
0.0
 49
0.0
140
0.0
141
0.0
142
1.0
143
1.0
 70
   688
 72
     0
 73
     1
 74
     5
  7
monochrome.ctb
 75
    16
147
1.0
 76
     0
 77
     2
 78
   300
148
0.0
149
0.0
100
AcDbLayout
  1
Layout2
 70
     1
 71
     2
 10
-0.2500002402958907
 20
-0.2499999962453767
 11
10.74999951940821
 21
8.249999763458731
 12
0.0
 22
0.0
 32
0.0
 14
1.049999952316284
 24
0.7999999523162842
 34
0.0
 15
9.449999570846555
 25
7.199999570846556
 35
0.0
146
0.0
 13
0.0
 23
0.0
 33
0.0
 16
1.0
 26
0.0
 36
0.0
 17
0.0
 27
1.0
 37
0.0
 76
     0
330
5D
331
11F07
1001
ACAD_PSEXT
1000
None
1000
None
1000
Not applicable
1000
The layout will not be plotted unless a new plotter configuration name is selected.
1070
     0
  0
LAYOUT
  5
22
102
{ACAD_XDICTIONARY
360
2AFF0
102
}
102
{ACAD_REACTORS
330
1A
102
}
330
1A
100
AcDbPlotSettings
  1

  2
Adobe PDF
  4
Letter
  6

 40
3.174999952316284
 41
3.174999952316284
 42
3.175003051757812
 43
3.17498779296875
 44
215.8999938964844
 45
279.3999938964844
 46
0.0
 47
1.052083992558644
 48
27.09837136382942
 49
-0.7465694939592141
140
113.4754913651642
141
111.0424789585042
142
1.0
143
10.48054132812224
 70
  3764
 72
     0
 73
     0
 74
     1
  7
acad.ctb
 75
     0
147
0.0954149188188132
 76
     0
 77
     4
 78
   300
148
-686.1715512826317
149
19.17291427722701
100
AcDbLayout
  1
Model
 70
     1
 71
     0
 10
0.0
 20
0.0
 11
12.0
 21
9.0
 12
0.0
 22
0.0
 32
0.0
 14
0.0
 24
0.0
 34
0.0
 15
0.0
 25
0.0
 35
0.0
146
0.0
 13
0.0
 23
0.0
 33
0.0
 16
1.0
 26
0.0
 36
0.0
 17
0.0
 27
1.0
 37
0.0
 76
     0
330
1F
331
2AF00
1001
ACAD_PSEXT
1000
Adobe PDF
1000
Adobe PDF Converter
1000
Documents\*.pdf
1000

1070
     0
  0
MATERIAL
  5
2AF17
102
{ACAD_XDICTIONARY
360
2AF18
102
}
102
{ACAD_REACTORS
330
72
102
}
330
72
100
AcDbMaterial
  1
ByBlock
 72
     0
 43
0.0208333333333333
 43
0.0
 43
0.0
 43
0.0
 43
0.0
 43
0.0208333333333333
 43
0.0
 43
0.0
 43
0.0
 43
0.0
 43
1.0
 43
0.0
 43
0.0
 43
0.0
 43
0.0
 43
1.0
 77
     0
 47
0.0208333333333333
 47
0.0
 47
0.0
 47
0.0
 47
0.0
 47
0.0208333333333333
 47
0.0
 47
0.0
 47
0.0
 47
0.0
 47
1.0
 47
0.0
 47
0.0
 47
0.0
 47
0.0
 47
1.0
171
     0
 49
0.0208333333333333
 49
0.0
 49
0.0
 49
0.0
 49
0.0
 49
0.0208333333333333
 49
0.0
 49
0.0
 49
0.0
 49
0.0
 49
1.0
 49
0.0
 49
0.0
 49
0.0
 49
0.0
 49
1.0
175
     0
142
0.0208333333333333
142
0.0
142
0.0
142
0.0
142
0.0
142
0.0208333333333333
142
0.0
142
0.0
142
0.0
142
0.0
142
1.0
142
0.0
142
0.0
142
0.0
142
0.0
142
1.0
179
     0
144
0.0208333333333333
144
0.0
144
0.0
144
0.0
144
0.0
144
0.0208333333333333
144
0.0
144
0.0
144
0.0
144
0.0
144
1.0
144
0.0
144
0.0
144
0.0
144
0.0
144
1.0
147
0.0208333333333333
147
0.0
147
0.0
147
0.0
147
0.0
147
0.0208333333333333
147
0.0
147
0.0
147
0.0
147
0.0
147
1.0
147
0.0
147
0.0
147
0.0
147
0.0
147
1.0
  0
MATERIAL
  5
2AF0F
102
{ACAD_XDICTIONARY
360
2AF10
102
}
102
{ACAD_REACTORS
330
72
102
}
330
72
100
AcDbMaterial
  1
ByLayer
 72
     0
 43
0.0208333333333333
 43
0.0
 43
0.0
 43
0.0
 43
0.0
 43
0.0208333333333333
 43
0.0
 43
0.0
 43
0.0
 43
0.0
 43
1.0
 43
0.0
 43
0.0
 43
0.0
 43
0.0
 43
1.0
 77
     0
 47
0.0208333333333333
 47
0.0
 47
0.0
 47
0.0
 47
0.0
 47
0.0208333333333333
 47
0.0
 47
0.0
 47
0.0
 47
0.0
 47
1.0
 47
0.0
 47
0.0
 47
0.0
 47
0.0
 47
1.0
171
     0
 49
0.0208333333333333
 49
0.0
 49
0.0
 49
0.0
 49
0.0
 49
0.0208333333333333
 49
0.0
 49
0.0
 49
0.0
 49
0.0
 49
1.0
 49
0.0
 49
0.0
 49
0.0
 49
0.0
 49
1.0
175
     0
142
0.0208333333333333
142
0.0
142
0.0
142
0.0
142
0.0
142
0.0208333333333333
142
0.0
142
0.0
142
0.0
142
0.0
142
1.0
142
0.0
142
0.0
142
0.0
142
0.0
142
1.0
179
     0
144
0.0208333333333333
144
0.0
144
0.0
144
0.0
144
0.0
144
0.0208333333333333
144
0.0
144
0.0
144
0.0
144
0.0
144
1.0
144
0.0
144
0.0
144
0.0
144
0.0
144
1.0
147
0.0208333333333333
147
0.0
147
0.0
147
0.0
147
0.0
147
0.0208333333333333
147
0.0
147
0.0
147
0.0
147
0.0
147
1.0
147
0.0
147
0.0
147
0.0
147
0.0
147
1.0
  0
MATERIAL
  5
2AF1F
102
{ACAD_XDICTIONARY
360
2AF20
102
}
102
{ACAD_REACTORS
330
72
102
}
330
72
100
AcDbMaterial
  1
Global
 72
     0
 43
0.0208333333333333
 43
0.0
 43
0.0
 43
0.0
 43
0.0
 43
0.0208333333333333
 43
0.0
 43
0.0
 43
0.0
 43
0.0
 43
1.0
 43
0.0
 43
0.0
 43
0.0
 43
0.0
 43
1.0
 77
     0
 47
0.0208333333333333
 47
0.0
 47
0.0
 47
0.0
 47
0.0
 47
0.0208333333333333
 47
0.0
 47
0.0
 47
0.0
 47
0.0
 47
1.0
 47
0.0
 47
0.0
 47
0.0
 47
0.0
 47
1.0
171
     0
 49
0.0208333333333333
 49
0.0
 49
0.0
 49
0.0
 49
0.0
 49
0.0208333333333333
 49
0.0
 49
0.0
 49
0.0
 49
0.0
 49
1.0
 49
0.0
 49
0.0
 49
0.0
 49
0.0
 49
1.0
175
     0
142
0.0208333333333333
142
0.0
142
0.0
142
0.0
142
0.0
142
0.0208333333333333
142
0.0
142
0.0
142
0.0
142
0.0
142
1.0
142
0.0
142
0.0
142
0.0
142
0.0
142
1.0
179
     0
144
0.0208333333333333
144
0.0
144
0.0
144
0.0
144
0.0
144
0.0208333333333333
144
0.0
144
0.0
144
0.0
144
0.0
144
1.0
144
0.0
144
0.0
144
0.0
144
0.0
144
1.0
147
0.0208333333333333
147
0.0
147
0.0
147
0.0
147
0.0
147
0.0208333333333333
147
0.0
147
0.0
147
0.0
147
0.0
147
1.0
147
0.0
147
0.0
147
0.0
147
0.0
147
1.0
  0
MLEADERSTYLE
  5
2AF5B
102
{ACAD_REACTORS
330
2AF5A
102
}
330
2AF5A
100
AcDbMLeaderStyle
179
     2
170
     2
171
     1
172
     0
 90
        2
 40
0.0
 41
0.0
173
     1
 91
-1056964608
340
14
 92
       -2
290
     1
 42
0.09
291
     1
 43
0.36
  3
Standard
 44
0.18
300

342
11
174
     1
178
     6
175
     1
176
     0
 93
-1056964608
 45
0.18
292
     0
297
     0
 46
0.18
 94
-1056964608
 47
1.0
 49
1.0
140
1.0
293
     1
141
0.0
294
     1
177
     0
142
1.0
295
     0
296
     0
143
0.125
271
     0
272
     9
273
     9
  0
MLINESTYLE
  5
18
102
{ACAD_REACTORS
330
17
102
}
330
17
100
AcDbMlineStyle
  2
STANDARD
 70
     0
  3

 62
   256
 51
90.0
 52
90.0
 71
     2
 49
0.5
 62
   256
  6
BYLAYER
 49
-0.5
 62
   256
  6
BYLAYER
  0
ACDBPLACEHOLDER
  5
F
102
{ACAD_REACTORS
330
E
102
}
330
E
  0
SCALE
  5
2AF39
102
{ACAD_REACTORS
330
2AF38
102
}
330
2AF38
100
AcDbScale
 70
     0
300
1:1
140
1.0
141
1.0
290
     1
  0
SCALE
  5
2AF3A
102
{ACAD_REACTORS
330
2AF38
102
}
330
2AF38
100
AcDbScale
 70
     0
300
1:2
140
1.0
141
2.0
290
     0
  0
SCALE
  5
2AF3B
102
{ACAD_REACTORS
330
2AF38
102
}
330
2AF38
100
AcDbScale
 70
     0
300
1:4
140
1.0
141
4.0
290
     0
  0
SCALE
  5
2AF3C
102
{ACAD_REACTORS
330
2AF38
102
}
330
2AF38
100
AcDbScale
 70
     0
300
1:5
140
1.0
141
5.0
290
     0
  0
SCALE
  5
2AF3D
102
{ACAD_REACTORS
330
2AF38
102
}
330
2AF38
100
AcDbScale
 70
     0
300
1:8
140
1.0
141
8.0
290
     0
  0
SCALE
  5
2AF3E
102
{ACAD_REACTORS
330
2AF38
102
}
330
2AF38
100
AcDbScale
 70
     0
300
1:10
140
1.0
141
10.0
290
     0
  0
SCALE
  5
2AF3F
102
{ACAD_REACTORS
330
2AF38
102
}
330
2AF38
100
AcDbScale
 70
     0
300
1:16
140
1.0
141
16.0
290
     0
  0
SCALE
  5
2AF40
102
{ACAD_REACTORS
330
2AF38
102
}
330
2AF38
100
AcDbScale
 70
     0
300
1:20
140
1.0
141
20.0
290
     0
  0
SCALE
  5
2AF41
102
{ACAD_REACTORS
330
2AF38
102
}
330
2AF38
100
AcDbScale
 70
     0
300
1:30
140
1.0
141
30.0
290
     0
  0
SCALE
  5
2AF42
102
{ACAD_REACTORS
330
2AF38
102
}
330
2AF38
100
AcDbScale
 70
     0
300
1:40
140
1.0
141
40.0
290
     0
  0
SCALE
  5
2AF43
102
{ACAD_REACTORS
330
2AF38
102
}
330
2AF38
100
AcDbScale
 70
     0
300
1:50
140
1.0
141
50.0
290
     0
  0
SCALE
  5
2AF44
102
{ACAD_REACTORS
330
2AF38
102
}
330
2AF38
100
AcDbScale
 70
     0
300
1:100
140
1.0
141
100.0
290
     0
  0
SCALE
  5
2AF45
102
{ACAD_REACTORS
330
2AF38
102
}
330
2AF38
100
AcDbScale
 70
     0
300
2:1
140
2.0
141
1.0
290
     0
  0
SCALE
  5
2AF46
102
{ACAD_REACTORS
330
2AF38
102
}
330
2AF38
100
AcDbScale
 70
     0
300
4:1
140
4.0
141
1.0
290
     0
  0
SCALE
  5
2AF47
102
{ACAD_REACTORS
330
2AF38
102
}
330
2AF38
100
AcDbScale
 70
     0
300
8:1
140
8.0
141
1.0
290
     0
  0
SCALE
  5
2AF48
102
{ACAD_REACTORS
330
2AF38
102
}
330
2AF38
100
AcDbScale
 70
     0
300
10:1
140
10.0
141
1.0
290
     0
  0
SCALE
  5
2AF49
102
{ACAD_REACTORS
330
2AF38
102
}
330
2AF38
100
AcDbScale
 70
     0
300
100:1
140
100.0
141
1.0
290
     0
  0
SCALE
  5
2AF4A
102
{ACAD_REACTORS
330
2AF38
102
}
330
2AF38
100
AcDbScale
 70
     0
300
1/128" = 1'-0"
140
0.0078125
141
12.0
290
     0
  0
SCALE
  5
2AF4B
102
{ACAD_REACTORS
330
2AF38
102
}
330
2AF38
100
AcDbScale
 70
     0
300
1/64" = 1'-0"
140
0.015625
141
12.0
290
     0
  0
SCALE
  5
2AF4C
102
{ACAD_REACTORS
330
2AF38
102
}
330
2AF38
100
AcDbScale
 70
     0
300
1/32" = 1'-0"
140
0.03125
141
12.0
290
     0
  0
SCALE
  5
2AF4D
102
{ACAD_REACTORS
330
2AF38
102
}
330
2AF38
100
AcDbScale
 70
     0
300
1/16" = 1'-0"
140
0.0625
141
12.0
290
     0
  0
SCALE
  5
2AF4E
102
{ACAD_REACTORS
330
2AF38
102
}
330
2AF38
100
AcDbScale
 70
     0
300
3/32" = 1'-0"
140
0.09375
141
12.0
290
     0
  0
SCALE
  5
2AF4F
102
{ACAD_REACTORS
330
2AF38
102
}
330
2AF38
100
AcDbScale
 70
     0
300
1/8" = 1'-0"
140
0.125
141
12.0
290
     0
  0
SCALE
  5
2AF50
102
{ACAD_REACTORS
330
2AF38
102
}
330
2AF38
100
AcDbScale
 70
     0
300
3/16" = 1'-0"
140
0.1875
141
12.0
290
     0
  0
SCALE
  5
2AF51
102
{ACAD_REACTORS
330
2AF38
102
}
330
2AF38
100
AcDbScale
 70
     0
300
1/4" = 1'-0"
140
0.25
141
12.0
290
     0
  0
SCALE
  5
2AF52
102
{ACAD_REACTORS
330
2AF38
102
}
330
2AF38
100
AcDbScale
 70
     0
300
3/8" = 1'-0"
140
0.375
141
12.0
290
     0
  0
SCALE
  5
2AF53
102
{ACAD_REACTORS
330
2AF38
102
}
330
2AF38
100
AcDbScale
 70
     0
300
1/2" = 1'-0"
140
0.5
141
12.0
290
     0
  0
SCALE
  5
2AF54
102
{ACAD_REACTORS
330
2AF38
102
}
330
2AF38
100
AcDbScale
 70
     0
300
3/4" = 1'-0"
140
0.75
141
12.0
290
     0
  0
SCALE
  5
2AF55
102
{ACAD_REACTORS
330
2AF38
102
}
330
2AF38
100
AcDbScale
 70
     0
300
1" = 1'-0"
140
1.0
141
12.0
290
     0
  0
SCALE
  5
2AF56
102
{ACAD_REACTORS
330
2AF38
102
}
330
2AF38
100
AcDbScale
 70
     0
300
1-1/2" = 1'-0"
140
1.5
141
12.0
290
     0
  0
SCALE
  5
2AF57
102
{ACAD_REACTORS
330
2AF38
102
}
330
2AF38
100
AcDbScale
 70
     0
300
3" = 1'-0"
140
3.0
141
12.0
290
     0
  0
SCALE
  5
2AF58
102
{ACAD_REACTORS
330
2AF38
102
}
330
2AF38
100
AcDbScale
 70
     0
300
6" = 1'-0"
140
6.0
141
12.0
290
     0
  0
SCALE
  5
2AF59
102
{ACAD_REACTORS
330
2AF38
102
}
330
2AF38
100
AcDbScale
 70
     0
300
1'-0" = 1'-0"
140
12.0
141
12.0
290
     0
  0
ACDBSECTIONVIEWSTYLE
  5
2B023
102
{ACAD_XDICTIONARY
360
2B0E9
102
}
102
{ACAD_REACTORS
330
2B022
102
}
330
2B022
100
AcDbModelDocViewStyle
 70
     0
  3
Imperial24
290
     0
100
AcDbSectionViewStyle
 70
     0
 71
     0
 90
       78
 71
     1
340
11
 62
   256
 40
0.24
340
0
340
0
 62
   256
 40
0.24
300
I, O, Q, S, X, Z
 40
0.48
 90
        3
 40
0.18
 90
        1
 71
     2
340
16
 90
       25
 62
   256
340
16
 90
       50
 62
   256
 40
0.24
 40
0.0
 40
0.24
 71
     3
340
11
 62
   256
 40
0.24
 90
        1
 40
0.75
 90
        1
300
%<\AcVar ViewType \f "%tc1">% %<\AcVar ViewSectionStartId>%-%<\AcVar ViewSectionEndId>%\PSCALE %<\AcVar ViewScale \f "%sn">%
 71
     4
 62
   256
 62
   257
300
ANSI31
 40
1.0
 90
        0
290
     0
290
     0
 90
        6
 40
0.0
 40
1.570796326794896
 40
0.2617993877991494
 40
1.308996938995747
 40
-0.2617993877991494
 40
1.832595714594046
  0
TABLESTYLE
  5
37C9
102
{ACAD_XDICTIONARY
360
2AF7A
102
}
102
{ACAD_REACTORS
330
86
102
}
330
86
100
AcDbTableStyle
280
     0
  3
Standard
 70
     0
 71
     0
 40
0.06
 41
0.06
280
     0
281
     0
  7
Arial
140
0.18
170
     2
 62
     0
 63
     7
283
     0
 90
        4
 91
        0
  1

274
    -2
284
     1
 64
     0
275
    -2
285
     1
 65
     0
276
    -2
286
     1
 66
     0
277
    -2
287
     1
 67
     0
278
    -2
288
     1
 68
     0
279
    -2
289
     1
 69
     0
  7
Arial
140
0.25
170
     5
 62
     1
 63
     7
283
     0
 90
        4
 91
        0
  1

274
    -2
284
     1
 64
     0
275
    -2
285
     1
 65
     0
276
    -2
286
     1
 66
     0
277
    -2
287
     1
 67
     0
278
    -2
288
     1
 68
     0
279
    -2
289
     1
 69
     0
  7
Arial
140
0.18
170
     5
 62
     5
 63
     9
283
     1
 90
        4
 91
        0
  1

274
    -2
284
     1
 64
     0
275
    -2
285
     1
 65
     0
276
    -2
286
     1
 66
     0
277
    -2
287
     1
 67
     0
278
    -2
288
     1
 68
     0
279
    -2
289
     1
 69
     0
  0
TABLESTYLE
  5
36AB
102
{ACAD_XDICTIONARY
360
2AF78
102
}
102
{ACAD_REACTORS
330
86
102
}
330
86
100
AcDbTableStyle
280
     0
  3
Standard
 70
     0
 71
     0
 40
1.5
 41
1.5
280
     0
281
     0
  7
Arial
140
4.5
170
     2
 62
     0
 63
     7
283
     0
 90
        4
 91
        0
  1

274
    -2
284
     1
 64
     0
275
    -2
285
     1
 65
     0
276
    -2
286
     1
 66
     0
277
    -2
287
     1
 67
     0
278
    -2
288
     1
 68
     0
279
    -2
289
     1
 69
     0
  7
Arial
140
6.0
170
     5
 62
     1
 63
   254
421
 14079702
283
     1
 90
        4
 91
        0
  1

274
    -2
284
     1
 64
     0
275
    -2
285
     1
 65
     0
276
    -2
286
     1
 66
     0
277
    -2
287
     1
 67
     0
278
    -2
288
     1
 68
     0
279
    -2
289
     1
 69
     0
  7
Arial
140
4.5
170
     5
 62
     5
 63
     7
283
     0
 90
        4
 91
        0
  1

274
    -2
284
     1
 64
     0
275
    -2
285
     1
 65
     0
276
    -2
286
     1
 66
     0
277
    -2
287
     1
 67
     0
278
    -2
288
     1
 68
     0
279
    -2
289
     1
 69
     0
  0
TABLESTYLE
  5
87
102
{ACAD_XDICTIONARY
360
2AF76
102
}
102
{ACAD_REACTORS
330
86
102
}
330
86
100
AcDbTableStyle
280
     0
  3
Standard
 70
     0
 71
     0
 40
0.06
 41
0.06
280
     0
281
     0
  7
Standard
140
0.18
170
     2
 62
     0
 63
     7
283
     0
 90
        4
 91
        0
  1

274
    -2
284
     1
 64
     0
275
    -2
285
     1
 65
     0
276
    -2
286
     1
 66
     0
277
    -2
287
     1
 67
     0
278
    -2
288
     1
 68
     0
279
    -2
289
     1
 69
     0
  7
Standard
140
0.25
170
     5
 62
     0
 63
     7
283
     0
 90
        4
 91
        0
  1

274
    -2
284
     1
 64
     0
275
    -2
285
     1
 65
     0
276
    -2
286
     1
 66
     0
277
    -2
287
     1
 67
     0
278
    -2
288
     1
 68
     0
279
    -2
289
     1
 69
     0
  7
Standard
140
0.18
170
     5
 62
     0
 63
     7
283
     0
 90
        4
 91
        0
  1

274
    -2
284
     1
 64
     0
275
    -2
285
     1
 65
     0
276
    -2
286
     1
 66
     0
277
    -2
287
     1
 67
     0
278
    -2
288
     1
 68
     0
279
    -2
289
     1
 69
     0
  0
VISUALSTYLE
  5
2AF2D
102
{ACAD_XDICTIONARY
360
2B0BF
102
}
102
{ACAD_REACTORS
330
2AF27
102
}
330
2AF27
100
AcDbVisualStyle
  2
2dWireframe
 70
     4
177
     2
291
     0
 71
     0
176
     1
 72
     2
176
     1
 73
     0
176
     1
 90
        0
176
     1
 40
0.6
176
     1
 41
30.0
176
     1
 63
     7
421
 16777215
176
     1
 74
     1
176
     1
 91
        4
176
     1
 64
     7
176
     1
 65
   257
176
     1
 75
     1
176
     1
175
     1
176
     1
 42
1.0
176
     1
 92
        0
176
     1
 66
   257
176
     1
 43
1.0
176
     1
 76
     1
176
     1
 77
     6
176
     1
 78
     2
176
     1
 67
     7
176
     1
 79
     5
176
     1
170
     0
176
     1
171
     0
176
     1
290
     0
176
     1
 93
        1
176
     1
 44
0.0
176
     1
173
     0
176
     1
1001
ACAD
1000
AcDbSavedByObjectVersion
1070
     0
  0
VISUALSTYLE
  5
2AF2F
102
{ACAD_XDICTIONARY
360
2B0C3
102
}
102
{ACAD_REACTORS
330
2AF27
102
}
330
2AF27
100
AcDbVisualStyle
  2
3D Hidden
 70
     6
177
     2
291
     0
 71
     1
176
     1
 72
     2
176
     1
 73
     2
176
     1
 90
        0
176
     1
 40
0.6
176
     1
 41
30.0
176
     1
 63
     7
421
 16777215
176
     1
 74
     2
176
     1
 91
        2
176
     1
 64
     7
176
     1
 65
   257
176
     1
 75
     2
176
     1
175
     1
176
     1
 42
40.0
176
     1
 92
        0
176
     1
 66
   257
176
     1
 43
1.0
176
     1
 76
     1
176
     1
 77
     6
176
     1
 78
     2
176
     1
 67
     7
176
     1
 79
     3
176
     1
170
     0
176
     1
171
     0
176
     1
290
     0
176
     1
 93
        1
176
     1
 44
0.0
176
     1
173
     0
176
     1
1001
ACAD
1000
AcDbSavedByObjectVersion
1070
     0
  0
VISUALSTYLE
  5
2AF2E
102
{ACAD_XDICTIONARY
360
2B0C1
102
}
102
{ACAD_REACTORS
330
2AF27
102
}
330
2AF27
100
AcDbVisualStyle
  2
3dWireframe
 70
     5
177
     2
291
     0
 71
     0
176
     1
 72
     2
176
     1
 73
     0
176
     1
 90
        0
176
     1
 40
0.6
176
     1
 41
30.0
176
     1
 63
     7
421
 16777215
176
     1
 74
     1
176
     1
 91
        4
176
     1
 64
     7
176
     1
 65
   257
176
     1
 75
     1
176
     1
175
     1
176
     1
 42
1.0
176
     1
 92
        0
176
     1
 66
   257
176
     1
 43
1.0
176
     1
 76
     1
176
     1
 77
     6
176
     1
 78
     2
176
     1
 67
     7
176
     1
 79
     5
176
     1
170
     0
176
     1
171
     0
176
     1
290
     0
176
     1
 93
        1
176
     1
 44
0.0
176
     1
173
     0
176
     1
1001
ACAD
1000
AcDbSavedByObjectVersion
1070
     0
  0
VISUALSTYLE
  5
2AF2C
102
{ACAD_XDICTIONARY
360
2B0BD
102
}
102
{ACAD_REACTORS
330
2AF27
102
}
330
2AF27
100
AcDbVisualStyle
  2
Basic
 70
     7
177
     2
291
     1
 71
     1
176
     1
 72
     0
176
     1
 73
     1
176
     1
 90
        0
176
     1
 40
0.6
176
     1
 41
30.0
176
     1
 63
     7
421
 16777215
176
     1
 74
     0
176
     1
 91
        4
176
     1
 64
     7
176
     1
 65
   257
176
     1
 75
     1
176
     1
175
     1
176
     1
 42
1.0
176
     1
 92
        8
176
     1
 66
     7
176
     1
 43
1.0
176
     1
 76
     1
176
     1
 77
     6
176
     1
 78
     2
176
     1
 67
     7
176
     1
 79
     5
176
     1
170
     0
176
     1
171
     0
176
     1
290
     0
176
     1
 93
        1
176
     1
 44
0.0
176
     1
173
     0
176
     1
1001
ACAD
1000
AcDbSavedByObjectVersion
1070
     0
  0
VISUALSTYLE
  5
2AF33
102
{ACAD_XDICTIONARY
360
2B0CB
102
}
102
{ACAD_REACTORS
330
2AF27
102
}
330
2AF27
100
AcDbVisualStyle
  2
Brighten
 70
    12
177
     2
291
     1
 71
     2
176
     1
 72
     2
176
     1
 73
     0
176
     1
 90
        0
176
     1
 40
0.6
176
     1
 41
30.0
176
     1
 63
     7
421
 16777215
176
     1
 74
     1
176
     1
 91
        4
176
     1
 64
     7
176
     1
 65
   257
176
     1
 75
     1
176
     1
175
     1
176
     1
 42
1.0
176
     1
 92
        8
176
     1
 66
     7
176
     1
 43
1.0
176
     1
 76
     1
176
     1
 77
     6
176
     1
 78
     2
176
     1
 67
     7
176
     1
 79
     5
176
     1
170
     0
176
     1
171
     0
176
     1
290
     0
176
     1
 93
        1
176
     1
 44
50.0
176
     1
173
     0
176
     1
1001
ACAD
1000
AcDbSavedByObjectVersion
1070
     0
  0
VISUALSTYLE
  5
2AF37
102
{ACAD_XDICTIONARY
360
2B0D3
102
}
102
{ACAD_REACTORS
330
2AF27
102
}
330
2AF27
100
AcDbVisualStyle
  2
ColorChange
 70
    16
177
     2
291
     1
 71
     2
176
     1
 72
     2
176
     1
 73
     3
176
     1
 90
        0
176
     1
 40
0.6
176
     1
 41
30.0
176
     1
 63
     8
421
  8421504
176
     1
 74
     1
176
     1
 91
        4
176
     1
 64
     7
176
     1
 65
   257
176
     1
 75
     1
176
     1
175
     1
176
     1
 42
1.0
176
     1
 92
        8
176
     1
 66
     8
424
  8421504
176
     1
 43
1.0
176
     1
 76
     1
176
     1
 77
     6
176
     1
 78
     2
176
     1
 67
     7
176
     1
 79
     5
176
     1
170
     0
176
     1
171
     0
176
     1
290
     0
176
     1
 93
        1
176
     1
 44
0.0
176
     1
173
     0
176
     1
1001
ACAD
1000
AcDbSavedByObjectVersion
1070
     0
  0
VISUALSTYLE
  5
2AF30
102
{ACAD_XDICTIONARY
360
2B0C5
102
}
102
{ACAD_REACTORS
330
2AF27
102
}
330
2AF27
100
AcDbVisualStyle
  2
Conceptual
 70
     9
177
     2
291
     0
 71
     3
176
     1
 72
     2
176
     1
 73
     0
176
     1
 90
        0
176
     1
 40
0.6
176
     1
 41
30.0
176
     1
 63
     7
421
 16777215
176
     1
 74
     2
176
     1
 91
        2
176
     1
 64
     7
176
     1
 65
   257
176
     1
 75
     1
176
     1
175
     1
176
     1
 42
40.0
176
     1
 92
        8
176
     1
 66
     7
176
     1
 43
1.0
176
     1
 76
     1
176
     1
 77
     6
176
     1
 78
     2
176
     1
 67
     7
176
     1
 79
     3
176
     1
170
     0
176
     1
171
     0
176
     1
290
     0
176
     1
 93
        1
176
     1
 44
0.0
176
     1
173
     0
176
     1
1001
ACAD
1000
AcDbSavedByObjectVersion
1070
     0
  0
VISUALSTYLE
  5
2AF32
102
{ACAD_XDICTIONARY
360
2B0C9
102
}
102
{ACAD_REACTORS
330
2AF27
102
}
330
2AF27
100
AcDbVisualStyle
  2
Dim
 70
    11
177
     2
291
     1
 71
     2
176
     1
 72
     2
176
     1
 73
     0
176
     1
 90
        0
176
     1
 40
0.6
176
     1
 41
30.0
176
     1
 63
     7
421
 16777215
176
     1
 74
     1
176
     1
 91
        4
176
     1
 64
     7
176
     1
 65
   257
176
     1
 75
     1
176
     1
175
     1
176
     1
 42
1.0
176
     1
 92
        8
176
     1
 66
     7
176
     1
 43
1.0
176
     1
 76
     1
176
     1
 77
     6
176
     1
 78
     2
176
     1
 67
     7
176
     1
 79
     5
176
     1
170
     0
176
     1
171
     0
176
     1
290
     0
176
     1
 93
        1
176
     1
 44
-50.0
176
     1
173
     0
176
     1
1001
ACAD
1000
AcDbSavedByObjectVersion
1070
     0
  0
VISUALSTYLE
  5
2AFD8
102
{ACAD_XDICTIONARY
360
2B0D9
102
}
102
{ACAD_REACTORS
330
2AF27
102
}
330
2AF27
100
AcDbVisualStyle
  2
EdgeColorOff
 70
    22
177
     2
291
     1
 71
     2
176
     0
 72
     2
176
     0
 73
     0
176
     0
 90
        0
176
     0
 40
0.6
176
     0
 41
30.0
176
     0
 63
     7
421
 16777215
176
     0
 74
     1
176
     0
 91
        4
176
     0
 64
     7
176
     0
 65
   257
176
     0
 75
     1
176
     0
175
     1
176
     0
 42
1.0
176
     0
 92
        8
176
     2
 66
     7
176
     0
 43
1.0
176
     0
 76
     1
176
     0
 77
     6
176
     0
 78
     2
176
     0
 67
     7
176
     0
 79
     5
176
     0
170
     0
176
     0
171
     0
176
     0
290
     0
176
     0
 93
        1
176
     0
 44
0.0
176
     0
173
     0
176
     0
1001
ACAD
1000
AcDbSavedByObjectVersion
1070
     0
  0
VISUALSTYLE
  5
2AF36
102
{ACAD_XDICTIONARY
360
2B0D1
102
}
102
{ACAD_REACTORS
330
2AF27
102
}
330
2AF27
100
AcDbVisualStyle
  2
Facepattern
 70
    15
177
     2
291
     1
 71
     2
176
     1
 72
     2
176
     1
 73
     0
176
     1
 90
        0
176
     1
 40
0.6
176
     1
 41
30.0
176
     1
 63
     7
421
 16777215
176
     1
 74
     1
176
     1
 91
        4
176
     1
 64
     7
176
     1
 65
   257
176
     1
 75
     1
176
     1
175
     1
176
     1
 42
1.0
176
     1
 92
        8
176
     1
 66
     7
176
     1
 43
1.0
176
     1
 76
     1
176
     1
 77
     6
176
     1
 78
     2
176
     1
 67
     7
176
     1
 79
     5
176
     1
170
     0
176
     1
171
     0
176
     1
290
     0
176
     1
 93
        1
176
     1
 44
0.0
176
     1
173
     0
176
     1
1001
ACAD
1000
AcDbSavedByObjectVersion
1070
     0
  0
VISUALSTYLE
  5
2AF28
102
{ACAD_XDICTIONARY
360
2B0B5
102
}
102
{ACAD_REACTORS
330
2AF27
102
}
330
2AF27
100
AcDbVisualStyle
  2
Flat
 70
     0
177
     2
291
     1
 71
     2
176
     1
 72
     1
176
     1
 73
     1
176
     1
 90
        2
176
     1
 40
0.6
176
     1
 41
30.0
176
     1
 63
     7
421
 16777215
176
     1
 74
     0
176
     1
 91
        4
176
     1
 64
     7
176
     1
 65
   257
176
     1
 75
     1
176
     1
175
     1
176
     1
 42
1.0
176
     1
 92
        8
176
     1
 66
     7
176
     1
 43
1.0
176
     1
 76
     1
176
     1
 77
     6
176
     1
 78
     2
176
     1
 67
     7
176
     1
 79
     5
176
     1
170
     0
176
     1
171
     0
176
     1
290
     0
176
     1
 93
       13
176
     1
 44
0.0
176
     1
173
     0
176
     1
1001
ACAD
1000
AcDbSavedByObjectVersion
1070
     0
  0
VISUALSTYLE
  5
2AF29
102
{ACAD_XDICTIONARY
360
2B0B7
102
}
102
{ACAD_REACTORS
330
2AF27
102
}
330
2AF27
100
AcDbVisualStyle
  2
FlatWithEdges
 70
     1
177
     2
291
     1
 71
     2
176
     1
 72
     1
176
     1
 73
     1
176
     1
 90
        2
176
     1
 40
0.6
176
     1
 41
30.0
176
     1
 63
     7
421
 16777215
176
     1
 74
     1
176
     1
 91
        4
176
     1
 64
     7
176
     1
 65
   257
176
     1
 75
     1
176
     1
175
     1
176
     1
 42
1.0
176
     1
 92
        0
176
     1
 66
   257
176
     1
 43
1.0
176
     1
 76
     1
176
     1
 77
     6
176
     1
 78
     2
176
     1
 67
     7
176
     1
 79
     5
176
     1
170
     0
176
     1
171
     0
176
     1
290
     0
176
     1
 93
       13
176
     1
 44
0.0
176
     1
173
     0
176
     1
1001
ACAD
1000
AcDbSavedByObjectVersion
1070
     0
  0
VISUALSTYLE
  5
2AF2A
102
{ACAD_XDICTIONARY
360
2B0B9
102
}
102
{ACAD_REACTORS
330
2AF27
102
}
330
2AF27
100
AcDbVisualStyle
  2
Gouraud
 70
     2
177
     2
291
     1
 71
     2
176
     1
 72
     2
176
     1
 73
     1
176
     1
 90
        2
176
     1
 40
0.6
176
     1
 41
30.0
176
     1
 63
     7
421
 16777215
176
     1
 74
     0
176
     1
 91
        4
176
     1
 64
     7
176
     1
 65
   257
176
     1
 75
     1
176
     1
175
     1
176
     1
 42
1.0
176
     1
 92
        0
176
     1
 66
     7
176
     1
 43
1.0
176
     1
 76
     1
176
     1
 77
     6
176
     1
 78
     2
176
     1
 67
     7
176
     1
 79
     5
176
     1
170
     0
176
     1
171
     0
176
     1
290
     0
176
     1
 93
       13
176
     1
 44
0.0
176
     1
173
     0
176
     1
1001
ACAD
1000
AcDbSavedByObjectVersion
1070
     0
  0
VISUALSTYLE
  5
2AF2B
102
{ACAD_XDICTIONARY
360
2B0BB
102
}
102
{ACAD_REACTORS
330
2AF27
102
}
330
2AF27
100
AcDbVisualStyle
  2
GouraudWithEdges
 70
     3
177
     2
291
     1
 71
     2
176
     1
 72
     2
176
     1
 73
     1
176
     1
 90
        2
176
     1
 40
0.6
176
     1
 41
30.0
176
     1
 63
     7
421
 16777215
176
     1
 74
     1
176
     1
 91
        4
176
     1
 64
     7
176
     1
 65
   257
176
     1
 75
     1
176
     1
175
     1
176
     1
 42
1.0
176
     1
 92
        0
176
     1
 66
   257
176
     1
 43
1.0
176
     1
 76
     1
176
     1
 77
     6
176
     1
 78
     2
176
     1
 67
     7
176
     1
 79
     5
176
     1
170
     0
176
     1
171
     0
176
     1
290
     0
176
     1
 93
       13
176
     1
 44
0.0
176
     1
173
     0
176
     1
1001
ACAD
1000
AcDbSavedByObjectVersion
1070
     0
  0
VISUALSTYLE
  5
2B01C
102
{ACAD_XDICTIONARY
360
2B0DD
102
}
102
{ACAD_REACTORS
330
2AF27
102
}
330
2AF27
100
AcDbVisualStyle
  2
Hidden
 70
     6
177
     2
291
     0
 71
     1
176
     1
 72
     2
176
     1
 73
     2
176
     1
 90
        0
176
     1
 40
0.6
176
     1
 41
30.0
176
     1
 63
     7
421
 16777215
176
     1
 74
     2
176
     1
 91
        2
176
     1
 64
     7
176
     1
 65
   257
176
     1
 75
     2
176
     1
175
     1
176
     1
 42
40.0
176
     1
 92
        0
176
     1
 66
   257
176
     1
 43
1.0
176
     1
 76
     1
176
     1
 77
     6
176
     1
 78
     2
176
     1
 67
     7
176
     1
 79
     3
176
     1
170
     0
176
     1
171
     0
176
     1
290
     0
176
     1
 93
        1
176
     1
 44
0.0
176
     1
173
     0
176
     1
1001
ACAD
1000
AcDbSavedByObjectVersion
1070
     0
  0
VISUALSTYLE
  5
2AFD6
102
{ACAD_XDICTIONARY
360
2B0D5
102
}
102
{ACAD_REACTORS
330
2AF27
102
}
330
2AF27
100
AcDbVisualStyle
  2
JitterOff
 70
    20
177
     2
291
     1
 71
     2
176
     0
 72
     2
176
     0
 73
     0
176
     0
 90
        0
176
     0
 40
0.6
176
     0
 41
30.0
176
     0
 63
     7
421
 16777215
176
     0
 74
     1
176
     0
 91
        4
176
     0
 64
     7
176
     0
 65
   257
176
     0
 75
     1
176
     0
175
     1
176
     0
 42
1.0
176
     0
 92
       10
176
     2
 66
     7
176
     0
 43
1.0
176
     0
 76
     1
176
     0
 77
     6
176
     0
 78
     2
176
     0
 67
     7
176
     0
 79
     5
176
     0
170
     0
176
     0
171
     0
176
     0
290
     0
176
     0
 93
        1
176
     0
 44
0.0
176
     0
173
     0
176
     0
1001
ACAD
1000
AcDbSavedByObjectVersion
1070
     0
  0
VISUALSTYLE
  5
2AF35
102
{ACAD_XDICTIONARY
360
2B0CF
102
}
102
{ACAD_REACTORS
330
2AF27
102
}
330
2AF27
100
AcDbVisualStyle
  2
Linepattern
 70
    14
177
     2
291
     1
 71
     2
176
     1
 72
     2
176
     1
 73
     0
176
     1
 90
        0
176
     1
 40
0.6
176
     1
 41
30.0
176
     1
 63
     7
421
 16777215
176
     1
 74
     1
176
     1
 91
        4
176
     1
 64
     7
176
     1
 65
   257
176
     1
 75
     7
176
     1
175
     7
176
     1
 42
1.0
176
     1
 92
        8
176
     1
 66
     7
176
     1
 43
1.0
176
     1
 76
     1
176
     1
 77
     6
176
     1
 78
     2
176
     1
 67
     7
176
     1
 79
     5
176
     1
170
     0
176
     1
171
     0
176
     1
290
     0
176
     1
 93
        1
176
     1
 44
0.0
176
     1
173
     0
176
     1
1001
ACAD
1000
AcDbSavedByObjectVersion
1070
     0
  0
VISUALSTYLE
  5
2AFD7
102
{ACAD_XDICTIONARY
360
2B0D7
102
}
102
{ACAD_REACTORS
330
2AF27
102
}
330
2AF27
100
AcDbVisualStyle
  2
OverhangOff
 70
    21
177
     2
291
     1
 71
     2
176
     0
 72
     2
176
     0
 73
     0
176
     0
 90
        0
176
     0
 40
0.6
176
     0
 41
30.0
176
     0
 63
     7
421
 16777215
176
     0
 74
     1
176
     0
 91
        4
176
     0
 64
     7
176
     0
 65
   257
176
     0
 75
     1
176
     0
175
     1
176
     0
 42
1.0
176
     0
 92
        9
176
     2
 66
     7
176
     0
 43
1.0
176
     0
 76
     1
176
     0
 77
     6
176
     0
 78
     2
176
     0
 67
     7
176
     0
 79
     5
176
     0
170
     0
176
     0
171
     0
176
     0
290
     0
176
     0
 93
        1
176
     0
 44
0.0
176
     0
173
     0
176
     0
1001
ACAD
1000
AcDbSavedByObjectVersion
1070
     0
  0
VISUALSTYLE
  5
2AF31
102
{ACAD_XDICTIONARY
360
2B0C7
102
}
102
{ACAD_REACTORS
330
2AF27
102
}
330
2AF27
100
AcDbVisualStyle
  2
Realistic
 70
     8
177
     2
291
     0
 71
     2
176
     1
 72
     2
176
     1
 73
     0
176
     1
 90
        0
176
     1
 40
0.6
176
     1
 41
30.0
176
     1
 63
     7
421
 16777215
176
     1
 74
     1
176
     1
 91
        0
176
     1
 64
     7
176
     1
 65
   257
176
     1
 75
     1
176
     1
175
     1
176
     1
 42
1.0
176
     1
 92
        8
176
     1
 66
     8
424
  7895160
176
     1
 43
1.0
176
     1
 76
     1
176
     1
 77
     6
176
     1
 78
     2
176
     1
 67
     7
176
     1
 79
     5
176
     1
170
     0
176
     1
171
     0
176
     1
290
     0
176
     1
 93
       13
176
     1
 44
0.0
176
     1
173
     0
176
     1
1001
ACAD
1000
AcDbSavedByObjectVersion
1070
     0
  0
VISUALSTYLE
  5
2B021
102
{ACAD_XDICTIONARY
360
2B0E7
102
}
102
{ACAD_REACTORS
330
2AF27
102
}
330
2AF27
100
AcDbVisualStyle
  2
Shaded
 70
    27
177
     2
291
     0
 71
     2
176
     1
 72
     2
176
     1
 73
     1
176
     1
 90
        2
176
     1
 40
0.6
176
     1
 41
30.0
176
     1
 63
     7
421
 16777215
176
     1
 74
     0
176
     1
 91
        4
176
     1
 64
     7
176
     1
 65
   257
176
     1
 75
     1
176
     1
175
     1
176
     1
 42
1.0
176
     1
 92
        8
176
     1
 66
   257
176
     1
 43
1.0
176
     1
 76
     1
176
     1
 77
     6
176
     1
 78
     2
176
     1
 67
     8
425
  7895160
176
     1
 79
     3
176
     1
170
     0
176
     1
171
     0
176
     1
290
     0
176
     1
 93
        5
176
     1
 44
0.0
176
     1
173
     0
176
     1
1001
ACAD
1000
AcDbSavedByObjectVersion
1070
     0
  0
VISUALSTYLE
  5
2B020
102
{ACAD_XDICTIONARY
360
2B0E5
102
}
102
{ACAD_REACTORS
330
2AF27
102
}
330
2AF27
100
AcDbVisualStyle
  2
Shaded with edges
 70
    26
177
     2
291
     0
 71
     2
176
     1
 72
     2
176
     1
 73
     1
176
     1
 90
        2
176
     1
 40
0.6
176
     1
 41
30.0
176
     1
 63
     7
421
 16777215
176
     1
 74
     1
176
     1
 91
        2
176
     1
 64
     7
176
     1
 65
   257
176
     1
 75
     2
176
     1
175
     1
176
     1
 42
1.0
176
     1
 92
        8
176
     1
 66
   257
176
     1
 43
1.0
176
     1
 76
     1
176
     1
 77
     6
176
     1
 78
     2
176
     1
 67
     7
176
     1
 79
     3
176
     1
170
     0
176
     1
171
     0
176
     1
290
     0
176
     1
 93
        5
176
     1
 44
0.0
176
     1
173
     0
176
     1
1001
ACAD
1000
AcDbSavedByObjectVersion
1070
     0
  0
VISUALSTYLE
  5
2B01D
102
{ACAD_XDICTIONARY
360
2B0DF
102
}
102
{ACAD_REACTORS
330
2AF27
102
}
330
2AF27
100
AcDbVisualStyle
  2
Shades of Gray
 70
    23
177
     2
291
     0
 71
     2
176
     1
 72
     2
176
     1
 73
     3
176
     1
 90
        0
176
     1
 40
0.6
176
     1
 41
30.0
176
     1
 63
     7
421
 16777215
176
     1
 74
     2
176
     1
 91
        2
176
     1
 64
     7
176
     1
 65
     7
176
     1
 75
     1
176
     1
175
     1
176
     1
 42
40.0
176
     1
 92
        8
176
     1
 66
     7
176
     1
 43
1.0
176
     1
 76
     1
176
     1
 77
     6
176
     1
 78
     2
176
     1
 67
     7
176
     1
 79
     3
176
     1
170
     0
176
     1
171
     0
176
     1
290
     0
176
     1
 93
        1
176
     1
 44
0.0
176
     1
173
     0
176
     1
1001
ACAD
1000
AcDbSavedByObjectVersion
1070
     0
  0
VISUALSTYLE
  5
2B01E
102
{ACAD_XDICTIONARY
360
2B0E1
102
}
102
{ACAD_REACTORS
330
2AF27
102
}
330
2AF27
100
AcDbVisualStyle
  2
Sketchy
 70
    24
177
     2
291
     0
 71
     1
176
     1
 72
     2
176
     1
 73
     2
176
     1
 90
        0
176
     1
 40
0.6
176
     1
 41
30.0
176
     1
 63
     7
421
 16777215
176
     1
 74
     2
176
     1
 91
        2
176
     1
 64
     7
176
     1
 65
     7
176
     1
 75
     1
176
     1
175
     1
176
     1
 42
40.0
176
     1
 92
       11
176
     1
 66
     7
176
     1
 43
1.0
176
     1
 76
     1
176
     1
 77
     6
176
     1
 78
     2
176
     1
 67
     7
176
     1
 79
     6
176
     1
170
     0
176
     1
171
     0
176
     1
290
     0
176
     1
 93
        1
176
     1
 44
0.0
176
     1
173
     0
176
     1
1001
ACAD
1000
AcDbSavedByObjectVersion
1070
     0
  0
VISUALSTYLE
  5
2AF34
102
{ACAD_XDICTIONARY
360
2B0CD
102
}
102
{ACAD_REACTORS
330
2AF27
102
}
330
2AF27
100
AcDbVisualStyle
  2
Thicken
 70
    13
177
     2
291
     1
 71
     2
176
     1
 72
     2
176
     1
 73
     0
176
     1
 90
        0
176
     1
 40
0.6
176
     1
 41
30.0
176
     1
 63
     7
421
 16777215
176
     1
 74
     1
176
     1
 91
        4
176
     1
 64
     7
176
     1
 65
   257
176
     1
 75
     1
176
     1
175
     1
176
     1
 42
1.0
176
     1
 92
       12
176
     1
 66
     7
176
     1
 43
1.0
176
     1
 76
     1
176
     1
 77
     6
176
     1
 78
     2
176
     1
 67
     7
176
     1
 79
     5
176
     1
170
     0
176
     1
171
     0
176
     1
290
     0
176
     1
 93
        1
176
     1
 44
0.0
176
     1
173
     0
176
     1
1001
ACAD
1000
AcDbSavedByObjectVersion
1070
     0
  0
VISUALSTYLE
  5
2B01B
102
{ACAD_XDICTIONARY
360
2B0DB
102
}
102
{ACAD_REACTORS
330
2AF27
102
}
330
2AF27
100
AcDbVisualStyle
  2
Wireframe
 70
     5
177
     2
291
     0
 71
     0
176
     1
 72
     2
176
     1
 73
     0
176
     1
 90
        0
176
     1
 40
0.6
176
     1
 41
30.0
176
     1
 63
     7
421
 16777215
176
     1
 74
     1
176
     1
 91
        4
176
     1
 64
     7
176
     1
 65
   257
176
     1
 75
     1
176
     1
175
     1
176
     1
 42
1.0
176
     1
 92
        0
176
     1
 66
   257
176
     1
 43
1.0
176
     1
 76
     1
176
     1
 77
     6
176
     1
 78
     2
176
     1
 67
     7
176
     1
 79
     3
176
     1
170
     0
176
     1
171
     0
176
     1
290
     0
176
     1
 93
        1
176
     1
 44
0.0
176
     1
173
     0
176
     1
1001
ACAD
1000
AcDbSavedByObjectVersion
1070
     0
  0
VISUALSTYLE
  5
2B01F
102
{ACAD_XDICTIONARY
360
2B0E3
102
}
102
{ACAD_REACTORS
330
2AF27
102
}
330
2AF27
100
AcDbVisualStyle
  2
X-Ray
 70
    25
177
     2
291
     0
 71
     2
176
     1
 72
     2
176
     1
 73
     1
176
     1
 90
        1
176
     1
 40
0.5
176
     1
 41
30.0
176
     1
 63
     7
421
 16777215
176
     1
 74
     1
176
     1
 91
        0
176
     1
 64
     7
176
     1
 65
   257
176
     1
 75
     1
176
     1
175
     1
176
     1
 42
1.0
176
     1
 92
        8
176
     1
 66
     7
176
     1
 43
1.0
176
     1
 76
     1
176
     1
 77
     6
176
     1
 78
     2
176
     1
 67
     7
176
     1
 79
     3
176
     1
170
     0
176
     1
171
     0
176
     1
290
     0
176
     1
 93
       13
176
     1
 44
0.0
176
     1
173
     0
176
     1
1001
ACAD
1000
AcDbSavedByObjectVersion
1070
     0
  0
DICTIONARYVAR
  5
2AF7F
102
{ACAD_REACTORS
330
66
102
}
330
66
100
DictionaryVariables
280
     0
  1
1:1
  0
DICTIONARYVAR
  5
2AF7D
102
{ACAD_REACTORS
330
66
102
}
330
66
100
DictionaryVariables
280
     0
  1
STANDARD
  0
DICTIONARYVAR
  5
364
102
{ACAD_REACTORS
330
66
102
}
330
66
100
DictionaryVariables
280
     0
  1
STANDARD
  0
DICTIONARYVAR
  5
2B094
102
{ACAD_REACTORS
330
66
102
}
330
66
100
DictionaryVariables
280
     0
  1
Imperial24
  0
DICTIONARYVAR
  5
2B095
102
{ACAD_REACTORS
330
66
102
}
330
66
100
DictionaryVariables
280
     0
  1
Imperial24
  0
DICTIONARYVAR
  5
67
102
{ACAD_REACTORS
330
66
102
}
330
66
100
DictionaryVariables
280
     0
  1
2
  0
DICTIONARYVAR
  5
6B
102
{ACAD_REACTORS
330
66
102
}
330
66
100
DictionaryVariables
280
     0
  1
1
  0
DICTIONARYVAR
  5
2AFF2
102
{ACAD_REACTORS
330
66
102
}
330
66
100
DictionaryVariables
280
     0
  1
1
  0
DICTIONARYVAR
  5
2AFF3
102
{ACAD_REACTORS
330
66
102
}
330
66
100
DictionaryVariables
280
     0
  1
15
  0
DICTIONARYVAR
  5
2AF80
102
{ACAD_REACTORS
330
66
102
}
330
66
100
DictionaryVariables
280
     0
  1
0
  0
DICTIONARYVAR
  5
2AF7E
102
{ACAD_REACTORS
330
66
102
}
330
66
100
DictionaryVariables
280
     0
  1
0
  0
DICTIONARYVAR
  5
8305
102
{ACAD_REACTORS
330
66
102
}
330
66
100
DictionaryVariables
280
     0
  1

  0
DICTIONARY
  5
2B0B4
102
{ACAD_REACTORS
330
2B0B2
102
}
330
2B0B2
100
AcDbDictionary
281
     1
  0
DICTIONARY
  5
2B0B3
102
{ACAD_REACTORS
330
2B0B2
102
}
330
2B0B2
100
AcDbDictionary
281
     1
  3
2238169803472
350
2B0AD
  3
2238169803488
350
2B0AE
  3
2238169803504
350
2B0AF
  3
2238169803520
350
2B0B0
  3
2238169803536
350
2B0B1
  0
XRECORD
  5
2AFE8
102
{ACAD_REACTORS
330
2AFE7
102
}
330
2AFE7
100
AcDbXrecord
280
     1
330
0
330
197A5
330
197A6
330
197A7
330
197A8
330
197A9
330
197AA
330
197AB
330
197AC
330
197B3
330
2AF6A
330
2AEFA
330
2AEFB
  0
XRECORD
  5
1402
102
{ACAD_REACTORS
330
1401
102
}
330
1401
100
AcDbXrecord
280
     1
 40
1.0
  0
DICTIONARY
  5
2B06F
102
{ACAD_REACTORS
330
2B06E
102
}
330
2B06E
100
AcDbDictionary
281
     1
  3
*A1
350
2B070
  0
DICTIONARY
  5
2B0EB
330
2B025
100
AcDbDictionary
280
     1
281
     1
  3
ACAD_XREC_ROUNDTRIP
360
2B0EC
  0
DICTIONARY
  5
11F01
330
59
100
AcDbDictionary
280
     1
281
     1
  0
DICTIONARY
  5
11F0E
330
5E
100
AcDbDictionary
280
     1
281
     1
  0
DICTIONARY
  5
2AFF0
330
22
100
AcDbDictionary
280
     1
281
     1
  0
DICTIONARY
  5
2AF18
330
2AF17
100
AcDbDictionary
280
     1
281
     1
  3
BUMPTILE
360
2AF1A
  3
DIFFUSETILE
360
2AF19
  3
OPACITYTILE
360
2AF1D
  3
REFLECTIONTILE
360
2AF1C
  3
REFRACTIONTILE
360
2AF1E
  3
SPECULARTILE
360
2AF1B
  0
DICTIONARY
  5
2AF10
330
2AF0F
100
AcDbDictionary
280
     1
281
     1
  3
BUMPTILE
360
2AF12
  3
DIFFUSETILE
360
2AF11
  3
OPACITYTILE
360
2AF15
  3
REFLECTIONTILE
360
2AF14
  3
REFRACTIONTILE
360
2AF16
  3
SPECULARTILE
360
2AF13
  0
DICTIONARY
  5
2AF20
330
2AF1F
100
AcDbDictionary
280
     1
281
     1
  3
BUMPTILE
360
2AF22
  3
DIFFUSETILE
360
2AF21
  3
OPACITYTILE
360
2AF25
  3
REFLECTIONTILE
360
2AF24
  3
REFRACTIONTILE
360
2AF26
  3
SPECULARTILE
360
2AF23
  0
DICTIONARY
  5
2B0E9
330
2B023
100
AcDbDictionary
280
     1
281
     1
  3
ACAD_XREC_ROUNDTRIP
360
2B0EA
  0
DICTIONARY
  5
2AF7A
330
37C9
100
AcDbDictionary
280
     1
281
     1
  3
ACAD_ROUNDTRIP_2008_TABLESTYLE_CELLSTYLEMAP
360
2B0A9
  0
DICTIONARY
  5
2AF78
330
36AB
100
AcDbDictionary
280
     1
281
     1
  3
ACAD_ROUNDTRIP_2008_TABLESTYLE_CELLSTYLEMAP
360
2B0A8
  0
DICTIONARY
  5
2AF76
330
87
100
AcDbDictionary
280
     1
281
     1
  3
ACAD_ROUNDTRIP_2008_TABLESTYLE_CELLSTYLEMAP
360
2B0A7
  0
DICTIONARY
  5
2B0BF
330
2AF2D
100
AcDbDictionary
280
     1
281
     1
  3
ACAD_XREC_ROUNDTRIP
360
2B0C0
  0
DICTIONARY
  5
2B0C3
330
2AF2F
100
AcDbDictionary
280
     1
281
     1
  3
ACAD_XREC_ROUNDTRIP
360
2B0C4
  0
DICTIONARY
  5
2B0C1
330
2AF2E
100
AcDbDictionary
280
     1
281
     1
  3
ACAD_XREC_ROUNDTRIP
360
2B0C2
  0
DICTIONARY
  5
2B0BD
330
2AF2C
100
AcDbDictionary
280
     1
281
     1
  3
ACAD_XREC_ROUNDTRIP
360
2B0BE
  0
DICTIONARY
  5
2B0CB
330
2AF33
100
AcDbDictionary
280
     1
281
     1
  3
ACAD_XREC_ROUNDTRIP
360
2B0CC
  0
DICTIONARY
  5
2B0D3
330
2AF37
100
AcDbDictionary
280
     1
281
     1
  3
ACAD_XREC_ROUNDTRIP
360
2B0D4
  0
DICTIONARY
  5
2B0C5
330
2AF30
100
AcDbDictionary
280
     1
281
     1
  3
ACAD_XREC_ROUNDTRIP
360
2B0C6
  0
DICTIONARY
  5
2B0C9
330
2AF32
100
AcDbDictionary
280
     1
281
     1
  3
ACAD_XREC_ROUNDTRIP
360
2B0CA
  0
DICTIONARY
  5
2B0D9
330
2AFD8
100
AcDbDictionary
280
     1
281
     1
  3
ACAD_XREC_ROUNDTRIP
360
2B0DA
  0
DICTIONARY
  5
2B0D1
330
2AF36
100
AcDbDictionary
280
     1
281
     1
  3
ACAD_XREC_ROUNDTRIP
360
2B0D2
  0
DICTIONARY
  5
2B0B5
330
2AF28
100
AcDbDictionary
280
     1
281
     1
  3
ACAD_XREC_ROUNDTRIP
360
2B0B6
  0
DICTIONARY
  5
2B0B7
330
2AF29
100
AcDbDictionary
280
     1
281
     1
  3
ACAD_XREC_ROUNDTRIP
360
2B0B8
  0
DICTIONARY
  5
2B0B9
330
2AF2A
100
AcDbDictionary
280
     1
281
     1
  3
ACAD_XREC_ROUNDTRIP
360
2B0BA
  0
DICTIONARY
  5
2B0BB
330
2AF2B
100
AcDbDictionary
280
     1
281
     1
  3
ACAD_XREC_ROUNDTRIP
360
2B0BC
  0
DICTIONARY
  5
2B0DD
330
2B01C
100
AcDbDictionary
280
     1
281
     1
  3
ACAD_XREC_ROUNDTRIP
360
2B0DE
  0
DICTIONARY
  5
2B0D5
330
2AFD6
100
AcDbDictionary
280
     1
281
     1
  3
ACAD_XREC_ROUNDTRIP
360
2B0D6
  0
DICTIONARY
  5
2B0CF
330
2AF35
100
AcDbDictionary
280
     1
281
     1
  3
ACAD_XREC_ROUNDTRIP
360
2B0D0
  0
DICTIONARY
  5
2B0D7
330
2AFD7
100
AcDbDictionary
280
     1
281
     1
  3
ACAD_XREC_ROUNDTRIP
360
2B0D8
  0
DICTIONARY
  5
2B0C7
330
2AF31
100
AcDbDictionary
280
     1
281
     1
  3
ACAD_XREC_ROUNDTRIP
360
2B0C8
  0
DICTIONARY
  5
2B0E7
330
2B021
100
AcDbDictionary
280
     1
281
     1
  3
ACAD_XREC_ROUNDTRIP
360
2B0E8
  0
DICTIONARY
  5
2B0E5
330
2B020
100
AcDbDictionary
280
     1
281
     1
  3
ACAD_XREC_ROUNDTRIP
360
2B0E6
  0
DICTIONARY
  5
2B0DF
330
2B01D
100
AcDbDictionary
280
     1
281
     1
  3
ACAD_XREC_ROUNDTRIP
360
2B0E0
  0
DICTIONARY
  5
2B0E1
330
2B01E
100
AcDbDictionary
280
     1
281
     1
  3
ACAD_XREC_ROUNDTRIP
360
2B0E2
  0
DICTIONARY
  5
2B0CD
330
2AF34
100
AcDbDictionary
280
     1
281
     1
  3
ACAD_XREC_ROUNDTRIP
360
2B0CE
  0
DICTIONARY
  5
2B0DB
330
2B01B
100
AcDbDictionary
280
     1
281
     1
  3
ACAD_XREC_ROUNDTRIP
360
2B0DC
  0
DICTIONARY
  5
2B0E3
330
2B01F
100
AcDbDictionary
280
     1
281
     1
  3
ACAD_XREC_ROUNDTRIP
360
2B0E4
  0
XRECORD
  5
2B0AD
102
{ACAD_REACTORS
330
2B0B3
102
}
330
2B0B3
100
AcDbXrecord
280
     1
  1
AcDb_Thumbnail_Schema
102
{ATTRRECORD
341
2B0AE
  2
AcDbDs::TreatedAsObjectData
280
     1
291
     1
102
ATTRRECORD}
102
{ATTRRECORD
341
2B0AF
  2
AcDbDs::Legacy
280
     1
291
     1
102
ATTRRECORD}
  2
AcDbDs::ID
280
    10
 91
        8
102
{ATTRRECORD
341
2B0B0
  2
AcDs:Indexable
280
     1
291
     1
102
ATTRRECORD}
102
{ATTRRECORD
341
2B0B1
  2
AcDbDs::HandleAttribute
280
     7
282
     1
102
ATTRRECORD}
  2
Thumbnail_Data
280
    15
 91
        0
  0
XRECORD
  5
2B0AE
102
{ACAD_REACTORS
330
2B0B3
102
}
330
2B0B3
100
AcDbXrecord
280
     1
  1
AcDbDs::TreatedAsObjectDataSchema
  2
AcDbDs::TreatedAsObjectData
280
     1
 91
        0
  0
XRECORD
  5
2B0AF
102
{ACAD_REACTORS
330
2B0B3
102
}
330
2B0B3
100
AcDbXrecord
280
     1
  1
AcDbDs::LegacySchema
  2
AcDbDs::Legacy
280
     1
 91
        0
  0
XRECORD
  5
2B0B0
102
{ACAD_REACTORS
330
2B0B3
102
}
330
2B0B3
100
AcDbXrecord
280
     1
  1
AcDbDs::IndexedPropertySchema
  2
AcDs:Indexable
280
     1
 91
        0
  0
XRECORD
  5
2B0B1
102
{ACAD_REACTORS
330
2B0B3
102
}
330
2B0B3
100
AcDbXrecord
280
     1
  1
AcDbDs::HandleAttributeSchema
  2
AcDbDs::HandleAttribute
280
     7
 91
        1
284
     1
  0
ACDB_MTEXTOBJECTCONTEXTDATA_CLASS
  5
2B070
102
{ACAD_REACTORS
330
2B06F
102
}
330
2B06F
100
AcDbObjectContextData
 70
     4
290
     1
100
AcDbAnnotScaleObjectContextData
340
2AF39
 70
     1
 10
1.0
 20
0.0
 30
0.0
 11
29.22157595581797
 21
4.452877177810204
 31
0.0
 40
15.04930642254516
 41
0.0
 42
14.90088818146716
 43
1.240377629448876
 71
     0
  0
XRECORD
  5
2B0EC
102
{ACAD_REACTORS
330
2B0EB
102
}
330
2B0EB
100
AcDbXrecord
280
     1
102
DISPLAYNAME
  1
Imperial24
102
FLAGS
 90
        0
  0
XRECORD
  5
2AF1A
102
{ACAD_REACTORS
330
2AF18
102
}
330
2AF18
100
AcDbXrecord
280
     1
270
     1
271
     1
  0
XRECORD
  5
2AF19
102
{ACAD_REACTORS
330
2AF18
102
}
330
2AF18
100
AcDbXrecord
280
     1
270
     1
271
     1
  0
XRECORD
  5
2AF1D
102
{ACAD_REACTORS
330
2AF18
102
}
330
2AF18
100
AcDbXrecord
280
     1
270
     1
271
     1
  0
XRECORD
  5
2AF1C
102
{ACAD_REACTORS
330
2AF18
102
}
330
2AF18
100
AcDbXrecord
280
     1
270
     1
271
     1
  0
XRECORD
  5
2AF1E
102
{ACAD_REACTORS
330
2AF18
102
}
330
2AF18
100
AcDbXrecord
280
     1
270
     1
271
     1
  0
XRECORD
  5
2AF1B
102
{ACAD_REACTORS
330
2AF18
102
}
330
2AF18
100
AcDbXrecord
280
     1
270
     1
271
     1
  0
XRECORD
  5
2AF12
102
{ACAD_REACTORS
330
2AF10
102
}
330
2AF10
100
AcDbXrecord
280
     1
270
     1
271
     1
  0
XRECORD
  5
2AF11
102
{ACAD_REACTORS
330
2AF10
102
}
330
2AF10
100
AcDbXrecord
280
     1
270
     1
271
     1
  0
XRECORD
  5
2AF15
102
{ACAD_REACTORS
330
2AF10
102
}
330
2AF10
100
AcDbXrecord
280
     1
270
     1
271
     1
  0
XRECORD
  5
2AF14
102
{ACAD_REACTORS
330
2AF10
102
}
330
2AF10
100
AcDbXrecord
280
     1
270
     1
271
     1
  0
XRECORD
  5
2AF16
102
{ACAD_REACTORS
330
2AF10
102
}
330
2AF10
100
AcDbXrecord
280
     1
270
     1
271
     1
  0
XRECORD
  5
2AF13
102
{ACAD_REACTORS
330
2AF10
102
}
330
2AF10
100
AcDbXrecord
280
     1
270
     1
271
     1
  0
XRECORD
  5
2AF22
102
{ACAD_REACTORS
330
2AF20
102
}
330
2AF20
100
AcDbXrecord
280
     1
270
     1
271
     1
  0
XRECORD
  5
2AF21
102
{ACAD_REACTORS
330
2AF20
102
}
330
2AF20
100
AcDbXrecord
280
     1
270
     1
271
     1
  0
XRECORD
  5
2AF25
102
{ACAD_REACTORS
330
2AF20
102
}
330
2AF20
100
AcDbXrecord
280
     1
270
     1
271
     1
  0
XRECORD
  5
2AF24
102
{ACAD_REACTORS
330
2AF20
102
}
330
2AF20
100
AcDbXrecord
280
     1
270
     1
271
     1
  0
XRECORD
  5
2AF26
102
{ACAD_REACTORS
330
2AF20
102
}
330
2AF20
100
AcDbXrecord
280
     1
270
     1
271
     1
  0
XRECORD
  5
2AF23
102
{ACAD_REACTORS
330
2AF20
102
}
330
2AF20
100
AcDbXrecord
280
     1
270
     1
271
     1
  0
XRECORD
  5
2B0EA
102
{ACAD_REACTORS
330
2B0E9
102
}
330
2B0E9
100
AcDbXrecord
280
     1
102
DISPLAYNAME
  1
Imperial24
102
FLAGS
 90
        0
  0
CELLSTYLEMAP
  5
2B0A9
102
{ACAD_REACTORS
330
2AF7A
102
}
330
2AF7A
100
AcDbCellStyleMap
 90
        3
300
CELLSTYLE
  1
TABLEFORMAT_BEGIN
 90
        5
170
     1
 91
        0
 92
    32768
 62
   257
 93
        1
300
CONTENTFORMAT
  1
CONTENTFORMAT_BEGIN
 90
        0
 91
        0
 92
        4
 93
        0
300

 40
0.0
140
1.0
 94
        5
 62
     1
340
36AA
144
0.25
309
CONTENTFORMAT_END
171
     0
 94
        6
 95
        1
302
GRIDFORMAT
  1
GRIDFORMAT_BEGIN
 90
        0
 91
        1
 62
     0
 92
       -2
340
0
 93
        0
 40
0.045
309
GRIDFORMAT_END
 95
        2
302
GRIDFORMAT
  1
GRIDFORMAT_BEGIN
 90
        0
 91
        1
 62
     0
 92
       -2
340
0
 93
        0
 40
0.045
309
GRIDFORMAT_END
 95
        4
302
GRIDFORMAT
  1
GRIDFORMAT_BEGIN
 90
        0
 91
        1
 62
     0
 92
       -2
340
0
 93
        0
 40
0.045
309
GRIDFORMAT_END
 95
        8
302
GRIDFORMAT
  1
GRIDFORMAT_BEGIN
 90
        0
 91
        1
 62
     0
 92
       -2
340
0
 93
        0
 40
0.045
309
GRIDFORMAT_END
 95
       16
302
GRIDFORMAT
  1
GRIDFORMAT_BEGIN
 90
        0
 91
        1
 62
     0
 92
       -2
340
0
 93
        0
 40
0.045
309
GRIDFORMAT_END
 95
       32
302
GRIDFORMAT
  1
GRIDFORMAT_BEGIN
 90
        0
 91
        1
 62
     0
 92
       -2
340
0
 93
        0
 40
0.045
309
GRIDFORMAT_END
309
TABLEFORMAT_END
  1
CELLSTYLE_BEGIN
 90
        1
 91
        1
300
_TITLE
309
CELLSTYLE_END
300
CELLSTYLE
  1
TABLEFORMAT_BEGIN
 90
        5
170
     1
 91
        0
 92
        0
 62
     9
 93
        1
300
CONTENTFORMAT
  1
CONTENTFORMAT_BEGIN
 90
        0
 91
        0
 92
        4
 93
        0
300

 40
0.0
140
1.0
 94
        5
 62
     5
340
36AA
144
0.18
309
CONTENTFORMAT_END
171
     0
 94
        6
 95
        1
302
GRIDFORMAT
  1
GRIDFORMAT_BEGIN
 90
        0
 91
        1
 62
     0
 92
       -2
340
0
 93
        0
 40
0.045
309
GRIDFORMAT_END
 95
        2
302
GRIDFORMAT
  1
GRIDFORMAT_BEGIN
 90
        0
 91
        1
 62
     0
 92
       -2
340
0
 93
        0
 40
0.045
309
GRIDFORMAT_END
 95
        4
302
GRIDFORMAT
  1
GRIDFORMAT_BEGIN
 90
        0
 91
        1
 62
     0
 92
       -2
340
0
 93
        0
 40
0.045
309
GRIDFORMAT_END
 95
        8
302
GRIDFORMAT
  1
GRIDFORMAT_BEGIN
 90
        0
 91
        1
 62
     0
 92
       -2
340
0
 93
        0
 40
0.045
309
GRIDFORMAT_END
 95
       16
302
GRIDFORMAT
  1
GRIDFORMAT_BEGIN
 90
        0
 91
        1
 62
     0
 92
       -2
340
0
 93
        0
 40
0.045
309
GRIDFORMAT_END
 95
       32
302
GRIDFORMAT
  1
GRIDFORMAT_BEGIN
 90
        0
 91
        1
 62
     0
 92
       -2
340
0
 93
        0
 40
0.045
309
GRIDFORMAT_END
309
TABLEFORMAT_END
  1
CELLSTYLE_BEGIN
 90
        2
 91
        1
300
_HEADER
309
CELLSTYLE_END
300
CELLSTYLE
  1
TABLEFORMAT_BEGIN
 90
        5
170
     1
 91
        0
 92
        0
 62
   257
 93
        1
300
CONTENTFORMAT
  1
CONTENTFORMAT_BEGIN
 90
        0
 91
        0
 92
        4
 93
        0
300

 40
0.0
140
1.0
 94
        2
 62
     0
340
36AA
144
0.18
309
CONTENTFORMAT_END
171
     0
 94
        6
 95
        1
302
GRIDFORMAT
  1
GRIDFORMAT_BEGIN
 90
        0
 91
        1
 62
     0
 92
       -2
340
0
 93
        0
 40
0.045
309
GRIDFORMAT_END
 95
        2
302
GRIDFORMAT
  1
GRIDFORMAT_BEGIN
 90
        0
 91
        1
 62
     0
 92
       -2
340
0
 93
        0
 40
0.045
309
GRIDFORMAT_END
 95
        4
302
GRIDFORMAT
  1
GRIDFORMAT_BEGIN
 90
        0
 91
        1
 62
     0
 92
       -2
340
0
 93
        0
 40
0.045
309
GRIDFORMAT_END
 95
        8
302
GRIDFORMAT
  1
GRIDFORMAT_BEGIN
 90
        0
 91
        1
 62
     0
 92
       -2
340
0
 93
        0
 40
0.045
309
GRIDFORMAT_END
 95
       16
302
GRIDFORMAT
  1
GRIDFORMAT_BEGIN
 90
        0
 91
        1
 62
     0
 92
       -2
340
0
 93
        0
 40
0.045
309
GRIDFORMAT_END
 95
       32
302
GRIDFORMAT
  1
GRIDFORMAT_BEGIN
 90
        0
 91
        1
 62
     0
 92
       -2
340
0
 93
        0
 40
0.045
309
GRIDFORMAT_END
309
TABLEFORMAT_END
  1
CELLSTYLE_BEGIN
 90
        3
 91
        2
300
_DATA
309
CELLSTYLE_END
  0
CELLSTYLEMAP
  5
2B0A8
102
{ACAD_REACTORS
330
2AF78
102
}
330
2AF78
100
AcDbCellStyleMap
 90
        3
300
CELLSTYLE
  1
TABLEFORMAT_BEGIN
 90
        5
170
     1
 91
        0
 92
    32768
 62
   254
420
 14079702
 93
        1
300
CONTENTFORMAT
  1
CONTENTFORMAT_BEGIN
 90
        0
 91
        0
 92
        4
 93
        0
300

 40
0.0
140
1.0
 94
        5
 62
     1
340
36AA
144
6.0
309
CONTENTFORMAT_END
171
     1
301
MARGIN
  1
CELLMARGIN_BEGIN
 40
1.5
 40
1.5
 40
1.5
 40
1.5
 40
0.18
 40
0.18
309
CELLMARGIN_END
 94
        6
 95
        1
302
GRIDFORMAT
  1
GRIDFORMAT_BEGIN
 90
        0
 91
        1
 62
     0
 92
       -2
340
0
 93
        0
 40
0.045
309
GRIDFORMAT_END
 95
        2
302
GRIDFORMAT
  1
GRIDFORMAT_BEGIN
 90
        0
 91
        1
 62
     0
 92
       -2
340
0
 93
        0
 40
0.045
309
GRIDFORMAT_END
 95
        4
302
GRIDFORMAT
  1
GRIDFORMAT_BEGIN
 90
        0
 91
        1
 62
     0
 92
       -2
340
0
 93
        0
 40
0.045
309
GRIDFORMAT_END
 95
        8
302
GRIDFORMAT
  1
GRIDFORMAT_BEGIN
 90
        0
 91
        1
 62
     0
 92
       -2
340
0
 93
        0
 40
0.045
309
GRIDFORMAT_END
 95
       16
302
GRIDFORMAT
  1
GRIDFORMAT_BEGIN
 90
        0
 91
        1
 62
     0
 92
       -2
340
0
 93
        0
 40
0.045
309
GRIDFORMAT_END
 95
       32
302
GRIDFORMAT
  1
GRIDFORMAT_BEGIN
 90
        0
 91
        1
 62
     0
 92
       -2
340
0
 93
        0
 40
0.045
309
GRIDFORMAT_END
309
TABLEFORMAT_END
  1
CELLSTYLE_BEGIN
 90
        1
 91
        1
300
_TITLE
309
CELLSTYLE_END
300
CELLSTYLE
  1
TABLEFORMAT_BEGIN
 90
        5
170
     1
 91
        0
 92
        0
 62
   257
 93
        1
300
CONTENTFORMAT
  1
CONTENTFORMAT_BEGIN
 90
        0
 91
        0
 92
        4
 93
        0
300

 40
0.0
140
1.0
 94
        5
 62
     5
340
36AA
144
4.5
309
CONTENTFORMAT_END
171
     1
301
MARGIN
  1
CELLMARGIN_BEGIN
 40
1.5
 40
1.5
 40
1.5
 40
1.5
 40
0.18
 40
0.18
309
CELLMARGIN_END
 94
        6
 95
        1
302
GRIDFORMAT
  1
GRIDFORMAT_BEGIN
 90
        0
 91
        1
 62
     0
 92
       -2
340
0
 93
        0
 40
0.045
309
GRIDFORMAT_END
 95
        2
302
GRIDFORMAT
  1
GRIDFORMAT_BEGIN
 90
        0
 91
        1
 62
     0
 92
       -2
340
0
 93
        0
 40
0.045
309
GRIDFORMAT_END
 95
        4
302
GRIDFORMAT
  1
GRIDFORMAT_BEGIN
 90
        0
 91
        1
 62
     0
 92
       -2
340
0
 93
        0
 40
0.045
309
GRIDFORMAT_END
 95
        8
302
GRIDFORMAT
  1
GRIDFORMAT_BEGIN
 90
        0
 91
        1
 62
     0
 92
       -2
340
0
 93
        0
 40
0.045
309
GRIDFORMAT_END
 95
       16
302
GRIDFORMAT
  1
GRIDFORMAT_BEGIN
 90
        0
 91
        1
 62
     0
 92
       -2
340
0
 93
        0
 40
0.045
309
GRIDFORMAT_END
 95
       32
302
GRIDFORMAT
  1
GRIDFORMAT_BEGIN
 90
        0
 91
        1
 62
     0
 92
       -2
340
0
 93
        0
 40
0.045
309
GRIDFORMAT_END
309
TABLEFORMAT_END
  1
CELLSTYLE_BEGIN
 90
        2
 91
        1
300
_HEADER
309
CELLSTYLE_END
300
CELLSTYLE
  1
TABLEFORMAT_BEGIN
 90
        5
170
     1
 91
        0
 92
        0
 62
   257
 93
        1
300
CONTENTFORMAT
  1
CONTENTFORMAT_BEGIN
 90
        0
 91
        0
 92
        4
 93
        0
300

 40
0.0
140
1.0
 94
        2
 62
     0
340
36AA
144
4.5
309
CONTENTFORMAT_END
171
     1
301
MARGIN
  1
CELLMARGIN_BEGIN
 40
1.5
 40
1.5
 40
1.5
 40
1.5
 40
0.18
 40
0.18
309
CELLMARGIN_END
 94
        6
 95
        1
302
GRIDFORMAT
  1
GRIDFORMAT_BEGIN
 90
        0
 91
        1
 62
     0
 92
       -2
340
0
 93
        0
 40
0.045
309
GRIDFORMAT_END
 95
        2
302
GRIDFORMAT
  1
GRIDFORMAT_BEGIN
 90
        0
 91
        1
 62
     0
 92
       -2
340
0
 93
        0
 40
0.045
309
GRIDFORMAT_END
 95
        4
302
GRIDFORMAT
  1
GRIDFORMAT_BEGIN
 90
        0
 91
        1
 62
     0
 92
       -2
340
0
 93
        0
 40
0.045
309
GRIDFORMAT_END
 95
        8
302
GRIDFORMAT
  1
GRIDFORMAT_BEGIN
 90
        0
 91
        1
 62
     0
 92
       -2
340
0
 93
        0
 40
0.045
309
GRIDFORMAT_END
 95
       16
302
GRIDFORMAT
  1
GRIDFORMAT_BEGIN
 90
        0
 91
        1
 62
     0
 92
       -2
340
0
 93
        0
 40
0.045
309
GRIDFORMAT_END
 95
       32
302
GRIDFORMAT
  1
GRIDFORMAT_BEGIN
 90
        0
 91
        1
 62
     0
 92
       -2
340
0
 93
        0
 40
0.045
309
GRIDFORMAT_END
309
TABLEFORMAT_END
  1
CELLSTYLE_BEGIN
 90
        3
 91
        2
300
_DATA
309
CELLSTYLE_END
  0
CELLSTYLEMAP
  5
2B0A7
102
{ACAD_REACTORS
330
2AF76
102
}
330
2AF76
100
AcDbCellStyleMap
 90
        3
300
CELLSTYLE
  1
TABLEFORMAT_BEGIN
 90
        5
170
     1
 91
        0
 92
    32768
 62
   257
 93
        1
300
CONTENTFORMAT
  1
CONTENTFORMAT_BEGIN
 90
        0
 91
        0
 92
        4
 93
        0
300

 40
0.0
140
1.0
 94
        5
 62
     0
340
11
144
0.25
309
CONTENTFORMAT_END
171
     0
 94
        6
 95
        1
302
GRIDFORMAT
  1
GRIDFORMAT_BEGIN
 90
        0
 91
        1
 62
     0
 92
       -2
340
0
 93
        0
 40
0.045
309
GRIDFORMAT_END
 95
        2
302
GRIDFORMAT
  1
GRIDFORMAT_BEGIN
 90
        0
 91
        1
 62
     0
 92
       -2
340
0
 93
        0
 40
0.045
309
GRIDFORMAT_END
 95
        4
302
GRIDFORMAT
  1
GRIDFORMAT_BEGIN
 90
        0
 91
        1
 62
     0
 92
       -2
340
0
 93
        0
 40
0.045
309
GRIDFORMAT_END
 95
        8
302
GRIDFORMAT
  1
GRIDFORMAT_BEGIN
 90
        0
 91
        1
 62
     0
 92
       -2
340
0
 93
        0
 40
0.045
309
GRIDFORMAT_END
 95
       16
302
GRIDFORMAT
  1
GRIDFORMAT_BEGIN
 90
        0
 91
        1
 62
     0
 92
       -2
340
0
 93
        0
 40
0.045
309
GRIDFORMAT_END
 95
       32
302
GRIDFORMAT
  1
GRIDFORMAT_BEGIN
 90
        0
 91
        1
 62
     0
 92
       -2
340
0
 93
        0
 40
0.045
309
GRIDFORMAT_END
309
TABLEFORMAT_END
  1
CELLSTYLE_BEGIN
 90
        1
 91
        1
300
_TITLE
309
CELLSTYLE_END
300
CELLSTYLE
  1
TABLEFORMAT_BEGIN
 90
        5
170
     1
 91
        0
 92
        0
 62
   257
 93
        1
300
CONTENTFORMAT
  1
CONTENTFORMAT_BEGIN
 90
        0
 91
        0
 92
        4
 93
        0
300

 40
0.0
140
1.0
 94
        5
 62
     0
340
11
144
0.18
309
CONTENTFORMAT_END
171
     0
 94
        6
 95
        1
302
GRIDFORMAT
  1
GRIDFORMAT_BEGIN
 90
        0
 91
        1
 62
     0
 92
       -2
340
0
 93
        0
 40
0.045
309
GRIDFORMAT_END
 95
        2
302
GRIDFORMAT
  1
GRIDFORMAT_BEGIN
 90
        0
 91
        1
 62
     0
 92
       -2
340
0
 93
        0
 40
0.045
309
GRIDFORMAT_END
 95
        4
302
GRIDFORMAT
  1
GRIDFORMAT_BEGIN
 90
        0
 91
        1
 62
     0
 92
       -2
340
0
 93
        0
 40
0.045
309
GRIDFORMAT_END
 95
        8
302
GRIDFORMAT
  1
GRIDFORMAT_BEGIN
 90
        0
 91
        1
 62
     0
 92
       -2
340
0
 93
        0
 40
0.045
309
GRIDFORMAT_END
 95
       16
302
GRIDFORMAT
  1
GRIDFORMAT_BEGIN
 90
        0
 91
        1
 62
     0
 92
       -2
340
0
 93
        0
 40
0.045
309
GRIDFORMAT_END
 95
       32
302
GRIDFORMAT
  1
GRIDFORMAT_BEGIN
 90
        0
 91
        1
 62
     0
 92
       -2
340
0
 93
        0
 40
0.045
309
GRIDFORMAT_END
309
TABLEFORMAT_END
  1
CELLSTYLE_BEGIN
 90
        2
 91
        1
300
_HEADER
309
CELLSTYLE_END
300
CELLSTYLE
  1
TABLEFORMAT_BEGIN
 90
        5
170
     1
 91
        0
 92
        0
 62
   257
 93
        1
300
CONTENTFORMAT
  1
CONTENTFORMAT_BEGIN
 90
        0
 91
        0
 92
        4
 93
        0
300

 40
0.0
140
1.0
 94
        2
 62
     0
340
11
144
0.18
309
CONTENTFORMAT_END
171
     0
 94
        6
 95
        1
302
GRIDFORMAT
  1
GRIDFORMAT_BEGIN
 90
        0
 91
        1
 62
     0
 92
       -2
340
0
 93
        0
 40
0.045
309
GRIDFORMAT_END
 95
        2
302
GRIDFORMAT
  1
GRIDFORMAT_BEGIN
 90
        0
 91
        1
 62
     0
 92
       -2
340
0
 93
        0
 40
0.045
309
GRIDFORMAT_END
 95
        4
302
GRIDFORMAT
  1
GRIDFORMAT_BEGIN
 90
        0
 91
        1
 62
     0
 92
       -2
340
0
 93
        0
 40
0.045
309
GRIDFORMAT_END
 95
        8
302
GRIDFORMAT
  1
GRIDFORMAT_BEGIN
 90
        0
 91
        1
 62
     0
 92
       -2
340
0
 93
        0
 40
0.045
309
GRIDFORMAT_END
 95
       16
302
GRIDFORMAT
  1
GRIDFORMAT_BEGIN
 90
        0
 91
        1
 62
     0
 92
       -2
340
0
 93
        0
 40
0.045
309
GRIDFORMAT_END
 95
       32
302
GRIDFORMAT
  1
GRIDFORMAT_BEGIN
 90
        0
 91
        1
 62
     0
 92
       -2
340
0
 93
        0
 40
0.045
309
GRIDFORMAT_END
309
TABLEFORMAT_END
  1
CELLSTYLE_BEGIN
 90
        3
 91
        2
300
_DATA
309
CELLSTYLE_END
  0
XRECORD
  5
2B0C0
102
{ACAD_REACTORS
330
2B0BF
102
}
330
2B0BF
100
AcDbXrecord
280
     1
102
RTVSPost2010Prop28
280
     1
102
RTVSPost2010PropOp28
 70
     1
102
RTVSPost2010Prop29
280
     1
102
RTVSPost2010PropOp29
 70
     1
102
RTVSPost2010Prop30
280
     0
102
RTVSPost2010PropOp30
 70
     1
102
RTVSPost2010Prop31
280
     0
102
RTVSPost2010PropOp31
 70
     1
102
RTVSPost2010Prop32
280
     0
102
RTVSPost2010PropOp32
 70
     1
102
RTVSPost2010Prop33
280
     0
102
RTVSPost2010PropOp33
 70
     1
102
RTVSPost2010Prop34
280
     0
102
RTVSPost2010PropOp34
 70
     1
102
RTVSPost2010Prop35
280
     0
102
RTVSPost2010PropOp35
 70
     1
102
RTVSPost2010Prop36
280
     0
102
RTVSPost2010PropOp36
 70
     1
102
RTVSPost2010Prop37
 90
       50
102
RTVSPost2010PropOp37
 70
     1
102
RTVSPost2010Prop38
140
0.0
102
RTVSPost2010PropOp38
 70
     1
102
RTVSPost2010Prop39
140
1.0
102
RTVSPost2010PropOp39
 70
     1
102
RTVSPost2010Prop40
 90
        0
102
RTVSPost2010PropOp40
 70
     1
102
RTVSPost2010Prop41ColorIndex
 90
       18
102
RTVSPost2010Prop41ColorRGB
 90
        0
102
RTVSPost2010PropOp41
 70
     1
102
RTVSPost2010Prop42
 90
       50
102
RTVSPost2010PropOp42
 70
     1
102
RTVSPost2010Prop43
 90
        3
102
RTVSPost2010PropOp43
 70
     1
102
RTVSPost2010Prop44ColorIndex
 90
        5
102
RTVSPost2010Prop44ColorRGB
 90
      255
102
RTVSPost2010PropOp44
 70
     1
102
RTVSPost2010Prop45
280
     0
102
RTVSPost2010PropOp45
 70
     1
102
RTVSPost2010Prop46
 90
       50
102
RTVSPost2010PropOp46
 70
     1
102
RTVSPost2010Prop47
 90
       50
102
RTVSPost2010PropOp47
 70
     1
102
RTVSPost2010Prop48
 90
       50
102
RTVSPost2010PropOp48
 70
     1
102
RTVSPost2010Prop49
280
     0
102
RTVSPost2010PropOp49
 70
     1
102
RTVSPost2010Prop50
 90
       50
102
RTVSPost2010PropOp50
 70
     1
102
RTVSPost2010Prop51ColorIndex
 90
      256
102
RTVSPost2010Prop51ColorRGB
 90
-16777216
102
RTVSPost2010PropOp51
 70
     0
102
RTVSPost2010Prop52
140
1.0
102
RTVSPost2010PropOp52
 70
     0
102
RTVSPost2010Prop53
 90
        2
102
RTVSPost2010PropOp53
 70
     1
102
RTVSPost2010Prop54
  1
strokes_ogs.tif
102
RTVSPost2010PropOp54
 70
     1
102
RTVSPost2010Prop55
280
     0
102
RTVSPost2010PropOp55
 70
     1
102
RTVSPost2010Prop56
140
1.0
102
RTVSPost2010PropOp56
 70
     1
102
RTVSPost2010Prop57
140
1.0
102
RTVSPost2010PropOp57
 70
     1
  0
XRECORD
  5
2B0C4
102
{ACAD_REACTORS
330
2B0C3
102
}
330
2B0C3
100
AcDbXrecord
280
     1
102
RTVSPost2010Prop28
280
     0
102
RTVSPost2010PropOp28
 70
     1
102
RTVSPost2010Prop29
280
     1
102
RTVSPost2010PropOp29
 70
     1
102
RTVSPost2010Prop30
280
     1
102
RTVSPost2010PropOp30
 70
     1
102
RTVSPost2010Prop31
280
     0
102
RTVSPost2010PropOp31
 70
     1
102
RTVSPost2010Prop32
280
     0
102
RTVSPost2010PropOp32
 70
     1
102
RTVSPost2010Prop33
280
     0
102
RTVSPost2010PropOp33
 70
     1
102
RTVSPost2010Prop34
280
     0
102
RTVSPost2010PropOp34
 70
     1
102
RTVSPost2010Prop35
280
     0
102
RTVSPost2010PropOp35
 70
     1
102
RTVSPost2010Prop36
280
     0
102
RTVSPost2010PropOp36
 70
     1
102
RTVSPost2010Prop37
 90
       50
102
RTVSPost2010PropOp37
 70
     1
102
RTVSPost2010Prop38
140
0.0
102
RTVSPost2010PropOp38
 70
     1
102
RTVSPost2010Prop39
140
1.0
102
RTVSPost2010PropOp39
 70
     1
102
RTVSPost2010Prop40
 90
        0
102
RTVSPost2010PropOp40
 70
     1
102
RTVSPost2010Prop41ColorIndex
 90
       18
102
RTVSPost2010Prop41ColorRGB
 90
        0
102
RTVSPost2010PropOp41
 70
     1
102
RTVSPost2010Prop42
 90
       50
102
RTVSPost2010PropOp42
 70
     1
102
RTVSPost2010Prop43
 90
        3
102
RTVSPost2010PropOp43
 70
     1
102
RTVSPost2010Prop44ColorIndex
 90
        5
102
RTVSPost2010Prop44ColorRGB
 90
      255
102
RTVSPost2010PropOp44
 70
     1
102
RTVSPost2010Prop45
280
     0
102
RTVSPost2010PropOp45
 70
     1
102
RTVSPost2010Prop46
 90
       50
102
RTVSPost2010PropOp46
 70
     1
102
RTVSPost2010Prop47
 90
       50
102
RTVSPost2010PropOp47
 70
     1
102
RTVSPost2010Prop48
 90
       50
102
RTVSPost2010PropOp48
 70
     1
102
RTVSPost2010Prop49
280
     0
102
RTVSPost2010PropOp49
 70
     1
102
RTVSPost2010Prop50
 90
       50
102
RTVSPost2010PropOp50
 70
     1
102
RTVSPost2010Prop51ColorIndex
 90
      256
102
RTVSPost2010Prop51ColorRGB
 90
-16777216
102
RTVSPost2010PropOp51
 70
     0
102
RTVSPost2010Prop52
140
1.0
102
RTVSPost2010PropOp52
 70
     0
102
RTVSPost2010Prop53
 90
        2
102
RTVSPost2010PropOp53
 70
     1
102
RTVSPost2010Prop54
  1
strokes_ogs.tif
102
RTVSPost2010PropOp54
 70
     1
102
RTVSPost2010Prop55
280
     0
102
RTVSPost2010PropOp55
 70
     1
102
RTVSPost2010Prop56
140
1.0
102
RTVSPost2010PropOp56
 70
     1
102
RTVSPost2010Prop57
140
1.0
102
RTVSPost2010PropOp57
 70
     1
  0
XRECORD
  5
2B0C2
102
{ACAD_REACTORS
330
2B0C1
102
}
330
2B0C1
100
AcDbXrecord
280
     1
102
RTVSPost2010Prop28
280
     0
102
RTVSPost2010PropOp28
 70
     1
102
RTVSPost2010Prop29
280
     1
102
RTVSPost2010PropOp29
 70
     1
102
RTVSPost2010Prop30
280
     1
102
RTVSPost2010PropOp30
 70
     1
102
RTVSPost2010Prop31
280
     0
102
RTVSPost2010PropOp31
 70
     1
102
RTVSPost2010Prop32
280
     0
102
RTVSPost2010PropOp32
 70
     1
102
RTVSPost2010Prop33
280
     0
102
RTVSPost2010PropOp33
 70
     1
102
RTVSPost2010Prop34
280
     0
102
RTVSPost2010PropOp34
 70
     1
102
RTVSPost2010Prop35
280
     0
102
RTVSPost2010PropOp35
 70
     1
102
RTVSPost2010Prop36
280
     0
102
RTVSPost2010PropOp36
 70
     1
102
RTVSPost2010Prop37
 90
       50
102
RTVSPost2010PropOp37
 70
     1
102
RTVSPost2010Prop38
140
0.0
102
RTVSPost2010PropOp38
 70
     1
102
RTVSPost2010Prop39
140
1.0
102
RTVSPost2010PropOp39
 70
     1
102
RTVSPost2010Prop40
 90
        0
102
RTVSPost2010PropOp40
 70
     1
102
RTVSPost2010Prop41ColorIndex
 90
       18
102
RTVSPost2010Prop41ColorRGB
 90
        0
102
RTVSPost2010PropOp41
 70
     1
102
RTVSPost2010Prop42
 90
       50
102
RTVSPost2010PropOp42
 70
     1
102
RTVSPost2010Prop43
 90
        3
102
RTVSPost2010PropOp43
 70
     1
102
RTVSPost2010Prop44ColorIndex
 90
        5
102
RTVSPost2010Prop44ColorRGB
 90
      255
102
RTVSPost2010PropOp44
 70
     1
102
RTVSPost2010Prop45
280
     0
102
RTVSPost2010PropOp45
 70
     1
102
RTVSPost2010Prop46
 90
       50
102
RTVSPost2010PropOp46
 70
     1
102
RTVSPost2010Prop47
 90
       50
102
RTVSPost2010PropOp47
 70
     1
102
RTVSPost2010Prop48
 90
       50
102
RTVSPost2010PropOp48
 70
     1
102
RTVSPost2010Prop49
280
     0
102
RTVSPost2010PropOp49
 70
     1
102
RTVSPost2010Prop50
 90
       50
102
RTVSPost2010PropOp50
 70
     1
102
RTVSPost2010Prop51ColorIndex
 90
      256
102
RTVSPost2010Prop51ColorRGB
 90
-16777216
102
RTVSPost2010PropOp51
 70
     0
102
RTVSPost2010Prop52
140
1.0
102
RTVSPost2010PropOp52
 70
     0
102
RTVSPost2010Prop53
 90
        2
102
RTVSPost2010PropOp53
 70
     1
102
RTVSPost2010Prop54
  1
strokes_ogs.tif
102
RTVSPost2010PropOp54
 70
     1
102
RTVSPost2010Prop55
280
     0
102
RTVSPost2010PropOp55
 70
     1
102
RTVSPost2010Prop56
140
1.0
102
RTVSPost2010PropOp56
 70
     1
102
RTVSPost2010Prop57
140
1.0
102
RTVSPost2010PropOp57
 70
     1
  0
XRECORD
  5
2B0BE
102
{ACAD_REACTORS
330
2B0BD
102
}
330
2B0BD
100
AcDbXrecord
280
     1
102
RTVSPost2010Prop28
280
     0
102
RTVSPost2010PropOp28
 70
     1
102
RTVSPost2010Prop29
280
     1
102
RTVSPost2010PropOp29
 70
     1
102
RTVSPost2010Prop30
280
     1
102
RTVSPost2010PropOp30
 70
     1
102
RTVSPost2010Prop31
280
     0
102
RTVSPost2010PropOp31
 70
     1
102
RTVSPost2010Prop32
280
     0
102
RTVSPost2010PropOp32
 70
     1
102
RTVSPost2010Prop33
280
     0
102
RTVSPost2010PropOp33
 70
     1
102
RTVSPost2010Prop34
280
     0
102
RTVSPost2010PropOp34
 70
     1
102
RTVSPost2010Prop35
280
     0
102
RTVSPost2010PropOp35
 70
     1
102
RTVSPost2010Prop36
280
     0
102
RTVSPost2010PropOp36
 70
     1
102
RTVSPost2010Prop37
 90
       50
102
RTVSPost2010PropOp37
 70
     1
102
RTVSPost2010Prop38
140
0.0
102
RTVSPost2010PropOp38
 70
     1
102
RTVSPost2010Prop39
140
1.0
102
RTVSPost2010PropOp39
 70
     1
102
RTVSPost2010Prop40
 90
        0
102
RTVSPost2010PropOp40
 70
     1
102
RTVSPost2010Prop41ColorIndex
 90
       18
102
RTVSPost2010Prop41ColorRGB
 90
        0
102
RTVSPost2010PropOp41
 70
     1
102
RTVSPost2010Prop42
 90
       50
102
RTVSPost2010PropOp42
 70
     1
102
RTVSPost2010Prop43
 90
        3
102
RTVSPost2010PropOp43
 70
     1
102
RTVSPost2010Prop44ColorIndex
 90
        5
102
RTVSPost2010Prop44ColorRGB
 90
      255
102
RTVSPost2010PropOp44
 70
     1
102
RTVSPost2010Prop45
280
     0
102
RTVSPost2010PropOp45
 70
     1
102
RTVSPost2010Prop46
 90
       50
102
RTVSPost2010PropOp46
 70
     1
102
RTVSPost2010Prop47
 90
       50
102
RTVSPost2010PropOp47
 70
     1
102
RTVSPost2010Prop48
 90
       50
102
RTVSPost2010PropOp48
 70
     1
102
RTVSPost2010Prop49
280
     0
102
RTVSPost2010PropOp49
 70
     1
102
RTVSPost2010Prop50
 90
       50
102
RTVSPost2010PropOp50
 70
     1
102
RTVSPost2010Prop51ColorIndex
 90
      256
102
RTVSPost2010Prop51ColorRGB
 90
-16777216
102
RTVSPost2010PropOp51
 70
     0
102
RTVSPost2010Prop52
140
1.0
102
RTVSPost2010PropOp52
 70
     0
102
RTVSPost2010Prop53
 90
        2
102
RTVSPost2010PropOp53
 70
     1
102
RTVSPost2010Prop54
  1
strokes_ogs.tif
102
RTVSPost2010PropOp54
 70
     1
102
RTVSPost2010Prop55
280
     0
102
RTVSPost2010PropOp55
 70
     1
102
RTVSPost2010Prop56
140
1.0
102
RTVSPost2010PropOp56
 70
     1
102
RTVSPost2010Prop57
140
1.0
102
RTVSPost2010PropOp57
 70
     1
  0
XRECORD
  5
2B0CC
102
{ACAD_REACTORS
330
2B0CB
102
}
330
2B0CB
100
AcDbXrecord
280
     1
102
RTVSPost2010Prop28
280
     0
102
RTVSPost2010PropOp28
 70
     1
102
RTVSPost2010Prop29
280
     1
102
RTVSPost2010PropOp29
 70
     1
102
RTVSPost2010Prop30
280
     1
102
RTVSPost2010PropOp30
 70
     1
102
RTVSPost2010Prop31
280
     0
102
RTVSPost2010PropOp31
 70
     1
102
RTVSPost2010Prop32
280
     0
102
RTVSPost2010PropOp32
 70
     1
102
RTVSPost2010Prop33
280
     0
102
RTVSPost2010PropOp33
 70
     1
102
RTVSPost2010Prop34
280
     0
102
RTVSPost2010PropOp34
 70
     1
102
RTVSPost2010Prop35
280
     0
102
RTVSPost2010PropOp35
 70
     1
102
RTVSPost2010Prop36
280
     0
102
RTVSPost2010PropOp36
 70
     1
102
RTVSPost2010Prop37
 90
       50
102
RTVSPost2010PropOp37
 70
     1
102
RTVSPost2010Prop38
140
0.0
102
RTVSPost2010PropOp38
 70
     1
102
RTVSPost2010Prop39
140
1.0
102
RTVSPost2010PropOp39
 70
     1
102
RTVSPost2010Prop40
 90
        0
102
RTVSPost2010PropOp40
 70
     1
102
RTVSPost2010Prop41ColorIndex
 90
       18
102
RTVSPost2010Prop41ColorRGB
 90
        0
102
RTVSPost2010PropOp41
 70
     1
102
RTVSPost2010Prop42
 90
       50
102
RTVSPost2010PropOp42
 70
     1
102
RTVSPost2010Prop43
 90
        3
102
RTVSPost2010PropOp43
 70
     1
102
RTVSPost2010Prop44ColorIndex
 90
        5
102
RTVSPost2010Prop44ColorRGB
 90
      255
102
RTVSPost2010PropOp44
 70
     1
102
RTVSPost2010Prop45
280
     0
102
RTVSPost2010PropOp45
 70
     1
102
RTVSPost2010Prop46
 90
       50
102
RTVSPost2010PropOp46
 70
     1
102
RTVSPost2010Prop47
 90
       50
102
RTVSPost2010PropOp47
 70
     1
102
RTVSPost2010Prop48
 90
       50
102
RTVSPost2010PropOp48
 70
     1
102
RTVSPost2010Prop49
280
     0
102
RTVSPost2010PropOp49
 70
     1
102
RTVSPost2010Prop50
 90
       50
102
RTVSPost2010PropOp50
 70
     1
102
RTVSPost2010Prop51ColorIndex
 90
      256
102
RTVSPost2010Prop51ColorRGB
 90
-16777216
102
RTVSPost2010PropOp51
 70
     0
102
RTVSPost2010Prop52
140
1.0
102
RTVSPost2010PropOp52
 70
     0
102
RTVSPost2010Prop53
 90
        2
102
RTVSPost2010PropOp53
 70
     1
102
RTVSPost2010Prop54
  1
strokes_ogs.tif
102
RTVSPost2010PropOp54
 70
     1
102
RTVSPost2010Prop55
280
     0
102
RTVSPost2010PropOp55
 70
     1
102
RTVSPost2010Prop56
140
1.0
102
RTVSPost2010PropOp56
 70
     1
102
RTVSPost2010Prop57
140
1.0
102
RTVSPost2010PropOp57
 70
     1
  0
XRECORD
  5
2B0D4
102
{ACAD_REACTORS
330
2B0D3
102
}
330
2B0D3
100
AcDbXrecord
280
     1
102
RTVSPost2010Prop28
280
     0
102
RTVSPost2010PropOp28
 70
     1
102
RTVSPost2010Prop29
280
     1
102
RTVSPost2010PropOp29
 70
     1
102
RTVSPost2010Prop30
280
     1
102
RTVSPost2010PropOp30
 70
     1
102
RTVSPost2010Prop31
280
     0
102
RTVSPost2010PropOp31
 70
     1
102
RTVSPost2010Prop32
280
     0
102
RTVSPost2010PropOp32
 70
     1
102
RTVSPost2010Prop33
280
     0
102
RTVSPost2010PropOp33
 70
     1
102
RTVSPost2010Prop34
280
     0
102
RTVSPost2010PropOp34
 70
     1
102
RTVSPost2010Prop35
280
     0
102
RTVSPost2010PropOp35
 70
     1
102
RTVSPost2010Prop36
280
     0
102
RTVSPost2010PropOp36
 70
     1
102
RTVSPost2010Prop37
 90
       50
102
RTVSPost2010PropOp37
 70
     1
102
RTVSPost2010Prop38
140
0.0
102
RTVSPost2010PropOp38
 70
     1
102
RTVSPost2010Prop39
140
1.0
102
RTVSPost2010PropOp39
 70
     1
102
RTVSPost2010Prop40
 90
        0
102
RTVSPost2010PropOp40
 70
     1
102
RTVSPost2010Prop41ColorIndex
 90
       18
102
RTVSPost2010Prop41ColorRGB
 90
        0
102
RTVSPost2010PropOp41
 70
     1
102
RTVSPost2010Prop42
 90
       50
102
RTVSPost2010PropOp42
 70
     1
102
RTVSPost2010Prop43
 90
        3
102
RTVSPost2010PropOp43
 70
     1
102
RTVSPost2010Prop44ColorIndex
 90
        5
102
RTVSPost2010Prop44ColorRGB
 90
      255
102
RTVSPost2010PropOp44
 70
     1
102
RTVSPost2010Prop45
280
     0
102
RTVSPost2010PropOp45
 70
     1
102
RTVSPost2010Prop46
 90
       50
102
RTVSPost2010PropOp46
 70
     1
102
RTVSPost2010Prop47
 90
       50
102
RTVSPost2010PropOp47
 70
     1
102
RTVSPost2010Prop48
 90
       50
102
RTVSPost2010PropOp48
 70
     1
102
RTVSPost2010Prop49
280
     0
102
RTVSPost2010PropOp49
 70
     1
102
RTVSPost2010Prop50
 90
       50
102
RTVSPost2010PropOp50
 70
     1
102
RTVSPost2010Prop51ColorIndex
 90
      256
102
RTVSPost2010Prop51ColorRGB
 90
-16777216
102
RTVSPost2010PropOp51
 70
     0
102
RTVSPost2010Prop52
140
1.0
102
RTVSPost2010PropOp52
 70
     0
102
RTVSPost2010Prop53
 90
        2
102
RTVSPost2010PropOp53
 70
     1
102
RTVSPost2010Prop54
  1
strokes_ogs.tif
102
RTVSPost2010PropOp54
 70
     1
102
RTVSPost2010Prop55
280
     0
102
RTVSPost2010PropOp55
 70
     1
102
RTVSPost2010Prop56
140
1.0
102
RTVSPost2010PropOp56
 70
     1
102
RTVSPost2010Prop57
140
1.0
102
RTVSPost2010PropOp57
 70
     1
  0
XRECORD
  5
2B0C6
102
{ACAD_REACTORS
330
2B0C5
102
}
330
2B0C5
100
AcDbXrecord
280
     1
102
RTVSPost2010Prop28
280
     0
102
RTVSPost2010PropOp28
 70
     1
102
RTVSPost2010Prop29
280
     1
102
RTVSPost2010PropOp29
 70
     1
102
RTVSPost2010Prop30
280
     1
102
RTVSPost2010PropOp30
 70
     1
102
RTVSPost2010Prop31
280
     0
102
RTVSPost2010PropOp31
 70
     1
102
RTVSPost2010Prop32
280
     0
102
RTVSPost2010PropOp32
 70
     1
102
RTVSPost2010Prop33
280
     0
102
RTVSPost2010PropOp33
 70
     1
102
RTVSPost2010Prop34
280
     0
102
RTVSPost2010PropOp34
 70
     1
102
RTVSPost2010Prop35
280
     0
102
RTVSPost2010PropOp35
 70
     1
102
RTVSPost2010Prop36
280
     0
102
RTVSPost2010PropOp36
 70
     1
102
RTVSPost2010Prop37
 90
       50
102
RTVSPost2010PropOp37
 70
     1
102
RTVSPost2010Prop38
140
0.0
102
RTVSPost2010PropOp38
 70
     1
102
RTVSPost2010Prop39
140
1.0
102
RTVSPost2010PropOp39
 70
     1
102
RTVSPost2010Prop40
 90
        0
102
RTVSPost2010PropOp40
 70
     1
102
RTVSPost2010Prop41ColorIndex
 90
       18
102
RTVSPost2010Prop41ColorRGB
 90
        0
102
RTVSPost2010PropOp41
 70
     1
102
RTVSPost2010Prop42
 90
       50
102
RTVSPost2010PropOp42
 70
     1
102
RTVSPost2010Prop43
 90
        3
102
RTVSPost2010PropOp43
 70
     1
102
RTVSPost2010Prop44ColorIndex
 90
        5
102
RTVSPost2010Prop44ColorRGB
 90
      255
102
RTVSPost2010PropOp44
 70
     1
102
RTVSPost2010Prop45
280
     0
102
RTVSPost2010PropOp45
 70
     1
102
RTVSPost2010Prop46
 90
       50
102
RTVSPost2010PropOp46
 70
     1
102
RTVSPost2010Prop47
 90
       50
102
RTVSPost2010PropOp47
 70
     1
102
RTVSPost2010Prop48
 90
       50
102
RTVSPost2010PropOp48
 70
     1
102
RTVSPost2010Prop49
280
     0
102
RTVSPost2010PropOp49
 70
     1
102
RTVSPost2010Prop50
 90
       50
102
RTVSPost2010PropOp50
 70
     1
102
RTVSPost2010Prop51ColorIndex
 90
      256
102
RTVSPost2010Prop51ColorRGB
 90
-16777216
102
RTVSPost2010PropOp51
 70
     0
102
RTVSPost2010Prop52
140
1.0
102
RTVSPost2010PropOp52
 70
     0
102
RTVSPost2010Prop53
 90
        2
102
RTVSPost2010PropOp53
 70
     1
102
RTVSPost2010Prop54
  1
strokes_ogs.tif
102
RTVSPost2010PropOp54
 70
     1
102
RTVSPost2010Prop55
280
     0
102
RTVSPost2010PropOp55
 70
     1
102
RTVSPost2010Prop56
140
1.0
102
RTVSPost2010PropOp56
 70
     1
102
RTVSPost2010Prop57
140
1.0
102
RTVSPost2010PropOp57
 70
     1
  0
XRECORD
  5
2B0CA
102
{ACAD_REACTORS
330
2B0C9
102
}
330
2B0C9
100
AcDbXrecord
280
     1
102
RTVSPost2010Prop28
280
     0
102
RTVSPost2010PropOp28
 70
     1
102
RTVSPost2010Prop29
280
     1
102
RTVSPost2010PropOp29
 70
     1
102
RTVSPost2010Prop30
280
     1
102
RTVSPost2010PropOp30
 70
     1
102
RTVSPost2010Prop31
280
     0
102
RTVSPost2010PropOp31
 70
     1
102
RTVSPost2010Prop32
280
     0
102
RTVSPost2010PropOp32
 70
     1
102
RTVSPost2010Prop33
280
     0
102
RTVSPost2010PropOp33
 70
     1
102
RTVSPost2010Prop34
280
     0
102
RTVSPost2010PropOp34
 70
     1
102
RTVSPost2010Prop35
280
     0
102
RTVSPost2010PropOp35
 70
     1
102
RTVSPost2010Prop36
280
     0
102
RTVSPost2010PropOp36
 70
     1
102
RTVSPost2010Prop37
 90
       50
102
RTVSPost2010PropOp37
 70
     1
102
RTVSPost2010Prop38
140
0.0
102
RTVSPost2010PropOp38
 70
     1
102
RTVSPost2010Prop39
140
1.0
102
RTVSPost2010PropOp39
 70
     1
102
RTVSPost2010Prop40
 90
        0
102
RTVSPost2010PropOp40
 70
     1
102
RTVSPost2010Prop41ColorIndex
 90
       18
102
RTVSPost2010Prop41ColorRGB
 90
        0
102
RTVSPost2010PropOp41
 70
     1
102
RTVSPost2010Prop42
 90
       50
102
RTVSPost2010PropOp42
 70
     1
102
RTVSPost2010Prop43
 90
        3
102
RTVSPost2010PropOp43
 70
     1
102
RTVSPost2010Prop44ColorIndex
 90
        5
102
RTVSPost2010Prop44ColorRGB
 90
      255
102
RTVSPost2010PropOp44
 70
     1
102
RTVSPost2010Prop45
280
     0
102
RTVSPost2010PropOp45
 70
     1
102
RTVSPost2010Prop46
 90
       50
102
RTVSPost2010PropOp46
 70
     1
102
RTVSPost2010Prop47
 90
       50
102
RTVSPost2010PropOp47
 70
     1
102
RTVSPost2010Prop48
 90
       50
102
RTVSPost2010PropOp48
 70
     1
102
RTVSPost2010Prop49
280
     0
102
RTVSPost2010PropOp49
 70
     1
102
RTVSPost2010Prop50
 90
       50
102
RTVSPost2010PropOp50
 70
     1
102
RTVSPost2010Prop51ColorIndex
 90
      256
102
RTVSPost2010Prop51ColorRGB
 90
-16777216
102
RTVSPost2010PropOp51
 70
     0
102
RTVSPost2010Prop52
140
1.0
102
RTVSPost2010PropOp52
 70
     0
102
RTVSPost2010Prop53
 90
        2
102
RTVSPost2010PropOp53
 70
     1
102
RTVSPost2010Prop54
  1
strokes_ogs.tif
102
RTVSPost2010PropOp54
 70
     1
102
RTVSPost2010Prop55
280
     0
102
RTVSPost2010PropOp55
 70
     1
102
RTVSPost2010Prop56
140
1.0
102
RTVSPost2010PropOp56
 70
     1
102
RTVSPost2010Prop57
140
1.0
102
RTVSPost2010PropOp57
 70
     1
  0
XRECORD
  5
2B0DA
102
{ACAD_REACTORS
330
2B0D9
102
}
330
2B0D9
100
AcDbXrecord
280
     1
102
RTVSPost2010Prop28
280
     0
102
RTVSPost2010PropOp28
 70
     1
102
RTVSPost2010Prop29
280
     1
102
RTVSPost2010PropOp29
 70
     1
102
RTVSPost2010Prop30
280
     1
102
RTVSPost2010PropOp30
 70
     1
102
RTVSPost2010Prop31
280
     0
102
RTVSPost2010PropOp31
 70
     1
102
RTVSPost2010Prop32
280
     0
102
RTVSPost2010PropOp32
 70
     1
102
RTVSPost2010Prop33
280
     0
102
RTVSPost2010PropOp33
 70
     1
102
RTVSPost2010Prop34
280
     0
102
RTVSPost2010PropOp34
 70
     1
102
RTVSPost2010Prop35
280
     0
102
RTVSPost2010PropOp35
 70
     1
102
RTVSPost2010Prop36
280
     0
102
RTVSPost2010PropOp36
 70
     1
102
RTVSPost2010Prop37
 90
       50
102
RTVSPost2010PropOp37
 70
     1
102
RTVSPost2010Prop38
140
0.0
102
RTVSPost2010PropOp38
 70
     1
102
RTVSPost2010Prop39
140
1.0
102
RTVSPost2010PropOp39
 70
     1
102
RTVSPost2010Prop40
 90
        0
102
RTVSPost2010PropOp40
 70
     1
102
RTVSPost2010Prop41ColorIndex
 90
       18
102
RTVSPost2010Prop41ColorRGB
 90
        0
102
RTVSPost2010PropOp41
 70
     1
102
RTVSPost2010Prop42
 90
       50
102
RTVSPost2010PropOp42
 70
     1
102
RTVSPost2010Prop43
 90
        3
102
RTVSPost2010PropOp43
 70
     1
102
RTVSPost2010Prop44ColorIndex
 90
        5
102
RTVSPost2010Prop44ColorRGB
 90
      255
102
RTVSPost2010PropOp44
 70
     1
102
RTVSPost2010Prop45
280
     0
102
RTVSPost2010PropOp45
 70
     1
102
RTVSPost2010Prop46
 90
       50
102
RTVSPost2010PropOp46
 70
     1
102
RTVSPost2010Prop47
 90
       50
102
RTVSPost2010PropOp47
 70
     1
102
RTVSPost2010Prop48
 90
       50
102
RTVSPost2010PropOp48
 70
     1
102
RTVSPost2010Prop49
280
     0
102
RTVSPost2010PropOp49
 70
     1
102
RTVSPost2010Prop50
 90
       50
102
RTVSPost2010PropOp50
 70
     1
102
RTVSPost2010Prop51ColorIndex
 90
      256
102
RTVSPost2010Prop51ColorRGB
 90
-16777216
102
RTVSPost2010PropOp51
 70
     0
102
RTVSPost2010Prop52
140
1.0
102
RTVSPost2010PropOp52
 70
     0
102
RTVSPost2010Prop53
 90
        2
102
RTVSPost2010PropOp53
 70
     1
102
RTVSPost2010Prop54
  1
strokes_ogs.tif
102
RTVSPost2010PropOp54
 70
     1
102
RTVSPost2010Prop55
280
     0
102
RTVSPost2010PropOp55
 70
     1
102
RTVSPost2010Prop56
140
1.0
102
RTVSPost2010PropOp56
 70
     1
102
RTVSPost2010Prop57
140
1.0
102
RTVSPost2010PropOp57
 70
     1
  0
XRECORD
  5
2B0D2
102
{ACAD_REACTORS
330
2B0D1
102
}
330
2B0D1
100
AcDbXrecord
280
     1
102
RTVSPost2010Prop28
280
     0
102
RTVSPost2010PropOp28
 70
     1
102
RTVSPost2010Prop29
280
     1
102
RTVSPost2010PropOp29
 70
     1
102
RTVSPost2010Prop30
280
     1
102
RTVSPost2010PropOp30
 70
     1
102
RTVSPost2010Prop31
280
     0
102
RTVSPost2010PropOp31
 70
     1
102
RTVSPost2010Prop32
280
     0
102
RTVSPost2010PropOp32
 70
     1
102
RTVSPost2010Prop33
280
     0
102
RTVSPost2010PropOp33
 70
     1
102
RTVSPost2010Prop34
280
     0
102
RTVSPost2010PropOp34
 70
     1
102
RTVSPost2010Prop35
280
     0
102
RTVSPost2010PropOp35
 70
     1
102
RTVSPost2010Prop36
280
     0
102
RTVSPost2010PropOp36
 70
     1
102
RTVSPost2010Prop37
 90
       50
102
RTVSPost2010PropOp37
 70
     1
102
RTVSPost2010Prop38
140
0.0
102
RTVSPost2010PropOp38
 70
     1
102
RTVSPost2010Prop39
140
1.0
102
RTVSPost2010PropOp39
 70
     1
102
RTVSPost2010Prop40
 90
        0
102
RTVSPost2010PropOp40
 70
     1
102
RTVSPost2010Prop41ColorIndex
 90
       18
102
RTVSPost2010Prop41ColorRGB
 90
        0
102
RTVSPost2010PropOp41
 70
     1
102
RTVSPost2010Prop42
 90
       50
102
RTVSPost2010PropOp42
 70
     1
102
RTVSPost2010Prop43
 90
        3
102
RTVSPost2010PropOp43
 70
     1
102
RTVSPost2010Prop44ColorIndex
 90
        5
102
RTVSPost2010Prop44ColorRGB
 90
      255
102
RTVSPost2010PropOp44
 70
     1
102
RTVSPost2010Prop45
280
     0
102
RTVSPost2010PropOp45
 70
     1
102
RTVSPost2010Prop46
 90
       50
102
RTVSPost2010PropOp46
 70
     1
102
RTVSPost2010Prop47
 90
       50
102
RTVSPost2010PropOp47
 70
     1
102
RTVSPost2010Prop48
 90
       50
102
RTVSPost2010PropOp48
 70
     1
102
RTVSPost2010Prop49
280
     0
102
RTVSPost2010PropOp49
 70
     1
102
RTVSPost2010Prop50
 90
       50
102
RTVSPost2010PropOp50
 70
     1
102
RTVSPost2010Prop51ColorIndex
 90
      256
102
RTVSPost2010Prop51ColorRGB
 90
-16777216
102
RTVSPost2010PropOp51
 70
     0
102
RTVSPost2010Prop52
140
1.0
102
RTVSPost2010PropOp52
 70
     0
102
RTVSPost2010Prop53
 90
        2
102
RTVSPost2010PropOp53
 70
     1
102
RTVSPost2010Prop54
  1
strokes_ogs.tif
102
RTVSPost2010PropOp54
 70
     1
102
RTVSPost2010Prop55
280
     0
102
RTVSPost2010PropOp55
 70
     1
102
RTVSPost2010Prop56
140
1.0
102
RTVSPost2010PropOp56
 70
     1
102
RTVSPost2010Prop57
140
1.0
102
RTVSPost2010PropOp57
 70
     1
  0
XRECORD
  5
2B0B6
102
{ACAD_REACTORS
330
2B0B5
102
}
330
2B0B5
100
AcDbXrecord
280
     1
102
RTVSPost2010Prop28
280
     0
102
RTVSPost2010PropOp28
 70
     1
102
RTVSPost2010Prop29
280
     1
102
RTVSPost2010PropOp29
 70
     1
102
RTVSPost2010Prop30
280
     1
102
RTVSPost2010PropOp30
 70
     1
102
RTVSPost2010Prop31
280
     0
102
RTVSPost2010PropOp31
 70
     1
102
RTVSPost2010Prop32
280
     0
102
RTVSPost2010PropOp32
 70
     1
102
RTVSPost2010Prop33
280
     0
102
RTVSPost2010PropOp33
 70
     1
102
RTVSPost2010Prop34
280
     0
102
RTVSPost2010PropOp34
 70
     1
102
RTVSPost2010Prop35
280
     0
102
RTVSPost2010PropOp35
 70
     1
102
RTVSPost2010Prop36
280
     0
102
RTVSPost2010PropOp36
 70
     1
102
RTVSPost2010Prop37
 90
       50
102
RTVSPost2010PropOp37
 70
     1
102
RTVSPost2010Prop38
140
0.0
102
RTVSPost2010PropOp38
 70
     1
102
RTVSPost2010Prop39
140
1.0
102
RTVSPost2010PropOp39
 70
     1
102
RTVSPost2010Prop40
 90
        0
102
RTVSPost2010PropOp40
 70
     1
102
RTVSPost2010Prop41ColorIndex
 90
       18
102
RTVSPost2010Prop41ColorRGB
 90
        0
102
RTVSPost2010PropOp41
 70
     1
102
RTVSPost2010Prop42
 90
       50
102
RTVSPost2010PropOp42
 70
     1
102
RTVSPost2010Prop43
 90
        3
102
RTVSPost2010PropOp43
 70
     1
102
RTVSPost2010Prop44ColorIndex
 90
        5
102
RTVSPost2010Prop44ColorRGB
 90
      255
102
RTVSPost2010PropOp44
 70
     1
102
RTVSPost2010Prop45
280
     0
102
RTVSPost2010PropOp45
 70
     1
102
RTVSPost2010Prop46
 90
       50
102
RTVSPost2010PropOp46
 70
     1
102
RTVSPost2010Prop47
 90
       50
102
RTVSPost2010PropOp47
 70
     1
102
RTVSPost2010Prop48
 90
       50
102
RTVSPost2010PropOp48
 70
     1
102
RTVSPost2010Prop49
280
     0
102
RTVSPost2010PropOp49
 70
     1
102
RTVSPost2010Prop50
 90
       50
102
RTVSPost2010PropOp50
 70
     1
102
RTVSPost2010Prop51ColorIndex
 90
      256
102
RTVSPost2010Prop51ColorRGB
 90
-16777216
102
RTVSPost2010PropOp51
 70
     0
102
RTVSPost2010Prop52
140
1.0
102
RTVSPost2010PropOp52
 70
     0
102
RTVSPost2010Prop53
 90
        2
102
RTVSPost2010PropOp53
 70
     1
102
RTVSPost2010Prop54
  1
strokes_ogs.tif
102
RTVSPost2010PropOp54
 70
     1
102
RTVSPost2010Prop55
280
     0
102
RTVSPost2010PropOp55
 70
     1
102
RTVSPost2010Prop56
140
1.0
102
RTVSPost2010PropOp56
 70
     1
102
RTVSPost2010Prop57
140
1.0
102
RTVSPost2010PropOp57
 70
     1
  0
XRECORD
  5
2B0B8
102
{ACAD_REACTORS
330
2B0B7
102
}
330
2B0B7
100
AcDbXrecord
280
     1
102
RTVSPost2010Prop28
280
     0
102
RTVSPost2010PropOp28
 70
     1
102
RTVSPost2010Prop29
280
     1
102
RTVSPost2010PropOp29
 70
     1
102
RTVSPost2010Prop30
280
     1
102
RTVSPost2010PropOp30
 70
     1
102
RTVSPost2010Prop31
280
     0
102
RTVSPost2010PropOp31
 70
     1
102
RTVSPost2010Prop32
280
     0
102
RTVSPost2010PropOp32
 70
     1
102
RTVSPost2010Prop33
280
     0
102
RTVSPost2010PropOp33
 70
     1
102
RTVSPost2010Prop34
280
     0
102
RTVSPost2010PropOp34
 70
     1
102
RTVSPost2010Prop35
280
     0
102
RTVSPost2010PropOp35
 70
     1
102
RTVSPost2010Prop36
280
     0
102
RTVSPost2010PropOp36
 70
     1
102
RTVSPost2010Prop37
 90
       50
102
RTVSPost2010PropOp37
 70
     1
102
RTVSPost2010Prop38
140
0.0
102
RTVSPost2010PropOp38
 70
     1
102
RTVSPost2010Prop39
140
1.0
102
RTVSPost2010PropOp39
 70
     1
102
RTVSPost2010Prop40
 90
        0
102
RTVSPost2010PropOp40
 70
     1
102
RTVSPost2010Prop41ColorIndex
 90
       18
102
RTVSPost2010Prop41ColorRGB
 90
        0
102
RTVSPost2010PropOp41
 70
     1
102
RTVSPost2010Prop42
 90
       50
102
RTVSPost2010PropOp42
 70
     1
102
RTVSPost2010Prop43
 90
        3
102
RTVSPost2010PropOp43
 70
     1
102
RTVSPost2010Prop44ColorIndex
 90
        5
102
RTVSPost2010Prop44ColorRGB
 90
      255
102
RTVSPost2010PropOp44
 70
     1
102
RTVSPost2010Prop45
280
     0
102
RTVSPost2010PropOp45
 70
     1
102
RTVSPost2010Prop46
 90
       50
102
RTVSPost2010PropOp46
 70
     1
102
RTVSPost2010Prop47
 90
       50
102
RTVSPost2010PropOp47
 70
     1
102
RTVSPost2010Prop48
 90
       50
102
RTVSPost2010PropOp48
 70
     1
102
RTVSPost2010Prop49
280
     0
102
RTVSPost2010PropOp49
 70
     1
102
RTVSPost2010Prop50
 90
       50
102
RTVSPost2010PropOp50
 70
     1
102
RTVSPost2010Prop51ColorIndex
 90
      256
102
RTVSPost2010Prop51ColorRGB
 90
-16777216
102
RTVSPost2010PropOp51
 70
     0
102
RTVSPost2010Prop52
140
1.0
102
RTVSPost2010PropOp52
 70
     0
102
RTVSPost2010Prop53
 90
        2
102
RTVSPost2010PropOp53
 70
     1
102
RTVSPost2010Prop54
  1
strokes_ogs.tif
102
RTVSPost2010PropOp54
 70
     1
102
RTVSPost2010Prop55
280
     0
102
RTVSPost2010PropOp55
 70
     1
102
RTVSPost2010Prop56
140
1.0
102
RTVSPost2010PropOp56
 70
     1
102
RTVSPost2010Prop57
140
1.0
102
RTVSPost2010PropOp57
 70
     1
  0
XRECORD
  5
2B0BA
102
{ACAD_REACTORS
330
2B0B9
102
}
330
2B0B9
100
AcDbXrecord
280
     1
102
RTVSPost2010Prop28
280
     0
102
RTVSPost2010PropOp28
 70
     1
102
RTVSPost2010Prop29
280
     1
102
RTVSPost2010PropOp29
 70
     1
102
RTVSPost2010Prop30
280
     1
102
RTVSPost2010PropOp30
 70
     1
102
RTVSPost2010Prop31
280
     0
102
RTVSPost2010PropOp31
 70
     1
102
RTVSPost2010Prop32
280
     0
102
RTVSPost2010PropOp32
 70
     1
102
RTVSPost2010Prop33
280
     0
102
RTVSPost2010PropOp33
 70
     1
102
RTVSPost2010Prop34
280
     0
102
RTVSPost2010PropOp34
 70
     1
102
RTVSPost2010Prop35
280
     0
102
RTVSPost2010PropOp35
 70
     1
102
RTVSPost2010Prop36
280
     0
102
RTVSPost2010PropOp36
 70
     1
102
RTVSPost2010Prop37
 90
       50
102
RTVSPost2010PropOp37
 70
     1
102
RTVSPost2010Prop38
140
0.0
102
RTVSPost2010PropOp38
 70
     1
102
RTVSPost2010Prop39
140
1.0
102
RTVSPost2010PropOp39
 70
     1
102
RTVSPost2010Prop40
 90
        0
102
RTVSPost2010PropOp40
 70
     1
102
RTVSPost2010Prop41ColorIndex
 90
       18
102
RTVSPost2010Prop41ColorRGB
 90
        0
102
RTVSPost2010PropOp41
 70
     1
102
RTVSPost2010Prop42
 90
       50
102
RTVSPost2010PropOp42
 70
     1
102
RTVSPost2010Prop43
 90
        3
102
RTVSPost2010PropOp43
 70
     1
102
RTVSPost2010Prop44ColorIndex
 90
        5
102
RTVSPost2010Prop44ColorRGB
 90
      255
102
RTVSPost2010PropOp44
 70
     1
102
RTVSPost2010Prop45
280
     0
102
RTVSPost2010PropOp45
 70
     1
102
RTVSPost2010Prop46
 90
       50
102
RTVSPost2010PropOp46
 70
     1
102
RTVSPost2010Prop47
 90
       50
102
RTVSPost2010PropOp47
 70
     1
102
RTVSPost2010Prop48
 90
       50
102
RTVSPost2010PropOp48
 70
     1
102
RTVSPost2010Prop49
280
     0
102
RTVSPost2010PropOp49
 70
     1
102
RTVSPost2010Prop50
 90
       50
102
RTVSPost2010PropOp50
 70
     1
102
RTVSPost2010Prop51ColorIndex
 90
      256
102
RTVSPost2010Prop51ColorRGB
 90
-16777216
102
RTVSPost2010PropOp51
 70
     0
102
RTVSPost2010Prop52
140
1.0
102
RTVSPost2010PropOp52
 70
     0
102
RTVSPost2010Prop53
 90
        2
102
RTVSPost2010PropOp53
 70
     1
102
RTVSPost2010Prop54
  1
strokes_ogs.tif
102
RTVSPost2010PropOp54
 70
     1
102
RTVSPost2010Prop55
280
     0
102
RTVSPost2010PropOp55
 70
     1
102
RTVSPost2010Prop56
140
1.0
102
RTVSPost2010PropOp56
 70
     1
102
RTVSPost2010Prop57
140
1.0
102
RTVSPost2010PropOp57
 70
     1
  0
XRECORD
  5
2B0BC
102
{ACAD_REACTORS
330
2B0BB
102
}
330
2B0BB
100
AcDbXrecord
280
     1
102
RTVSPost2010Prop28
280
     0
102
RTVSPost2010PropOp28
 70
     1
102
RTVSPost2010Prop29
280
     1
102
RTVSPost2010PropOp29
 70
     1
102
RTVSPost2010Prop30
280
     1
102
RTVSPost2010PropOp30
 70
     1
102
RTVSPost2010Prop31
280
     0
102
RTVSPost2010PropOp31
 70
     1
102
RTVSPost2010Prop32
280
     0
102
RTVSPost2010PropOp32
 70
     1
102
RTVSPost2010Prop33
280
     0
102
RTVSPost2010PropOp33
 70
     1
102
RTVSPost2010Prop34
280
     0
102
RTVSPost2010PropOp34
 70
     1
102
RTVSPost2010Prop35
280
     0
102
RTVSPost2010PropOp35
 70
     1
102
RTVSPost2010Prop36
280
     0
102
RTVSPost2010PropOp36
 70
     1
102
RTVSPost2010Prop37
 90
       50
102
RTVSPost2010PropOp37
 70
     1
102
RTVSPost2010Prop38
140
0.0
102
RTVSPost2010PropOp38
 70
     1
102
RTVSPost2010Prop39
140
1.0
102
RTVSPost2010PropOp39
 70
     1
102
RTVSPost2010Prop40
 90
        0
102
RTVSPost2010PropOp40
 70
     1
102
RTVSPost2010Prop41ColorIndex
 90
       18
102
RTVSPost2010Prop41ColorRGB
 90
        0
102
RTVSPost2010PropOp41
 70
     1
102
RTVSPost2010Prop42
 90
       50
102
RTVSPost2010PropOp42
 70
     1
102
RTVSPost2010Prop43
 90
        3
102
RTVSPost2010PropOp43
 70
     1
102
RTVSPost2010Prop44ColorIndex
 90
        5
102
RTVSPost2010Prop44ColorRGB
 90
      255
102
RTVSPost2010PropOp44
 70
     1
102
RTVSPost2010Prop45
280
     0
102
RTVSPost2010PropOp45
 70
     1
102
RTVSPost2010Prop46
 90
       50
102
RTVSPost2010PropOp46
 70
     1
102
RTVSPost2010Prop47
 90
       50
102
RTVSPost2010PropOp47
 70
     1
102
RTVSPost2010Prop48
 90
       50
102
RTVSPost2010PropOp48
 70
     1
102
RTVSPost2010Prop49
280
     0
102
RTVSPost2010PropOp49
 70
     1
102
RTVSPost2010Prop50
 90
       50
102
RTVSPost2010PropOp50
 70
     1
102
RTVSPost2010Prop51ColorIndex
 90
      256
102
RTVSPost2010Prop51ColorRGB
 90
-16777216
102
RTVSPost2010PropOp51
 70
     0
102
RTVSPost2010Prop52
140
1.0
102
RTVSPost2010PropOp52
 70
     0
102
RTVSPost2010Prop53
 90
        2
102
RTVSPost2010PropOp53
 70
     1
102
RTVSPost2010Prop54
  1
strokes_ogs.tif
102
RTVSPost2010PropOp54
 70
     1
102
RTVSPost2010Prop55
280
     0
102
RTVSPost2010PropOp55
 70
     1
102
RTVSPost2010Prop56
140
1.0
102
RTVSPost2010PropOp56
 70
     1
102
RTVSPost2010Prop57
140
1.0
102
RTVSPost2010PropOp57
 70
     1
  0
XRECORD
  5
2B0DE
102
{ACAD_REACTORS
330
2B0DD
102
}
330
2B0DD
100
AcDbXrecord
280
     1
102
RTVSPost2010Prop28
280
     0
102
RTVSPost2010PropOp28
 70
     1
102
RTVSPost2010Prop29
280
     1
102
RTVSPost2010PropOp29
 70
     1
102
RTVSPost2010Prop30
280
     1
102
RTVSPost2010PropOp30
 70
     1
102
RTVSPost2010Prop31
280
     0
102
RTVSPost2010PropOp31
 70
     1
102
RTVSPost2010Prop32
280
     0
102
RTVSPost2010PropOp32
 70
     1
102
RTVSPost2010Prop33
280
     0
102
RTVSPost2010PropOp33
 70
     1
102
RTVSPost2010Prop34
280
     0
102
RTVSPost2010PropOp34
 70
     1
102
RTVSPost2010Prop35
280
     0
102
RTVSPost2010PropOp35
 70
     1
102
RTVSPost2010Prop36
280
     0
102
RTVSPost2010PropOp36
 70
     1
102
RTVSPost2010Prop37
 90
       50
102
RTVSPost2010PropOp37
 70
     1
102
RTVSPost2010Prop38
140
0.0
102
RTVSPost2010PropOp38
 70
     1
102
RTVSPost2010Prop39
140
1.0
102
RTVSPost2010PropOp39
 70
     1
102
RTVSPost2010Prop40
 90
        0
102
RTVSPost2010PropOp40
 70
     1
102
RTVSPost2010Prop41ColorIndex
 90
       18
102
RTVSPost2010Prop41ColorRGB
 90
        0
102
RTVSPost2010PropOp41
 70
     1
102
RTVSPost2010Prop42
 90
       50
102
RTVSPost2010PropOp42
 70
     1
102
RTVSPost2010Prop43
 90
        3
102
RTVSPost2010PropOp43
 70
     1
102
RTVSPost2010Prop44ColorIndex
 90
        5
102
RTVSPost2010Prop44ColorRGB
 90
      255
102
RTVSPost2010PropOp44
 70
     1
102
RTVSPost2010Prop45
280
     0
102
RTVSPost2010PropOp45
 70
     1
102
RTVSPost2010Prop46
 90
       50
102
RTVSPost2010PropOp46
 70
     1
102
RTVSPost2010Prop47
 90
       50
102
RTVSPost2010PropOp47
 70
     1
102
RTVSPost2010Prop48
 90
       50
102
RTVSPost2010PropOp48
 70
     1
102
RTVSPost2010Prop49
280
     0
102
RTVSPost2010PropOp49
 70
     1
102
RTVSPost2010Prop50
 90
       50
102
RTVSPost2010PropOp50
 70
     1
102
RTVSPost2010Prop51ColorIndex
 90
      256
102
RTVSPost2010Prop51ColorRGB
 90
-16777216
102
RTVSPost2010PropOp51
 70
     0
102
RTVSPost2010Prop52
140
1.0
102
RTVSPost2010PropOp52
 70
     0
102
RTVSPost2010Prop53
 90
        2
102
RTVSPost2010PropOp53
 70
     1
102
RTVSPost2010Prop54
  1
strokes_ogs.tif
102
RTVSPost2010PropOp54
 70
     1
102
RTVSPost2010Prop55
280
     0
102
RTVSPost2010PropOp55
 70
     1
102
RTVSPost2010Prop56
140
1.0
102
RTVSPost2010PropOp56
 70
     1
102
RTVSPost2010Prop57
140
1.0
102
RTVSPost2010PropOp57
 70
     1
  0
XRECORD
  5
2B0D6
102
{ACAD_REACTORS
330
2B0D5
102
}
330
2B0D5
100
AcDbXrecord
280
     1
102
RTVSPost2010Prop28
280
     0
102
RTVSPost2010PropOp28
 70
     1
102
RTVSPost2010Prop29
280
     1
102
RTVSPost2010PropOp29
 70
     1
102
RTVSPost2010Prop30
280
     1
102
RTVSPost2010PropOp30
 70
     1
102
RTVSPost2010Prop31
280
     0
102
RTVSPost2010PropOp31
 70
     1
102
RTVSPost2010Prop32
280
     0
102
RTVSPost2010PropOp32
 70
     1
102
RTVSPost2010Prop33
280
     0
102
RTVSPost2010PropOp33
 70
     1
102
RTVSPost2010Prop34
280
     0
102
RTVSPost2010PropOp34
 70
     1
102
RTVSPost2010Prop35
280
     0
102
RTVSPost2010PropOp35
 70
     1
102
RTVSPost2010Prop36
280
     0
102
RTVSPost2010PropOp36
 70
     1
102
RTVSPost2010Prop37
 90
       50
102
RTVSPost2010PropOp37
 70
     1
102
RTVSPost2010Prop38
140
0.0
102
RTVSPost2010PropOp38
 70
     1
102
RTVSPost2010Prop39
140
1.0
102
RTVSPost2010PropOp39
 70
     1
102
RTVSPost2010Prop40
 90
        0
102
RTVSPost2010PropOp40
 70
     1
102
RTVSPost2010Prop41ColorIndex
 90
       18
102
RTVSPost2010Prop41ColorRGB
 90
        0
102
RTVSPost2010PropOp41
 70
     1
102
RTVSPost2010Prop42
 90
       50
102
RTVSPost2010PropOp42
 70
     1
102
RTVSPost2010Prop43
 90
        3
102
RTVSPost2010PropOp43
 70
     1
102
RTVSPost2010Prop44ColorIndex
 90
        5
102
RTVSPost2010Prop44ColorRGB
 90
      255
102
RTVSPost2010PropOp44
 70
     1
102
RTVSPost2010Prop45
280
     0
102
RTVSPost2010PropOp45
 70
     1
102
RTVSPost2010Prop46
 90
       50
102
RTVSPost2010PropOp46
 70
     1
102
RTVSPost2010Prop47
 90
       50
102
RTVSPost2010PropOp47
 70
     1
102
RTVSPost2010Prop48
 90
       50
102
RTVSPost2010PropOp48
 70
     1
102
RTVSPost2010Prop49
280
     0
102
RTVSPost2010PropOp49
 70
     1
102
RTVSPost2010Prop50
 90
       50
102
RTVSPost2010PropOp50
 70
     1
102
RTVSPost2010Prop51ColorIndex
 90
      256
102
RTVSPost2010Prop51ColorRGB
 90
-16777216
102
RTVSPost2010PropOp51
 70
     0
102
RTVSPost2010Prop52
140
1.0
102
RTVSPost2010PropOp52
 70
     0
102
RTVSPost2010Prop53
 90
        2
102
RTVSPost2010PropOp53
 70
     1
102
RTVSPost2010Prop54
  1
strokes_ogs.tif
102
RTVSPost2010PropOp54
 70
     1
102
RTVSPost2010Prop55
280
     0
102
RTVSPost2010PropOp55
 70
     1
102
RTVSPost2010Prop56
140
1.0
102
RTVSPost2010PropOp56
 70
     1
102
RTVSPost2010Prop57
140
1.0
102
RTVSPost2010PropOp57
 70
     1
  0
XRECORD
  5
2B0D0
102
{ACAD_REACTORS
330
2B0CF
102
}
330
2B0CF
100
AcDbXrecord
280
     1
102
RTVSPost2010Prop28
280
     0
102
RTVSPost2010PropOp28
 70
     1
102
RTVSPost2010Prop29
280
     1
102
RTVSPost2010PropOp29
 70
     1
102
RTVSPost2010Prop30
280
     1
102
RTVSPost2010PropOp30
 70
     1
102
RTVSPost2010Prop31
280
     0
102
RTVSPost2010PropOp31
 70
     1
102
RTVSPost2010Prop32
280
     0
102
RTVSPost2010PropOp32
 70
     1
102
RTVSPost2010Prop33
280
     0
102
RTVSPost2010PropOp33
 70
     1
102
RTVSPost2010Prop34
280
     0
102
RTVSPost2010PropOp34
 70
     1
102
RTVSPost2010Prop35
280
     0
102
RTVSPost2010PropOp35
 70
     1
102
RTVSPost2010Prop36
280
     0
102
RTVSPost2010PropOp36
 70
     1
102
RTVSPost2010Prop37
 90
       50
102
RTVSPost2010PropOp37
 70
     1
102
RTVSPost2010Prop38
140
0.0
102
RTVSPost2010PropOp38
 70
     1
102
RTVSPost2010Prop39
140
1.0
102
RTVSPost2010PropOp39
 70
     1
102
RTVSPost2010Prop40
 90
        0
102
RTVSPost2010PropOp40
 70
     1
102
RTVSPost2010Prop41ColorIndex
 90
       18
102
RTVSPost2010Prop41ColorRGB
 90
        0
102
RTVSPost2010PropOp41
 70
     1
102
RTVSPost2010Prop42
 90
       50
102
RTVSPost2010PropOp42
 70
     1
102
RTVSPost2010Prop43
 90
        3
102
RTVSPost2010PropOp43
 70
     1
102
RTVSPost2010Prop44ColorIndex
 90
        5
102
RTVSPost2010Prop44ColorRGB
 90
      255
102
RTVSPost2010PropOp44
 70
     1
102
RTVSPost2010Prop45
280
     0
102
RTVSPost2010PropOp45
 70
     1
102
RTVSPost2010Prop46
 90
       50
102
RTVSPost2010PropOp46
 70
     1
102
RTVSPost2010Prop47
 90
       50
102
RTVSPost2010PropOp47
 70
     1
102
RTVSPost2010Prop48
 90
       50
102
RTVSPost2010PropOp48
 70
     1
102
RTVSPost2010Prop49
280
     0
102
RTVSPost2010PropOp49
 70
     1
102
RTVSPost2010Prop50
 90
       50
102
RTVSPost2010PropOp50
 70
     1
102
RTVSPost2010Prop51ColorIndex
 90
      256
102
RTVSPost2010Prop51ColorRGB
 90
-16777216
102
RTVSPost2010PropOp51
 70
     0
102
RTVSPost2010Prop52
140
1.0
102
RTVSPost2010PropOp52
 70
     0
102
RTVSPost2010Prop53
 90
        2
102
RTVSPost2010PropOp53
 70
     1
102
RTVSPost2010Prop54
  1
strokes_ogs.tif
102
RTVSPost2010PropOp54
 70
     1
102
RTVSPost2010Prop55
280
     0
102
RTVSPost2010PropOp55
 70
     1
102
RTVSPost2010Prop56
140
1.0
102
RTVSPost2010PropOp56
 70
     1
102
RTVSPost2010Prop57
140
1.0
102
RTVSPost2010PropOp57
 70
     1
  0
XRECORD
  5
2B0D8
102
{ACAD_REACTORS
330
2B0D7
102
}
330
2B0D7
100
AcDbXrecord
280
     1
102
RTVSPost2010Prop28
280
     0
102
RTVSPost2010PropOp28
 70
     1
102
RTVSPost2010Prop29
280
     1
102
RTVSPost2010PropOp29
 70
     1
102
RTVSPost2010Prop30
280
     1
102
RTVSPost2010PropOp30
 70
     1
102
RTVSPost2010Prop31
280
     0
102
RTVSPost2010PropOp31
 70
     1
102
RTVSPost2010Prop32
280
     0
102
RTVSPost2010PropOp32
 70
     1
102
RTVSPost2010Prop33
280
     0
102
RTVSPost2010PropOp33
 70
     1
102
RTVSPost2010Prop34
280
     0
102
RTVSPost2010PropOp34
 70
     1
102
RTVSPost2010Prop35
280
     0
102
RTVSPost2010PropOp35
 70
     1
102
RTVSPost2010Prop36
280
     0
102
RTVSPost2010PropOp36
 70
     1
102
RTVSPost2010Prop37
 90
       50
102
RTVSPost2010PropOp37
 70
     1
102
RTVSPost2010Prop38
140
0.0
102
RTVSPost2010PropOp38
 70
     1
102
RTVSPost2010Prop39
140
1.0
102
RTVSPost2010PropOp39
 70
     1
102
RTVSPost2010Prop40
 90
        0
102
RTVSPost2010PropOp40
 70
     1
102
RTVSPost2010Prop41ColorIndex
 90
       18
102
RTVSPost2010Prop41ColorRGB
 90
        0
102
RTVSPost2010PropOp41
 70
     1
102
RTVSPost2010Prop42
 90
       50
102
RTVSPost2010PropOp42
 70
     1
102
RTVSPost2010Prop43
 90
        3
102
RTVSPost2010PropOp43
 70
     1
102
RTVSPost2010Prop44ColorIndex
 90
        5
102
RTVSPost2010Prop44ColorRGB
 90
      255
102
RTVSPost2010PropOp44
 70
     1
102
RTVSPost2010Prop45
280
     0
102
RTVSPost2010PropOp45
 70
     1
102
RTVSPost2010Prop46
 90
       50
102
RTVSPost2010PropOp46
 70
     1
102
RTVSPost2010Prop47
 90
       50
102
RTVSPost2010PropOp47
 70
     1
102
RTVSPost2010Prop48
 90
       50
102
RTVSPost2010PropOp48
 70
     1
102
RTVSPost2010Prop49
280
     0
102
RTVSPost2010PropOp49
 70
     1
102
RTVSPost2010Prop50
 90
       50
102
RTVSPost2010PropOp50
 70
     1
102
RTVSPost2010Prop51ColorIndex
 90
      256
102
RTVSPost2010Prop51ColorRGB
 90
-16777216
102
RTVSPost2010PropOp51
 70
     0
102
RTVSPost2010Prop52
140
1.0
102
RTVSPost2010PropOp52
 70
     0
102
RTVSPost2010Prop53
 90
        2
102
RTVSPost2010PropOp53
 70
     1
102
RTVSPost2010Prop54
  1
strokes_ogs.tif
102
RTVSPost2010PropOp54
 70
     1
102
RTVSPost2010Prop55
280
     0
102
RTVSPost2010PropOp55
 70
     1
102
RTVSPost2010Prop56
140
1.0
102
RTVSPost2010PropOp56
 70
     1
102
RTVSPost2010Prop57
140
1.0
102
RTVSPost2010PropOp57
 70
     1
  0
XRECORD
  5
2B0C8
102
{ACAD_REACTORS
330
2B0C7
102
}
330
2B0C7
100
AcDbXrecord
280
     1
102
RTVSPost2010Prop28
280
     0
102
RTVSPost2010PropOp28
 70
     1
102
RTVSPost2010Prop29
280
     1
102
RTVSPost2010PropOp29
 70
     1
102
RTVSPost2010Prop30
280
     1
102
RTVSPost2010PropOp30
 70
     1
102
RTVSPost2010Prop31
280
     0
102
RTVSPost2010PropOp31
 70
     1
102
RTVSPost2010Prop32
280
     0
102
RTVSPost2010PropOp32
 70
     1
102
RTVSPost2010Prop33
280
     0
102
RTVSPost2010PropOp33
 70
     1
102
RTVSPost2010Prop34
280
     0
102
RTVSPost2010PropOp34
 70
     1
102
RTVSPost2010Prop35
280
     0
102
RTVSPost2010PropOp35
 70
     1
102
RTVSPost2010Prop36
280
     0
102
RTVSPost2010PropOp36
 70
     1
102
RTVSPost2010Prop37
 90
       50
102
RTVSPost2010PropOp37
 70
     1
102
RTVSPost2010Prop38
140
0.0
102
RTVSPost2010PropOp38
 70
     1
102
RTVSPost2010Prop39
140
1.0
102
RTVSPost2010PropOp39
 70
     1
102
RTVSPost2010Prop40
 90
        0
102
RTVSPost2010PropOp40
 70
     1
102
RTVSPost2010Prop41ColorIndex
 90
       18
102
RTVSPost2010Prop41ColorRGB
 90
        0
102
RTVSPost2010PropOp41
 70
     1
102
RTVSPost2010Prop42
 90
       50
102
RTVSPost2010PropOp42
 70
     1
102
RTVSPost2010Prop43
 90
        3
102
RTVSPost2010PropOp43
 70
     1
102
RTVSPost2010Prop44ColorIndex
 90
        5
102
RTVSPost2010Prop44ColorRGB
 90
      255
102
RTVSPost2010PropOp44
 70
     1
102
RTVSPost2010Prop45
280
     0
102
RTVSPost2010PropOp45
 70
     1
102
RTVSPost2010Prop46
 90
       50
102
RTVSPost2010PropOp46
 70
     1
102
RTVSPost2010Prop47
 90
       50
102
RTVSPost2010PropOp47
 70
     1
102
RTVSPost2010Prop48
 90
       50
102
RTVSPost2010PropOp48
 70
     1
102
RTVSPost2010Prop49
280
     0
102
RTVSPost2010PropOp49
 70
     1
102
RTVSPost2010Prop50
 90
       50
102
RTVSPost2010PropOp50
 70
     1
102
RTVSPost2010Prop51ColorIndex
 90
      256
102
RTVSPost2010Prop51ColorRGB
 90
-16777216
102
RTVSPost2010PropOp51
 70
     0
102
RTVSPost2010Prop52
140
1.0
102
RTVSPost2010PropOp52
 70
     0
102
RTVSPost2010Prop53
 90
        2
102
RTVSPost2010PropOp53
 70
     1
102
RTVSPost2010Prop54
  1
strokes_ogs.tif
102
RTVSPost2010PropOp54
 70
     1
102
RTVSPost2010Prop55
280
     0
102
RTVSPost2010PropOp55
 70
     1
102
RTVSPost2010Prop56
140
1.0
102
RTVSPost2010PropOp56
 70
     1
102
RTVSPost2010Prop57
140
1.0
102
RTVSPost2010PropOp57
 70
     1
  0
XRECORD
  5
2B0E8
102
{ACAD_REACTORS
330
2B0E7
102
}
330
2B0E7
100
AcDbXrecord
280
     1
102
RTVSPost2010Prop28
280
     0
102
RTVSPost2010PropOp28
 70
     1
102
RTVSPost2010Prop29
280
     1
102
RTVSPost2010PropOp29
 70
     1
102
RTVSPost2010Prop30
280
     1
102
RTVSPost2010PropOp30
 70
     1
102
RTVSPost2010Prop31
280
     0
102
RTVSPost2010PropOp31
 70
     1
102
RTVSPost2010Prop32
280
     0
102
RTVSPost2010PropOp32
 70
     1
102
RTVSPost2010Prop33
280
     0
102
RTVSPost2010PropOp33
 70
     1
102
RTVSPost2010Prop34
280
     0
102
RTVSPost2010PropOp34
 70
     1
102
RTVSPost2010Prop35
280
     0
102
RTVSPost2010PropOp35
 70
     1
102
RTVSPost2010Prop36
280
     0
102
RTVSPost2010PropOp36
 70
     1
102
RTVSPost2010Prop37
 90
       50
102
RTVSPost2010PropOp37
 70
     1
102
RTVSPost2010Prop38
140
0.0
102
RTVSPost2010PropOp38
 70
     1
102
RTVSPost2010Prop39
140
1.0
102
RTVSPost2010PropOp39
 70
     1
102
RTVSPost2010Prop40
 90
        0
102
RTVSPost2010PropOp40
 70
     1
102
RTVSPost2010Prop41ColorIndex
 90
       18
102
RTVSPost2010Prop41ColorRGB
 90
        0
102
RTVSPost2010PropOp41
 70
     1
102
RTVSPost2010Prop42
 90
       50
102
RTVSPost2010PropOp42
 70
     1
102
RTVSPost2010Prop43
 90
        3
102
RTVSPost2010PropOp43
 70
     1
102
RTVSPost2010Prop44ColorIndex
 90
        5
102
RTVSPost2010Prop44ColorRGB
 90
      255
102
RTVSPost2010PropOp44
 70
     1
102
RTVSPost2010Prop45
280
     0
102
RTVSPost2010PropOp45
 70
     1
102
RTVSPost2010Prop46
 90
       50
102
RTVSPost2010PropOp46
 70
     1
102
RTVSPost2010Prop47
 90
       50
102
RTVSPost2010PropOp47
 70
     1
102
RTVSPost2010Prop48
 90
       50
102
RTVSPost2010PropOp48
 70
     1
102
RTVSPost2010Prop49
280
     0
102
RTVSPost2010PropOp49
 70
     1
102
RTVSPost2010Prop50
 90
       50
102
RTVSPost2010PropOp50
 70
     1
102
RTVSPost2010Prop51ColorIndex
 90
      256
102
RTVSPost2010Prop51ColorRGB
 90
-16777216
102
RTVSPost2010PropOp51
 70
     0
102
RTVSPost2010Prop52
140
1.0
102
RTVSPost2010PropOp52
 70
     0
102
RTVSPost2010Prop53
 90
        2
102
RTVSPost2010PropOp53
 70
     1
102
RTVSPost2010Prop54
  1
strokes_ogs.tif
102
RTVSPost2010PropOp54
 70
     1
102
RTVSPost2010Prop55
280
     0
102
RTVSPost2010PropOp55
 70
     1
102
RTVSPost2010Prop56
140
1.0
102
RTVSPost2010PropOp56
 70
     1
102
RTVSPost2010Prop57
140
1.0
102
RTVSPost2010PropOp57
 70
     1
  0
XRECORD
  5
2B0E6
102
{ACAD_REACTORS
330
2B0E5
102
}
330
2B0E5
100
AcDbXrecord
280
     1
102
RTVSPost2010Prop28
280
     0
102
RTVSPost2010PropOp28
 70
     1
102
RTVSPost2010Prop29
280
     1
102
RTVSPost2010PropOp29
 70
     1
102
RTVSPost2010Prop30
280
     1
102
RTVSPost2010PropOp30
 70
     1
102
RTVSPost2010Prop31
280
     0
102
RTVSPost2010PropOp31
 70
     1
102
RTVSPost2010Prop32
280
     0
102
RTVSPost2010PropOp32
 70
     1
102
RTVSPost2010Prop33
280
     0
102
RTVSPost2010PropOp33
 70
     1
102
RTVSPost2010Prop34
280
     0
102
RTVSPost2010PropOp34
 70
     1
102
RTVSPost2010Prop35
280
     0
102
RTVSPost2010PropOp35
 70
     1
102
RTVSPost2010Prop36
280
     0
102
RTVSPost2010PropOp36
 70
     1
102
RTVSPost2010Prop37
 90
       50
102
RTVSPost2010PropOp37
 70
     1
102
RTVSPost2010Prop38
140
0.0
102
RTVSPost2010PropOp38
 70
     1
102
RTVSPost2010Prop39
140
1.0
102
RTVSPost2010PropOp39
 70
     1
102
RTVSPost2010Prop40
 90
        0
102
RTVSPost2010PropOp40
 70
     1
102
RTVSPost2010Prop41ColorIndex
 90
       18
102
RTVSPost2010Prop41ColorRGB
 90
        0
102
RTVSPost2010PropOp41
 70
     1
102
RTVSPost2010Prop42
 90
       50
102
RTVSPost2010PropOp42
 70
     1
102
RTVSPost2010Prop43
 90
        3
102
RTVSPost2010PropOp43
 70
     1
102
RTVSPost2010Prop44ColorIndex
 90
        5
102
RTVSPost2010Prop44ColorRGB
 90
      255
102
RTVSPost2010PropOp44
 70
     1
102
RTVSPost2010Prop45
280
     0
102
RTVSPost2010PropOp45
 70
     1
102
RTVSPost2010Prop46
 90
       50
102
RTVSPost2010PropOp46
 70
     1
102
RTVSPost2010Prop47
 90
       50
102
RTVSPost2010PropOp47
 70
     1
102
RTVSPost2010Prop48
 90
       50
102
RTVSPost2010PropOp48
 70
     1
102
RTVSPost2010Prop49
280
     0
102
RTVSPost2010PropOp49
 70
     1
102
RTVSPost2010Prop50
 90
       50
102
RTVSPost2010PropOp50
 70
     1
102
RTVSPost2010Prop51ColorIndex
 90
      256
102
RTVSPost2010Prop51ColorRGB
 90
-16777216
102
RTVSPost2010PropOp51
 70
     0
102
RTVSPost2010Prop52
140
1.0
102
RTVSPost2010PropOp52
 70
     0
102
RTVSPost2010Prop53
 90
        2
102
RTVSPost2010PropOp53
 70
     1
102
RTVSPost2010Prop54
  1
strokes_ogs.tif
102
RTVSPost2010PropOp54
 70
     1
102
RTVSPost2010Prop55
280
     0
102
RTVSPost2010PropOp55
 70
     1
102
RTVSPost2010Prop56
140
1.0
102
RTVSPost2010PropOp56
 70
     1
102
RTVSPost2010Prop57
140
1.0
102
RTVSPost2010PropOp57
 70
     1
  0
XRECORD
  5
2B0E0
102
{ACAD_REACTORS
330
2B0DF
102
}
330
2B0DF
100
AcDbXrecord
280
     1
102
RTVSPost2010Prop28
280
     0
102
RTVSPost2010PropOp28
 70
     1
102
RTVSPost2010Prop29
280
     1
102
RTVSPost2010PropOp29
 70
     1
102
RTVSPost2010Prop30
280
     1
102
RTVSPost2010PropOp30
 70
     1
102
RTVSPost2010Prop31
280
     0
102
RTVSPost2010PropOp31
 70
     1
102
RTVSPost2010Prop32
280
     0
102
RTVSPost2010PropOp32
 70
     1
102
RTVSPost2010Prop33
280
     0
102
RTVSPost2010PropOp33
 70
     1
102
RTVSPost2010Prop34
280
     0
102
RTVSPost2010PropOp34
 70
     1
102
RTVSPost2010Prop35
280
     0
102
RTVSPost2010PropOp35
 70
     1
102
RTVSPost2010Prop36
280
     0
102
RTVSPost2010PropOp36
 70
     1
102
RTVSPost2010Prop37
 90
       50
102
RTVSPost2010PropOp37
 70
     1
102
RTVSPost2010Prop38
140
0.0
102
RTVSPost2010PropOp38
 70
     1
102
RTVSPost2010Prop39
140
1.0
102
RTVSPost2010PropOp39
 70
     1
102
RTVSPost2010Prop40
 90
        0
102
RTVSPost2010PropOp40
 70
     1
102
RTVSPost2010Prop41ColorIndex
 90
       18
102
RTVSPost2010Prop41ColorRGB
 90
        0
102
RTVSPost2010PropOp41
 70
     1
102
RTVSPost2010Prop42
 90
       50
102
RTVSPost2010PropOp42
 70
     1
102
RTVSPost2010Prop43
 90
        3
102
RTVSPost2010PropOp43
 70
     1
102
RTVSPost2010Prop44ColorIndex
 90
        5
102
RTVSPost2010Prop44ColorRGB
 90
      255
102
RTVSPost2010PropOp44
 70
     1
102
RTVSPost2010Prop45
280
     0
102
RTVSPost2010PropOp45
 70
     1
102
RTVSPost2010Prop46
 90
       50
102
RTVSPost2010PropOp46
 70
     1
102
RTVSPost2010Prop47
 90
       50
102
RTVSPost2010PropOp47
 70
     1
102
RTVSPost2010Prop48
 90
       50
102
RTVSPost2010PropOp48
 70
     1
102
RTVSPost2010Prop49
280
     0
102
RTVSPost2010PropOp49
 70
     1
102
RTVSPost2010Prop50
 90
       50
102
RTVSPost2010PropOp50
 70
     1
102
RTVSPost2010Prop51ColorIndex
 90
      256
102
RTVSPost2010Prop51ColorRGB
 90
-16777216
102
RTVSPost2010PropOp51
 70
     0
102
RTVSPost2010Prop52
140
1.0
102
RTVSPost2010PropOp52
 70
     0
102
RTVSPost2010Prop53
 90
        2
102
RTVSPost2010PropOp53
 70
     1
102
RTVSPost2010Prop54
  1
strokes_ogs.tif
102
RTVSPost2010PropOp54
 70
     1
102
RTVSPost2010Prop55
280
     0
102
RTVSPost2010PropOp55
 70
     1
102
RTVSPost2010Prop56
140
1.0
102
RTVSPost2010PropOp56
 70
     1
102
RTVSPost2010Prop57
140
1.0
102
RTVSPost2010PropOp57
 70
     1
  0
XRECORD
  5
2B0E2
102
{ACAD_REACTORS
330
2B0E1
102
}
330
2B0E1
100
AcDbXrecord
280
     1
102
RTVSPost2010Prop28
280
     0
102
RTVSPost2010PropOp28
 70
     1
102
RTVSPost2010Prop29
280
     1
102
RTVSPost2010PropOp29
 70
     1
102
RTVSPost2010Prop30
280
     1
102
RTVSPost2010PropOp30
 70
     1
102
RTVSPost2010Prop31
280
     0
102
RTVSPost2010PropOp31
 70
     1
102
RTVSPost2010Prop32
280
     0
102
RTVSPost2010PropOp32
 70
     1
102
RTVSPost2010Prop33
280
     0
102
RTVSPost2010PropOp33
 70
     1
102
RTVSPost2010Prop34
280
     0
102
RTVSPost2010PropOp34
 70
     1
102
RTVSPost2010Prop35
280
     0
102
RTVSPost2010PropOp35
 70
     1
102
RTVSPost2010Prop36
280
     0
102
RTVSPost2010PropOp36
 70
     1
102
RTVSPost2010Prop37
 90
       50
102
RTVSPost2010PropOp37
 70
     1
102
RTVSPost2010Prop38
140
0.0
102
RTVSPost2010PropOp38
 70
     1
102
RTVSPost2010Prop39
140
1.0
102
RTVSPost2010PropOp39
 70
     1
102
RTVSPost2010Prop40
 90
        0
102
RTVSPost2010PropOp40
 70
     1
102
RTVSPost2010Prop41ColorIndex
 90
       18
102
RTVSPost2010Prop41ColorRGB
 90
        0
102
RTVSPost2010PropOp41
 70
     1
102
RTVSPost2010Prop42
 90
       50
102
RTVSPost2010PropOp42
 70
     1
102
RTVSPost2010Prop43
 90
        3
102
RTVSPost2010PropOp43
 70
     1
102
RTVSPost2010Prop44ColorIndex
 90
        5
102
RTVSPost2010Prop44ColorRGB
 90
      255
102
RTVSPost2010PropOp44
 70
     1
102
RTVSPost2010Prop45
280
     0
102
RTVSPost2010PropOp45
 70
     1
102
RTVSPost2010Prop46
 90
       50
102
RTVSPost2010PropOp46
 70
     1
102
RTVSPost2010Prop47
 90
       50
102
RTVSPost2010PropOp47
 70
     1
102
RTVSPost2010Prop48
 90
       50
102
RTVSPost2010PropOp48
 70
     1
102
RTVSPost2010Prop49
280
     0
102
RTVSPost2010PropOp49
 70
     1
102
RTVSPost2010Prop50
 90
       50
102
RTVSPost2010PropOp50
 70
     1
102
RTVSPost2010Prop51ColorIndex
 90
      256
102
RTVSPost2010Prop51ColorRGB
 90
-16777216
102
RTVSPost2010PropOp51
 70
     0
102
RTVSPost2010Prop52
140
1.0
102
RTVSPost2010PropOp52
 70
     0
102
RTVSPost2010Prop53
 90
        2
102
RTVSPost2010PropOp53
 70
     1
102
RTVSPost2010Prop54
  1
strokes_ogs.tif
102
RTVSPost2010PropOp54
 70
     1
102
RTVSPost2010Prop55
280
     0
102
RTVSPost2010PropOp55
 70
     1
102
RTVSPost2010Prop56
140
1.0
102
RTVSPost2010PropOp56
 70
     1
102
RTVSPost2010Prop57
140
1.0
102
RTVSPost2010PropOp57
 70
     1
  0
XRECORD
  5
2B0CE
102
{ACAD_REACTORS
330
2B0CD
102
}
330
2B0CD
100
AcDbXrecord
280
     1
102
RTVSPost2010Prop28
280
     0
102
RTVSPost2010PropOp28
 70
     1
102
RTVSPost2010Prop29
280
     1
102
RTVSPost2010PropOp29
 70
     1
102
RTVSPost2010Prop30
280
     1
102
RTVSPost2010PropOp30
 70
     1
102
RTVSPost2010Prop31
280
     0
102
RTVSPost2010PropOp31
 70
     1
102
RTVSPost2010Prop32
280
     0
102
RTVSPost2010PropOp32
 70
     1
102
RTVSPost2010Prop33
280
     0
102
RTVSPost2010PropOp33
 70
     1
102
RTVSPost2010Prop34
280
     0
102
RTVSPost2010PropOp34
 70
     1
102
RTVSPost2010Prop35
280
     0
102
RTVSPost2010PropOp35
 70
     1
102
RTVSPost2010Prop36
280
     0
102
RTVSPost2010PropOp36
 70
     1
102
RTVSPost2010Prop37
 90
       50
102
RTVSPost2010PropOp37
 70
     1
102
RTVSPost2010Prop38
140
0.0
102
RTVSPost2010PropOp38
 70
     1
102
RTVSPost2010Prop39
140
1.0
102
RTVSPost2010PropOp39
 70
     1
102
RTVSPost2010Prop40
 90
        0
102
RTVSPost2010PropOp40
 70
     1
102
RTVSPost2010Prop41ColorIndex
 90
       18
102
RTVSPost2010Prop41ColorRGB
 90
        0
102
RTVSPost2010PropOp41
 70
     1
102
RTVSPost2010Prop42
 90
       50
102
RTVSPost2010PropOp42
 70
     1
102
RTVSPost2010Prop43
 90
        3
102
RTVSPost2010PropOp43
 70
     1
102
RTVSPost2010Prop44ColorIndex
 90
        5
102
RTVSPost2010Prop44ColorRGB
 90
      255
102
RTVSPost2010PropOp44
 70
     1
102
RTVSPost2010Prop45
280
     0
102
RTVSPost2010PropOp45
 70
     1
102
RTVSPost2010Prop46
 90
       50
102
RTVSPost2010PropOp46
 70
     1
102
RTVSPost2010Prop47
 90
       50
102
RTVSPost2010PropOp47
 70
     1
102
RTVSPost2010Prop48
 90
       50
102
RTVSPost2010PropOp48
 70
     1
102
RTVSPost2010Prop49
280
     0
102
RTVSPost2010PropOp49
 70
     1
102
RTVSPost2010Prop50
 90
       50
102
RTVSPost2010PropOp50
 70
     1
102
RTVSPost2010Prop51ColorIndex
 90
      256
102
RTVSPost2010Prop51ColorRGB
 90
-16777216
102
RTVSPost2010PropOp51
 70
     0
102
RTVSPost2010Prop52
140
1.0
102
RTVSPost2010PropOp52
 70
     0
102
RTVSPost2010Prop53
 90
        2
102
RTVSPost2010PropOp53
 70
     1
102
RTVSPost2010Prop54
  1
strokes_ogs.tif
102
RTVSPost2010PropOp54
 70
     1
102
RTVSPost2010Prop55
280
     0
102
RTVSPost2010PropOp55
 70
     1
102
RTVSPost2010Prop56
140
1.0
102
RTVSPost2010PropOp56
 70
     1
102
RTVSPost2010Prop57
140
1.0
102
RTVSPost2010PropOp57
 70
     1
  0
XRECORD
  5
2B0DC
102
{ACAD_REACTORS
330
2B0DB
102
}
330
2B0DB
100
AcDbXrecord
280
     1
102
RTVSPost2010Prop28
280
     0
102
RTVSPost2010PropOp28
 70
     1
102
RTVSPost2010Prop29
280
     1
102
RTVSPost2010PropOp29
 70
     1
102
RTVSPost2010Prop30
280
     1
102
RTVSPost2010PropOp30
 70
     1
102
RTVSPost2010Prop31
280
     0
102
RTVSPost2010PropOp31
 70
     1
102
RTVSPost2010Prop32
280
     0
102
RTVSPost2010PropOp32
 70
     1
102
RTVSPost2010Prop33
280
     0
102
RTVSPost2010PropOp33
 70
     1
102
RTVSPost2010Prop34
280
     0
102
RTVSPost2010PropOp34
 70
     1
102
RTVSPost2010Prop35
280
     0
102
RTVSPost2010PropOp35
 70
     1
102
RTVSPost2010Prop36
280
     0
102
RTVSPost2010PropOp36
 70
     1
102
RTVSPost2010Prop37
 90
       50
102
RTVSPost2010PropOp37
 70
     1
102
RTVSPost2010Prop38
140
0.0
102
RTVSPost2010PropOp38
 70
     1
102
RTVSPost2010Prop39
140
1.0
102
RTVSPost2010PropOp39
 70
     1
102
RTVSPost2010Prop40
 90
        0
102
RTVSPost2010PropOp40
 70
     1
102
RTVSPost2010Prop41ColorIndex
 90
       18
102
RTVSPost2010Prop41ColorRGB
 90
        0
102
RTVSPost2010PropOp41
 70
     1
102
RTVSPost2010Prop42
 90
       50
102
RTVSPost2010PropOp42
 70
     1
102
RTVSPost2010Prop43
 90
        3
102
RTVSPost2010PropOp43
 70
     1
102
RTVSPost2010Prop44ColorIndex
 90
        5
102
RTVSPost2010Prop44ColorRGB
 90
      255
102
RTVSPost2010PropOp44
 70
     1
102
RTVSPost2010Prop45
280
     0
102
RTVSPost2010PropOp45
 70
     1
102
RTVSPost2010Prop46
 90
       50
102
RTVSPost2010PropOp46
 70
     1
102
RTVSPost2010Prop47
 90
       50
102
RTVSPost2010PropOp47
 70
     1
102
RTVSPost2010Prop48
 90
       50
102
RTVSPost2010PropOp48
 70
     1
102
RTVSPost2010Prop49
280
     0
102
RTVSPost2010PropOp49
 70
     1
102
RTVSPost2010Prop50
 90
       50
102
RTVSPost2010PropOp50
 70
     1
102
RTVSPost2010Prop51ColorIndex
 90
      256
102
RTVSPost2010Prop51ColorRGB
 90
-16777216
102
RTVSPost2010PropOp51
 70
     0
102
RTVSPost2010Prop52
140
1.0
102
RTVSPost2010PropOp52
 70
     0
102
RTVSPost2010Prop53
 90
        2
102
RTVSPost2010PropOp53
 70
     1
102
RTVSPost2010Prop54
  1
strokes_ogs.tif
102
RTVSPost2010PropOp54
 70
     1
102
RTVSPost2010Prop55
280
     0
102
RTVSPost2010PropOp55
 70
     1
102
RTVSPost2010Prop56
140
1.0
102
RTVSPost2010PropOp56
 70
     1
102
RTVSPost2010Prop57
140
1.0
102
RTVSPost2010PropOp57
 70
     1
  0
XRECORD
  5
2B0E4
102
{ACAD_REACTORS
330
2B0E3
102
}
330
2B0E3
100
AcDbXrecord
280
     1
102
RTVSPost2010Prop28
280
     0
102
RTVSPost2010PropOp28
 70
     1
102
RTVSPost2010Prop29
280
     1
102
RTVSPost2010PropOp29
 70
     1
102
RTVSPost2010Prop30
280
     1
102
RTVSPost2010PropOp30
 70
     1
102
RTVSPost2010Prop31
280
     0
102
RTVSPost2010PropOp31
 70
     1
102
RTVSPost2010Prop32
280
     0
102
RTVSPost2010PropOp32
 70
     1
102
RTVSPost2010Prop33
280
     0
102
RTVSPost2010PropOp33
 70
     1
102
RTVSPost2010Prop34
280
     0
102
RTVSPost2010PropOp34
 70
     1
102
RTVSPost2010Prop35
280
     0
102
RTVSPost2010PropOp35
 70
     1
102
RTVSPost2010Prop36
280
     0
102
RTVSPost2010PropOp36
 70
     1
102
RTVSPost2010Prop37
 90
       50
102
RTVSPost2010PropOp37
 70
     1
102
RTVSPost2010Prop38
140
0.0
102
RTVSPost2010PropOp38
 70
     1
102
RTVSPost2010Prop39
140
1.0
102
RTVSPost2010PropOp39
 70
     1
102
RTVSPost2010Prop40
 90
        0
102
RTVSPost2010PropOp40
 70
     1
102
RTVSPost2010Prop41ColorIndex
 90
       18
102
RTVSPost2010Prop41ColorRGB
 90
        0
102
RTVSPost2010PropOp41
 70
     1
102
RTVSPost2010Prop42
 90
       50
102
RTVSPost2010PropOp42
 70
     1
102
RTVSPost2010Prop43
 90
        3
102
RTVSPost2010PropOp43
 70
     1
102
RTVSPost2010Prop44ColorIndex
 90
        5
102
RTVSPost2010Prop44ColorRGB
 90
      255
102
RTVSPost2010PropOp44
 70
     1
102
RTVSPost2010Prop45
280
     0
102
RTVSPost2010PropOp45
 70
     1
102
RTVSPost2010Prop46
 90
       50
102
RTVSPost2010PropOp46
 70
     1
102
RTVSPost2010Prop47
 90
       50
102
RTVSPost2010PropOp47
 70
     1
102
RTVSPost2010Prop48
 90
       50
102
RTVSPost2010PropOp48
 70
     1
102
RTVSPost2010Prop49
280
     0
102
RTVSPost2010PropOp49
 70
     1
102
RTVSPost2010Prop50
 90
       50
102
RTVSPost2010PropOp50
 70
     1
102
RTVSPost2010Prop51ColorIndex
 90
      256
102
RTVSPost2010Prop51ColorRGB
 90
-16777216
102
RTVSPost2010PropOp51
 70
     0
102
RTVSPost2010Prop52
140
1.0
102
RTVSPost2010PropOp52
 70
     0
102
RTVSPost2010Prop53
 90
        2
102
RTVSPost2010PropOp53
 70
     1
102
RTVSPost2010Prop54
  1
strokes_ogs.tif
102
RTVSPost2010PropOp54
 70
     1
102
RTVSPost2010Prop55
280
     0
102
RTVSPost2010PropOp55
 70
     1
102
RTVSPost2010Prop56
140
1.0
102
RTVSPost2010PropOp56
 70
     1
102
RTVSPost2010Prop57
140
1.0
102
RTVSPost2010PropOp57
 70
     1
  0
ENDSEC
  0
EOF
