  0
SECTION
  2
HEADER
  9
$ACADVER
  1
AC1024
  9
$ACADMAINTVER
 70
   226
  9
$DWGCODEPAGE
  3
ANSI_1252
  9
$LASTSAVEDBY
  1
User
  9
$INSBASE
 10
0.0
 20
0.0
 30
0.0
  9
$EXTMIN
 10
528.6733507783751
 20
14.05856554646698
 30
-0.0015258207003583
  9
$EXTMAX
 10
623.5902084901433
 20
136.7897260427347
 30
0.0000000349246037
  9
$LIMMIN
 10
-4.44220704448719
 20
-5.360222120439658
  9
$LIMMAX
 10
91.39604570949506
 20
115.4637810443593
  9
$ORTHOMODE
 70
     0
  9
$REGENMODE
 70
     1
  9
$FILLMODE
 70
     1
  9
$QTEXTMODE
 70
     0
  9
$MIRRTEXT
 70
     0
  9
$LTSCALE
 40
1.0
  9
$ATTMODE
 70
     1
  9
$TEXTSIZE
 40
1.0
  9
$TRACEWID
 40
0.05
  9
$TEXTSTYLE
  7
Logix
  9
$CLAYER
  8
Dim
  9
$CELTYPE
  6
ByLayer
  9
$CECOLOR
 62
   256
  9
$CELTSCALE
 40
1.0
  9
$DISPSILH
 70
     0
  9
$DIMSCALE
 40
1.0
  9
$DIMASZ
 40
0.75
  9
$DIMEXO
 40
0.5
  9
$DIMDLI
 40
0.38
  9
$DIMRND
 40
0.0
  9
$DIMDLE
 40
0.0
  9
$DIMEXE
 40
0.5
  9
$DIMTP
 40
0.0
  9
$DIMTM
 40
0.0
  9
$DIMTXT
 40
0.75
  9
$DIMCEN
 40
0.5
  9
$DIMTSZ
 40
0.0
  9
$DIMTOL
 70
     0
  9
$DIMLIM
 70
     0
  9
$DIMTIH
 70
     0
  9
$DIMTOH
 70
     1
  9
$DIMSE1
 70
     0
  9
$DIMSE2
 70
     0
  9
$DIMTAD
 70
     0
  9
$DIMZIN
 70
     0
  9
$DIMBLK
  1
ArchTick
  9
$DIMASO
 70
     1
  9
$DIMSHO
 70
     1
  9
$DIMPOST
  1
"\X
  9
$DIMAPOST
  1
mm
  9
$DIMALT
 70
     0
  9
$DIMALTD
 70
     0
  9
$DIMALTF
 40
25.4
  9
$DIMLFAC
 40
1.0
  9
$DIMTOFL
 70
     0
  9
$DIMTVP
 40
0.0
  9
$DIMTIX
 70
     0
  9
$DIMSOXD
 70
     0
  9
$DIMSAH
 70
     0
  9
$DIMBLK1
  1

  9
$DIMBLK2
  1

  9
$DIMSTYLE
  2
FBR
  9
$DIMCLRD
 70
     0
  9
$DIMCLRE
 70
     0
  9
$DIMCLRT
 70
     0
  9
$DIMTFAC
 40
1.0
  9
$DIMGAP
 40
0.09
  9
$DIMJUST
 70
     0
  9
$DIMSD1
 70
     0
  9
$DIMSD2
 70
     0
  9
$DIMTOLJ
 70
     1
  9
$DIMTZIN
 70
     0
  9
$DIMALTZ
 70
     0
  9
$DIMALTTZ
 70
     0
  9
$DIMUPT
 70
     0
  9
$DIMDEC
 70
     4
  9
$DIMTDEC
 70
     4
  9
$DIMALTU
 70
     2
  9
$DIMALTTD
 70
     0
  9
$DIMTXSTY
  7
Logix
  9
$DIMAUNIT
 70
     0
  9
$DIMADEC
 70
     0
  9
$DIMALTRND
 40
0.0
  9
$DIMAZIN
 70
     0
  9
$DIMDSEP
 70
    46
  9
$DIMATFIT
 70
     3
  9
$DIMFRAC
 70
     0
  9
$DIMLDRBLK
  1

  9
$DIMLUNIT
 70
     5
  9
$DIMLWD
 70
    -2
  9
$DIMLWE
 70
    -2
  9
$DIMTMOVE
 70
     0
  9
$DIMFXL
 40
0.5
  9
$DIMFXLON
 70
     0
  9
$DIMJOGANG
 40
0.7853981633974483
  9
$DIMTFILL
 70
     0
  9
$DIMTFILLCLR
 70
     0
  9
$DIMARCSYM
 70
     0
  9
$DIMLTYPE
  6

  9
$DIMLTEX1
  6

  9
$DIMLTEX2
  6

  9
$DIMTXTDIRECTION
 70
     0
  9
$LUNITS
 70
     2
  9
$LUPREC
 70
     4
  9
$SKETCHINC
 40
0.1
  9
$FILLETRAD
 40
0.0
  9
$AUNITS
 70
     0
  9
$AUPREC
 70
     0
  9
$MENU
  1
.
  9
$ELEVATION
 40
0.0
  9
$PELEVATION
 40
0.0
  9
$THICKNESS
 40
0.0
  9
$LIMCHECK
 70
     0
  9
$CHAMFERA
 40
0.0
  9
$CHAMFERB
 40
0.0
  9
$CHAMFERC
 40
0.0
  9
$CHAMFERD
 40
0.0
  9
$SKPOLY
 70
     0
  9
$TDCREATE
 40
2453607.697627315
  9
$TDUCREATE
 40
2453607.989301563
  9
$TDUPDATE
 40
2459662.958993055
  9
$TDUUPDATE
 40
2459663.250659723
  9
$TDINDWG
 40
8.6658361690
  9
$TDUSRTIMER
 40
8.6658361690
  9
$USRTIMER
 70
     1
  9
$ANGBASE
 50
0.0
  9
$ANGDIR
 70
     0
  9
$PDMODE
 70
     0
  9
$PDSIZE
 40
0.0
  9
$PLINEWID
 40
0.1
  9
$SPLFRAME
 70
     0
  9
$SPLINETYPE
 70
     6
  9
$SPLINESEGS
 70
     8
  9
$HANDSEED
  5
1951F
  9
$SURFTAB1
 70
     6
  9
$SURFTAB2
 70
     6
  9
$SURFTYPE
 70
     6
  9
$SURFU
 70
     6
  9
$SURFV
 70
     6
  9
$UCSBASE
  2

  9
$UCSNAME
  2

  9
$UCSORG
 10
0.0
 20
0.0
 30
0.0
  9
$UCSXDIR
 10
1.0
 20
0.0
 30
0.0
  9
$UCSYDIR
 10
0.0
 20
1.0
 30
0.0
  9
$UCSORTHOREF
  2

  9
$UCSORTHOVIEW
 70
     0
  9
$UCSORGTOP
 10
0.0
 20
0.0
 30
0.0
  9
$UCSORGBOTTOM
 10
0.0
 20
0.0
 30
0.0
  9
$UCSORGLEFT
 10
0.0
 20
0.0
 30
0.0
  9
$UCSORGRIGHT
 10
0.0
 20
0.0
 30
0.0
  9
$UCSORGFRONT
 10
0.0
 20
0.0
 30
0.0
  9
$UCSORGBACK
 10
0.0
 20
0.0
 30
0.0
  9
$PUCSBASE
  2

  9
$PUCSNAME
  2

  9
$PUCSORG
 10
0.0
 20
0.0
 30
0.0
  9
$PUCSXDIR
 10
1.0
 20
0.0
 30
0.0
  9
$PUCSYDIR
 10
0.0
 20
1.0
 30
0.0
  9
$PUCSORTHOREF
  2

  9
$PUCSORTHOVIEW
 70
     0
  9
$PUCSORGTOP
 10
0.0
 20
0.0
 30
0.0
  9
$PUCSORGBOTTOM
 10
0.0
 20
0.0
 30
0.0
  9
$PUCSORGLEFT
 10
0.0
 20
0.0
 30
0.0
  9
$PUCSORGRIGHT
 10
0.0
 20
0.0
 30
0.0
  9
$PUCSORGFRONT
 10
0.0
 20
0.0
 30
0.0
  9
$PUCSORGBACK
 10
0.0
 20
0.0
 30
0.0
  9
$USERI1
 70
     0
  9
$USERI2
 70
     0
  9
$USERI3
 70
     0
  9
$USERI4
 70
     0
  9
$USERI5
 70
     0
  9
$USERR1
 40
0.0
  9
$USERR2
 40
0.0
  9
$USERR3
 40
0.0
  9
$USERR4
 40
0.0
  9
$USERR5
 40
0.0
  9
$WORLDVIEW
 70
     1
  9
$SHADEDGE
 70
     3
  9
$SHADEDIF
 70
    70
  9
$TILEMODE
 70
     1
  9
$MAXACTVP
 70
    64
  9
$PINSBASE
 10
0.0
 20
0.0
 30
0.0
  9
$PLIMCHECK
 70
     0
  9
$PEXTMIN
 10
1.049999952316284
 20
0.7999999523162842
 30
0.0
  9
$PEXTMAX
 10
9.449999570846555
 20
7.199999570846556
 30
0.0
  9
$PLIMMIN
 10
-0.2500002402958907
 20
-0.2499999962453767
  9
$PLIMMAX
 10
10.74999951940821
 20
8.249999763458731
  9
$UNITMODE
 70
     0
  9
$VISRETAIN
 70
     1
  9
$PLINEGEN
 70
     0
  9
$PSLTSCALE
 70
     1
  9
$TREEDEPTH
 70
  3020
  9
$CMLSTYLE
  2
Standard
  9
$CMLJUST
 70
     0
  9
$CMLSCALE
 40
1.0
  9
$PROXYGRAPHICS
 70
     1
  9
$MEASUREMENT
 70
     0
  9
$CELWEIGHT
370
    -1
  9
$ENDCAPS
280
     0
  9
$JOINSTYLE
280
     0
  9
$LWDISPLAY
290
     0
  9
$INSUNITS
 70
     1
  9
$HYPERLINKBASE
  1

  9
$STYLESHEET
  1
acad.ctb
  9
$XEDIT
290
     1
  9
$CEPSNTYPE
380
     0
  9
$PSTYLEMODE
290
     1
  9
$FINGERPRINTGUID
  2
{C454CA31-2497-4A48-9A62-B3C3862ED870}
  9
$VERSIONGUID
  2
{6401FCD2-2AC4-C84A-A9BB-8B71D96C2FB2}
  9
$EXTNAMES
290
     1
  9
$PSVPSCALE
 40
0.0
  9
$OLESTARTUP
290
     0
  9
$SORTENTS
280
   127
  9
$INDEXCTL
280
     0
  9
$HIDETEXT
280
     1
  9
$XCLIPFRAME
280
     2
  9
$HALOGAP
280
     0
  9
$OBSCOLOR
 70
   257
  9
$OBSLTYPE
280
     0
  9
$INTERSECTIONDISPLAY
280
     0
  9
$INTERSECTIONCOLOR
 70
   257
  9
$DIMASSOC
280
     2
  9
$PROJECTNAME
  1

  9
$CAMERADISPLAY
290
     0
  9
$LENSLENGTH
 40
50.0
  9
$CAMERAHEIGHT
 40
0.0
  9
$STEPSPERSEC
 40
2.0
  9
$STEPSIZE
 40
6.0
  9
$3DDWFPREC
 40
2.0
  9
$PSOLWIDTH
 40
0.25
  9
$PSOLHEIGHT
 40
4.0
  9
$LOFTANG1
 40
1.570796326794896
  9
$LOFTANG2
 40
1.570796326794896
  9
$LOFTMAG1
 40
0.0
  9
$LOFTMAG2
 40
0.0
  9
$LOFTPARAM
 70
     7
  9
$LOFTNORMALS
280
     1
  9
$LATITUDE
 40
37.795
  9
$LONGITUDE
 40
-122.394
  9
$NORTHDIRECTION
 40
0.0
  9
$TIMEZONE
 70
 -8000
  9
$LIGHTGLYPHDISPLAY
280
     1
  9
$TILEMODELIGHTSYNCH
280
     1
  9
$CMATERIAL
347
17554
  9
$SOLIDHIST
280
     1
  9
$SHOWHIST
280
     1
  9
$DWFFRAME
280
     2
  9
$DGNFRAME
280
     0
  9
$REALWORLDSCALE
290
     1
  9
$INTERFERECOLOR
 62
     1
  9
$INTERFEREOBJVS
345
17576
  9
$INTERFEREVPVS
346
19442
  9
$CSHADOW
280
     0
  9
$SHADOWPLANELOCATION
 40
0.0
  0
ENDSEC
  0
SECTION
  2
CLASSES
  0
CLASS
  1
ACDBDICTIONARYWDFLT
  2
AcDbDictionaryWithDefault
  3
ObjectDBX Classes
 90
        0
 91
        1
280
     0
281
     0
  0
CLASS
  1
DICTIONARYVAR
  2
AcDbDictionaryVar
  3
ObjectDBX Classes
 90
        0
 91
       14
280
     0
281
     0
  0
CLASS
  1
TABLESTYLE
  2
AcDbTableStyle
  3
ObjectDBX Classes
 90
     4095
 91
        3
280
     0
281
     0
  0
CLASS
  1
DIMASSOC
  2
AcDbDimAssoc
  3
"AcDbDimAssoc|Product Desc:     AcDim ARX App For Dimension|Company:          Autodesk, Inc.|WEB Address:      www.autodesk.com"
 90
        0
 91
        8
280
     0
281
     0
  0
CLASS
  1
SORTENTSTABLE
  2
AcDbSortentsTable
  3
ObjectDBX Classes
 90
        0
 91
        1
280
     0
281
     0
  0
CLASS
  1
ACAD_TABLE
  2
AcDbTable
  3
ObjectDBX Classes
 90
     1025
 91
        0
280
     0
281
     1
  0
CLASS
  1
FIELD
  2
AcDbField
  3
ObjectDBX Classes
 90
     1152
 91
        0
280
     0
281
     0
  0
CLASS
  1
FIELDLIST
  2
AcDbFieldList
  3
ObjectDBX Classes
 90
     1152
 91
        1
280
     0
281
     0
  0
CLASS
  1
MATERIAL
  2
AcDbMaterial
  3
ObjectDBX Classes
 90
     1153
 91
        3
280
     0
281
     0
  0
CLASS
  1
VISUALSTYLE
  2
AcDbVisualStyle
  3
ObjectDBX Classes
 90
     4095
 91
       26
280
     0
281
     0
  0
CLASS
  1
SCALE
  2
AcDbScale
  3
ObjectDBX Classes
 90
     1153
 91
       33
280
     0
281
     0
  0
CLASS
  1
MLEADERSTYLE
  2
AcDbMLeaderStyle
  3
ACDB_MLEADERSTYLE_CLASS
 90
     4095
 91
        1
280
     0
281
     0
  0
CLASS
  1
CELLSTYLEMAP
  2
AcDbCellStyleMap
  3
ObjectDBX Classes
 90
     1152
 91
        3
280
     0
281
     0
  0
CLASS
  1
DATATABLE
  2
AcDbDataTable
  3
ObjectDBX Classes
 90
        0
 91
        0
280
     0
281
     0
  0
CLASS
  1
MULTILEADER
  2
AcDbMLeader
  3
ACDB_MLEADER_CLASS
 90
     1025
 91
        6
280
     0
281
     1
  0
CLASS
  1
ACAD_EVALUATION_GRAPH
  2
AcDbEvalGraph
  3
ObjectDBX Classes
 90
     1153
 91
        0
280
     0
281
     0
  0
CLASS
  1
ACAECUSTOBJ
  2
AcAeEditorObj
  3
AcAeEditorObj
 90
     1024
 91
        0
280
     0
281
     0
  0
CLASS
  1
ACDB_DYNAMICBLOCKPURGEPREVENTER_VERSION
  2
AcDbDynamicBlockPurgePreventer
  3
ObjectDBX Classes
 90
     1153
 91
        0
280
     0
281
     0
  0
CLASS
  1
ACDBSECTIONVIEWSTYLE
  2
AcDbSectionViewStyle
  3
ObjectDBX Classes
 90
     1025
 91
        1
280
     0
281
     0
  0
CLASS
  1
ACDBDETAILVIEWSTYLE
  2
AcDbDetailViewStyle
  3
ObjectDBX Classes
 90
     1025
 91
        1
280
     0
281
     0
  0
CLASS
  1
ACDB_MTEXTOBJECTCONTEXTDATA_CLASS
  2
AcDbMTextObjectContextData
  3
ObjectDBX Classes
 90
     1153
 91
        1
280
     0
281
     0
  0
ENDSEC
  0
SECTION
  2
TABLES
  0
TABLE
  2
VPORT
  5
8
102
{ACAD_XDICTIONARY
360
192FB
102
}
330
0
100
AcDbSymbolTable
 70
     1
  0
VPORT
  5
17541
330
8
100
AcDbSymbolTableRecord
100
AcDbViewportTableRecord
  2
*Active
 70
     0
 10
0.0
 20
0.0
 11
1.0
 21
1.0
 12
576.1317796342592
 22
75.42414579460083
 13
0.0
 23
0.0
 14
0.5
 24
0.5
 15
0.5
 25
0.5
 16
0.0
 26
0.0
 36
1.0
 17
0.0
 27
0.0
 37
0.0
 40
97.38076728059558
 41
2.758293838862558
 42
50.0
 43
0.0
 44
0.0
 50
0.0
 51
0.0
 71
     0
 72
  1000
 73
     1
 74
     3
 75
     0
 76
     0
 77
     0
 78
     0
281
     0
 65
     1
110
0.0
120
0.0
130
0.0
111
1.0
121
0.0
131
0.0
112
0.0
122
1.0
132
0.0
 79
     0
146
0.0
348
17572
 60
     3
 61
     5
292
     1
282
     1
141
0.0
142
0.0
 63
   250
421
  3355443
1001
ACAD_NAV_VCDISPLAY
1070
     3
  0
ENDTAB
  0
TABLE
  2
LTYPE
  5
5
330
0
100
AcDbSymbolTable
 70
     3
  0
LTYPE
  5
14
330
5
100
AcDbSymbolTableRecord
100
AcDbLinetypeTableRecord
  2
ByBlock
 70
     0
  3

 72
    65
 73
     0
 40
0.0
  0
LTYPE
  5
15
330
5
100
AcDbSymbolTableRecord
100
AcDbLinetypeTableRecord
  2
ByLayer
 70
     0
  3

 72
    65
 73
     0
 40
0.0
  0
LTYPE
  5
16
330
5
100
AcDbSymbolTableRecord
100
AcDbLinetypeTableRecord
  2
Continuous
 70
     0
  3
Solid line
 72
    65
 73
     0
 40
0.0
  0
LTYPE
  5
7BE
330
5
100
AcDbSymbolTableRecord
100
AcDbLinetypeTableRecord
  2
HIDDEN2
 70
     0
  3
Hidden (.5x) _ _ _ _ _ _ _ _ _ _ _ _ _ _ _ _ _
 72
    65
 73
     2
 40
0.1875
 49
0.125
 74
     0
 49
-0.0625
 74
     0
  0
LTYPE
  5
144B
330
5
100
AcDbSymbolTableRecord
100
AcDbLinetypeTableRecord
  2
HIDDEN
 70
     0
  3
Hidden __ __ __ __ __ __ __ __ __ __ __ __ __ _
 72
    65
 73
     2
 40
0.375
 49
0.25
 74
     0
 49
-0.125
 74
     0
  0
ENDTAB
  0
TABLE
  2
LAYER
  5
2
102
{ACAD_XDICTIONARY
360
8D
102
}
330
0
100
AcDbSymbolTable
 70
    15
  0
LAYER
  5
10
102
{ACAD_XDICTIONARY
360
175AF
102
}
330
2
100
AcDbSymbolTableRecord
100
AcDbLayerTableRecord
  2
0
 70
     0
 62
     7
  6
Continuous
370
    -3
390
F
347
17564
  0
LAYER
  5
8B
102
{ACAD_XDICTIONARY
360
175B1
102
}
330
2
100
AcDbSymbolTableRecord
100
AcDbLayerTableRecord
  2
Block
 70
     0
 62
     1
  6
Continuous
370
    -3
390
F
347
17564
1001
AcAecLayerStandard
1000

1000

  0
LAYER
  5
413
102
{ACAD_XDICTIONARY
360
175B3
102
}
330
2
100
AcDbSymbolTableRecord
100
AcDbLayerTableRecord
  2
Knobs
 70
     0
 62
     1
  6
Continuous
370
    -3
390
F
347
17564
1001
AcAecLayerStandard
1000

1000

  0
LAYER
  5
770
102
{ACAD_XDICTIONARY
360
175B5
102
}
330
2
100
AcDbSymbolTableRecord
100
AcDbLayerTableRecord
  2
Web
 70
     0
 62
     6
  6
Continuous
370
    -3
390
F
347
17564
1001
AcAecLayerStandard
1000

1000

  0
LAYER
  5
E05
102
{ACAD_XDICTIONARY
360
175B7
102
}
330
2
100
AcDbSymbolTableRecord
100
AcDbLayerTableRecord
  2
Markers
 70
     0
 62
     1
  6
Continuous
370
    -3
390
F
347
17564
1001
AcAecLayerStandard
1000

1000

  0
LAYER
  5
13AF
102
{ACAD_XDICTIONARY
360
175B9
102
}
330
2
100
AcDbSymbolTableRecord
100
AcDbLayerTableRecord
  2
Dim
 70
     0
 62
     7
  6
Continuous
370
    -3
390
F
347
17564
1001
AcAecLayerStandard
1000

1000

  0
LAYER
  5
13CA
330
2
100
AcDbSymbolTableRecord
100
AcDbLayerTableRecord
  2
DEFPOINTS
 70
     0
 62
     7
  6
Continuous
290
     0
370
    -3
390
F
347
17564
  0
LAYER
  5
32CE
102
{ACAD_XDICTIONARY
360
175BB
102
}
330
2
100
AcDbSymbolTableRecord
100
AcDbLayerTableRecord
  2
Text
 70
     0
 62
     7
  6
Continuous
370
    -3
390
F
347
17564
1001
AcAecLayerStandard
1000

1000

  0
LAYER
  5
7B7D
102
{ACAD_XDICTIONARY
360
175BD
102
}
330
2
100
AcDbSymbolTableRecord
100
AcDbLayerTableRecord
  2
RIBS
 70
     0
 62
     6
  6
Continuous
370
    -3
390
F
347
17564
  0
LAYER
  5
175EB
330
2
100
AcDbSymbolTableRecord
100
AcDbLayerTableRecord
  2
Conc
 70
     0
 62
     9
  6
Continuous
370
    -3
390
F
347
17564
1001
AcAecLayerStandard
1000

1000

  0
LAYER
  5
175F9
330
2
100
AcDbSymbolTableRecord
100
AcDbLayerTableRecord
  2
steel
 70
     0
 62
     5
  6
Continuous
370
    -3
390
F
347
17564
1001
AcAecLayerStandard
1000

1000

  0
LAYER
  5
17696
330
2
100
AcDbSymbolTableRecord
100
AcDbLayerTableRecord
  2
wood
 70
     0
 62
    42
  6
Continuous
370
    -3
390
F
347
17564
1001
AcAecLayerStandard
1000

1000

  0
LAYER
  5
176FC
102
{ACAD_XDICTIONARY
360
176FD
102
}
330
2
100
AcDbSymbolTableRecord
100
AcDbLayerTableRecord
  2
Webs
 70
     0
 62
     6
  6
HIDDEN
370
    -3
390
F
347
17564
  0
LAYER
  5
1945D
102
{ACAD_XDICTIONARY
360
1945E
102
}
330
2
100
AcDbSymbolTableRecord
100
AcDbLayerTableRecord
  2
drywall
 70
     0
 62
     7
  6
Continuous
370
    -3
390
F
347
17564
1001
AcAecLayerStandard
1000

1000

  0
LAYER
  5
1945F
102
{ACAD_XDICTIONARY
360
19460
102
}
330
2
100
AcDbSymbolTableRecord
100
AcDbLayerTableRecord
  2
Title Block
 70
     0
 62
     7
  6
Continuous
370
    -3
390
F
347
17564
1001
AcAecLayerStandard
1000

1000
Use for the title block on the layout tab (paper space)
  0
ENDTAB
  0
TABLE
  2
STYLE
  5
3
330
0
100
AcDbSymbolTable
 70
     5
  0
STYLE
  5
11
330
3
100
AcDbSymbolTableRecord
100
AcDbTextStyleTableRecord
  2
Standard
 70
     0
 40
0.0
 41
1.0
 50
0.0
 71
     0
 42
0.2
  3
sanss___.ttf
  4

1001
ACAD
1000
SansSerif
1071
      514
  0
STYLE
  5
7BD
330
3
100
AcDbSymbolTableRecord
100
AcDbTextStyleTableRecord
  2

 70
     1
 40
0.0
 41
1.0
 50
0.0
 71
     0
 42
0.2
  3
ltypeshp.shx
  4

  0
STYLE
  5
1A22
330
3
100
AcDbSymbolTableRecord
100
AcDbTextStyleTableRecord
  2
Logix
 70
     0
 40
0.0
 41
1.0
 50
0.0
 71
     0
 42
1.0
  3
romans.shx
  4

  0
STYLE
  5
36AA
330
3
100
AcDbSymbolTableRecord
100
AcDbTextStyleTableRecord
  2
Arial
 70
     0
 40
0.0
 41
1.0
 50
0.0
 71
     0
 42
0.2
  3
arial.ttf
  4

1001
ACAD
1000
Arial
1071
       34
  0
STYLE
  5
7B7E
330
3
100
AcDbSymbolTableRecord
100
AcDbTextStyleTableRecord
  2
TITLE
 70
     0
 40
0.0
 41
1.0
 50
0.0
 71
     0
 42
1.25
  3
arial.ttf
  4

1001
ACAD
1000
Arial
1071
       34
  0
ENDTAB
  0
TABLE
  2
VIEW
  5
6
330
0
100
AcDbSymbolTable
 70
     0
  0
ENDTAB
  0
TABLE
  2
UCS
  5
7
330
0
100
AcDbSymbolTable
 70
     0
  0
ENDTAB
  0
TABLE
  2
APPID
  5
9
330
0
100
AcDbSymbolTable
 70
    21
  0
APPID
  5
12
330
9
100
AcDbSymbolTableRecord
100
AcDbRegAppTableRecord
  2
ACAD
 70
     0
  0
APPID
  5
8C
330
9
100
AcDbSymbolTableRecord
100
AcDbRegAppTableRecord
  2
AcAecLayerStandard
 70
     0
  0
APPID
  5
93
330
9
100
AcDbSymbolTableRecord
100
AcDbRegAppTableRecord
  2
ACAD_EXEMPT_FROM_CAD_STANDARDS
 70
     0
  0
APPID
  5
B8
330
9
100
AcDbSymbolTableRecord
100
AcDbRegAppTableRecord
  2
ACAD_DSTYLE_DIMTEXT_FILL
 70
     0
  0
APPID
  5
B9
330
9
100
AcDbSymbolTableRecord
100
AcDbRegAppTableRecord
  2
ACAD_DSTYLE_DIMEXT_LENGTH
 70
     0
  0
APPID
  5
BA
330
9
100
AcDbSymbolTableRecord
100
AcDbRegAppTableRecord
  2
ACAD_DSTYLE_DIMEXT_ENABLED
 70
     0
  0
APPID
  5
BB
330
9
100
AcDbSymbolTableRecord
100
AcDbRegAppTableRecord
  2
ACAD_DSTYLE_DIM_LINETYPE
 70
     0
  0
APPID
  5
BC
330
9
100
AcDbSymbolTableRecord
100
AcDbRegAppTableRecord
  2
ACAD_DSTYLE_DIM_EXT1_LINETYPE
 70
     0
  0
APPID
  5
BD
330
9
100
AcDbSymbolTableRecord
100
AcDbRegAppTableRecord
  2
ACAD_DSTYLE_DIM_EXT2_LINETYPE
 70
     0
  0
APPID
  5
1D9
330
9
100
AcDbSymbolTableRecord
100
AcDbRegAppTableRecord
  2
ACAD_DSTYLE_DIMJOGGED_JOGANGLE_SYMBOL
 70
     0
  0
APPID
  5
26D
330
9
100
AcDbSymbolTableRecord
100
AcDbRegAppTableRecord
  2
ACAD_DSTYLE_DIMARC_LENGTH_SYMBOL
 70
     0
  0
APPID
  5
11EF9
330
9
100
AcDbSymbolTableRecord
100
AcDbRegAppTableRecord
  2
ACAD_PSEXT
 70
     0
  0
APPID
  5
175A1
330
9
100
AcDbSymbolTableRecord
100
AcDbRegAppTableRecord
  2
ACAD_MLEADERVER
 70
     0
  0
APPID
  5
17939
330
9
100
AcDbSymbolTableRecord
100
AcDbRegAppTableRecord
  2
ACAD_DSTYLE_DIMRADIAL_EXTENSION
 70
     0
  0
APPID
  5
17C2B
330
9
100
AcDbSymbolTableRecord
100
AcDbRegAppTableRecord
  2
ACAD_DSTYLE_DIMJAG
 70
     0
  0
APPID
  5
17C2C
330
9
100
AcDbSymbolTableRecord
100
AcDbRegAppTableRecord
  2
ACAD_DSTYLE_DIMTALN
 70
     0
  0
APPID
  5
19381
330
9
100
AcDbSymbolTableRecord
100
AcDbRegAppTableRecord
  2
ACAUTHENVIRON
 70
     0
  0
APPID
  5
19385
330
9
100
AcDbSymbolTableRecord
100
AcDbRegAppTableRecord
  2
AcDbDynamicBlockTrueName
 70
     0
  0
APPID
  5
19386
330
9
100
AcDbSymbolTableRecord
100
AcDbRegAppTableRecord
  2
AcDbDynamicBlockGUID
 70
     0
  0
APPID
  5
19461
330
9
100
AcDbSymbolTableRecord
100
AcDbRegAppTableRecord
  2
ACAD_NAV_VCDISPLAY
 70
     0
  0
APPID
  5
19462
330
9
100
AcDbSymbolTableRecord
100
AcDbRegAppTableRecord
  2
AcadAnnotative
 70
     0
  0
ENDTAB
  0
TABLE
  2
DIMSTYLE
  5
A
330
0
100
AcDbSymbolTable
 70
     5
100
AcDbDimStyleTable
 71
     3
340
8CB7
340
272
340
27
  0
DIMSTYLE
105
27
330
A
100
AcDbSymbolTableRecord
100
AcDbDimStyleTableRecord
  2
Standard
 70
     0
340
11
  0
DIMSTYLE
105
272
330
A
100
AcDbSymbolTableRecord
100
AcDbDimStyleTableRecord
  2
$RECOVER_050824232520-0
 70
     0
  3
"
  4
mm
 41
0.75
 42
0.5
 44
0.5
 49
0.18
 73
     0
140
0.75
141
0.5
170
     1
277
     5
340
1A22
342
1723
1001
ACAD_DSTYLE_DIMJOGGED_JOGANGLE_SYMBOL
1070
   384
1040
0.7853981633974483
  0
DIMSTYLE
105
7B7F
330
A
100
AcDbSymbolTableRecord
100
AcDbDimStyleTableRecord
  2
neil
 70
     0
  3
"\X
  4
mm
 40
7.0
 41
0.15
 42
0.06
 44
0.0599999999999999
 45
0.0005
 73
     0
 74
     0
 77
     1
 78
     4
 79
     1
140
0.15
141
0.0
144
0.666666666666667
147
0.06
170
     1
171
     0
271
     3
272
     3
274
     0
276
     1
277
     5
340
11
341
1723
342
1723
  0
DIMSTYLE
105
8CB7
102
{ACAD_REACTORS
330
17EB3
330
1896F
330
18997
102
}
330
A
100
AcDbSymbolTableRecord
100
AcDbDimStyleTableRecord
  2
FBR
 70
     0
  3
"\X
  4
mm
 41
0.75
 42
0.5
 44
0.5
 49
0.18
 73
     0
140
0.75
141
0.5
171
     0
274
     0
277
     5
340
1A22
342
1723
1001
ACAD_DSTYLE_DIMJOGGED_JOGANGLE_SYMBOL
1070
   384
1040
0.7853981633974483
1001
ACAD_DSTYLE_DIMJAG
1070
   388
1040
1.5
1001
ACAD_DSTYLE_DIMTALN
1070
   392
1070
     0
  0
DIMSTYLE
105
176FE
330
A
100
AcDbSymbolTableRecord
100
AcDbDimStyleTableRecord
  2
FBR 2storey
 70
     0
  3
"\X
  4
mm
 41
1.0
 42
0.5
 43
1.0
 44
0.5
 48
0.000000001
 49
0.5
 73
     0
 74
     0
140
1.0
141
0.25
147
0.3
170
     1
171
     0
274
     0
277
     5
279
     2
340
1A22
342
1723
1001
ACAD_DSTYLE_DIMJOGGED_JOGANGLE_SYMBOL
1070
   384
1040
0.7853981633974483
  0
ENDTAB
  0
TABLE
  2
BLOCK_RECORD
  5
1
330
0
100
AcDbSymbolTable
 70
     8
  0
BLOCK_RECORD
  5
1F
102
{ACAD_XDICTIONARY
360
39A
102
}
330
1
100
AcDbSymbolTableRecord
100
AcDbBlockTableRecord
  2
*Model_Space
340
22
 70
     0
280
     1
281
     0
  0
BLOCK_RECORD
  5
5D
330
1
100
AcDbSymbolTableRecord
100
AcDbBlockTableRecord
  2
*Paper_Space
340
5E
 70
     0
280
     1
281
     0
  0
BLOCK_RECORD
  5
58
330
1
100
AcDbSymbolTableRecord
100
AcDbBlockTableRecord
  2
*Paper_Space0
340
59
 70
     0
280
     1
281
     0
  0
BLOCK_RECORD
  5
13CB
330
1
100
AcDbSymbolTableRecord
100
AcDbBlockTableRecord
  2
BRKLINE
340
0
 70
     0
280
     1
281
     0
  0
BLOCK_RECORD
  5
1723
330
1
100
AcDbSymbolTableRecord
100
AcDbBlockTableRecord
  2
_ArchTick
340
0
102
{BLKREFS
331
18EC0
331
18EC1
331
18EF2
331
18EF3
331
18F06
331
18F07
102
}
 70
     0
280
     1
281
     0
  0
BLOCK_RECORD
  5
7B6B
330
1
100
AcDbSymbolTableRecord
100
AcDbBlockTableRecord
  2
logo
340
0
310
2800000020000000200000000100080000000000000400000000000000000000000000000000000000000000000080000080000000808000800000008000800080800000C0C0C000C0DCC000F0CAA6000020400000206000002080000020A0000020C0000020E00000400000004020000040400000406000004080000040A0
310
000040C0000040E00000600000006020000060400000606000006080000060A0000060C0000060E00000800000008020000080400000806000008080000080A0000080C0000080E00000A0000000A0200000A0400000A0600000A0800000A0A00000A0C00000A0E00000C0000000C0200000C0400000C0600000C0800000C0
310
A00000C0C00000C0E00000E0000000E0200000E0400000E0600000E0800000E0A00000E0C00000E0E00040000000400020004000400040006000400080004000A0004000C0004000E00040200000402020004020400040206000402080004020A0004020C0004020E000404000004040200040404000404060004040800040
310
40A0004040C0004040E00040600000406020004060400040606000406080004060A0004060C0004060E00040800000408020004080400040806000408080004080A0004080C0004080E00040A0000040A0200040A0400040A0600040A0800040A0A00040A0C00040A0E00040C0000040C0200040C0400040C0600040C08000
310
40C0A00040C0C00040C0E00040E0000040E0200040E0400040E0600040E0800040E0A00040E0C00040E0E00080000000800020008000400080006000800080008000A0008000C0008000E00080200000802020008020400080206000802080008020A0008020C0008020E00080400000804020008040400080406000804080
310
008040A0008040C0008040E00080600000806020008060400080606000806080008060A0008060C0008060E00080800000808020008080400080806000808080008080A0008080C0008080E00080A0000080A0200080A0400080A0600080A0800080A0A00080A0C00080A0E00080C0000080C0200080C0400080C0600080C0
310
800080C0A00080C0C00080C0E00080E0000080E0200080E0400080E0600080E0800080E0A00080E0C00080E0E000C0000000C0002000C0004000C0006000C0008000C000A000C000C000C000E000C0200000C0202000C0204000C0206000C0208000C020A000C020C000C020E000C0400000C0402000C0404000C0406000C0
310
408000C040A000C040C000C040E000C0600000C0602000C0604000C0606000C0608000C060A000C060C000C060E000C0800000C0802000C0804000C0806000C0808000C080A000C080C000C080E000C0A00000C0A02000C0A04000C0A06000C0A08000C0A0A000C0A0C000C0A0E000C0C00000C0C02000C0C04000C0C06000
310
C0C08000C0C0A000F0FBFF00A4A0A000808080000000FF0000FF000000FFFF00FF000000FF00FF00FFFF0000FFFFFF0000000000000000000000000000000000000000000000000000000000000000000000000000000000000000000000000000000000000000000000000000000000000000000000000000000000000000
310
00000000000000000000000000000000000000000000000000000000000000000000000000000000000000000000000000000000000000000000000000000000000000000000000000000000000000000000000000000000000000000000000000000000000000000000000000000000000000000000000000000000000000
310
00000000000000000000000000000000000000000000000000000000000000000000000000000000000000000000000000000000000000000000000000000000000000000000000000000000000000000000000000000000000000000000000000000000000000000000000000000000000000000000000000000000000000
310
000000000000000000000000000000000000000000FFFFFFFFFFFFFFFFFFFFFFFFFFFFFFFFFFFFFFFFFFFFFFFFFFFFFF0000000000FFF9F9FFFFFFFFFFFFFFFFFFFFFFFFFFFFFFFFFFFFFFFFFFFFFFFF0000000000FFF9F9FFFFFFFFFFFFFFFFFF0000FFFFFFFFFFFFFFFF0000FFFF000000000000FFFFFFFFFFFFFFFFFFFF
310
FF00FFFFFFFFFFFFFFFF00FFFFFFFF000000000000000000FFFF0000FFFF000000FFFFFF00FFFFFFFFFF00FFFF00FF000000000000000000FFFF000000FFFF0000FFFFFFFFFFFFFFFFFF0000FFFF00000000000000000000FFFF000000FFFFFFFFFF00FFFFFFFFFFFFFF00FFFFFFFFFFFFFF000000000000FFFF00000000FF
310
FFFF000000FFFFFFFFFFFFFFFF00FFFFFFFFFF00000000000000000000000000000000000000000000F9F9000000000000000000000000000000000000000000000000000000000000F9F900000000000000000000000000000000000000000000000000000000000000000000000000000000000000000000000000000000
310
00000000000000000000000000000000000000000000000000000000000000000000000000000000000000000000000000000000000000000000000000000000000000000000000000000000000000000000000000000000000000000000000000000000000000000000000000000000000000000000000000000000000000
310
00000000000000000000000000000000000000000000000000000000000000000000000000000000000000000000000000000000000000000000000000000000000000000000000000000000000000000000000000000000000000000000000000000000000000000000000000000000000000000000000000000000000000
310
0000000000000000000000000000000000000000000000000000000000000000000000000000000000000000000000000000000000000000
102
{BLKREFS
331
1937D
102
}
 70
     1
280
     1
281
     0
  0
BLOCK_RECORD
  5
7B76
102
{ACAD_XDICTIONARY
360
19382
102
}
330
1
100
AcDbSymbolTableRecord
100
AcDbBlockTableRecord
  2
logo1
340
0
310
2800000020000000200000000100080000000000000400000000000000000000000000000000000000000000000080000080000000808000800000008000800080800000C0C0C000C0DCC000F0CAA6000020400000206000002080000020A0000020C0000020E00000400000004020000040400000406000004080000040A0
310
000040C0000040E00000600000006020000060400000606000006080000060A0000060C0000060E00000800000008020000080400000806000008080000080A0000080C0000080E00000A0000000A0200000A0400000A0600000A0800000A0A00000A0C00000A0E00000C0000000C0200000C0400000C0600000C0800000C0
310
A00000C0C00000C0E00000E0000000E0200000E0400000E0600000E0800000E0A00000E0C00000E0E00040000000400020004000400040006000400080004000A0004000C0004000E00040200000402020004020400040206000402080004020A0004020C0004020E000404000004040200040404000404060004040800040
310
40A0004040C0004040E00040600000406020004060400040606000406080004060A0004060C0004060E00040800000408020004080400040806000408080004080A0004080C0004080E00040A0000040A0200040A0400040A0600040A0800040A0A00040A0C00040A0E00040C0000040C0200040C0400040C0600040C08000
310
40C0A00040C0C00040C0E00040E0000040E0200040E0400040E0600040E0800040E0A00040E0C00040E0E00080000000800020008000400080006000800080008000A0008000C0008000E00080200000802020008020400080206000802080008020A0008020C0008020E00080400000804020008040400080406000804080
310
008040A0008040C0008040E00080600000806020008060400080606000806080008060A0008060C0008060E00080800000808020008080400080806000808080008080A0008080C0008080E00080A0000080A0200080A0400080A0600080A0800080A0A00080A0C00080A0E00080C0000080C0200080C0400080C0600080C0
310
800080C0A00080C0C00080C0E00080E0000080E0200080E0400080E0600080E0800080E0A00080E0C00080E0E000C0000000C0002000C0004000C0006000C0008000C000A000C000C000C000E000C0200000C0202000C0204000C0206000C0208000C020A000C020C000C020E000C0400000C0402000C0404000C0406000C0
310
408000C040A000C040C000C040E000C0600000C0602000C0604000C0606000C0608000C060A000C060C000C060E000C0800000C0802000C0804000C0806000C0808000C080A000C080C000C080E000C0A00000C0A02000C0A04000C0A06000C0A08000C0A0A000C0A0C000C0A0E000C0C00000C0C02000C0C04000C0C06000
310
C0C08000C0C0A000F0FBFF00A4A0A000808080000000FF0000FF000000FFFF00FF000000FF00FF00FFFF0000FFFFFF0000000000000000000000000000000000000000000000000000000000000000000000000000000000000000000000000000000000000000000000000000000000000000000000000000000000000000
310
00000000000000000000000000000000000000000000000000000000000000000000000000000000000000000000000000000000000000000000000000000000000000000000000000000000000000000000000000000000000000000000000000000000000000000000000000000000000000000000000000000000000000
310
00000000000000000000000000000000000000000000000000000000000000000000000000000000000000000000000000000000000000000000000000000000000000000000000000000000000000000000000000000000000000000000000000000000000000000000000000000000000000000000000000000000000000
310
0000000000000000000000000000000000000000000000000000000000000000000000000000000000FFFFFFFFFFFFFFFF0000000000000000FFFFFFFFFFFFFFFFFFFFFFFFFFFFFFFFFFFFFFFFFFFFFFFF0000000000000000FFFFFFFFFF00FFFFFFFFFF00FFFFFFFFFFFFFFFF000000000000000000000000FFFFFFFFFFFF
310
FFFFFFFFFFFFFFFFFFFFFFFF0000000000000000000000000000F9F9FFFFFFFFFFFFFFFFFFFFFFFFFFFFFFFF0000000000000000000000000000FFFFFFFFFFFFFFFFFFFFFFFFFFFF00FFFFFF000000000000000000000000000000FFFF00FFFF00FFFFFFFFFFFFFF00FFFF00000000000000000000000000000000FFFF00FF
310
FFFF00FFFFFFFFFFFF00FF00FFFF0000000000000000000000000000FFFF00FFFFFFFF00FFFFFFF9F9FFFFFFFFFF00000000000000000000000000000000000000000000000000F9F9000000000000000000000000000000000000000000000000000000000000000000000000000000000000000000000000000000000000
310
00000000000000000000000000000000000000000000000000000000000000000000000000000000000000000000000000000000000000000000000000000000000000000000000000000000000000000000000000000000000000000000000000000000000000000000000000000000000000000000000000000000000000
310
00000000000000000000000000000000000000000000000000000000000000000000000000000000000000000000000000000000000000000000000000000000000000000000000000000000000000000000000000000000000000000000000000000000000000000000000000000000000000000000000000000000000000
310
0000000000000000000000000000000000000000000000000000000000000000000000000000000000000000000000000000000000000000
 70
     1
280
     1
281
     0
1001
AcDbDynamicBlockGUID
1000
{4C23C41B-3406-4332-A647-70E470E1F0E6}
  0
BLOCK_RECORD
  5
17EB4
330
1
100
AcDbSymbolTableRecord
100
AcDbBlockTableRecord
  2
*D5
340
0
 70
     0
280
     1
281
     0
  0
BLOCK_RECORD
  5
18970
330
1
100
AcDbSymbolTableRecord
100
AcDbBlockTableRecord
  2
*D6
340
0
 70
     0
280
     1
281
     0
  0
BLOCK_RECORD
  5
18998
330
1
100
AcDbSymbolTableRecord
100
AcDbBlockTableRecord
  2
*D7
340
0
 70
     0
280
     1
281
     0
  0
ENDTAB
  0
ENDSEC
  0
SECTION
  2
BLOCKS
  0
BLOCK
  5
20
330
1F
100
AcDbEntity
  8
0
100
AcDbBlockBegin
  2
*Model_Space
 70
     0
 10
0.0
 20
0.0
 30
0.0
  3
*Model_Space
  1

  0
ENDBLK
  5
21
330
1F
100
AcDbEntity
  8
0
100
AcDbBlockEnd
  0
BLOCK
  5
5F
330
5D
100
AcDbEntity
 67
     1
  8
0
100
AcDbBlockBegin
  2
*Paper_Space
 70
     0
 10
0.0
 20
0.0
 30
0.0
  3
*Paper_Space
  1

  0
ENDBLK
  5
60
330
5D
100
AcDbEntity
 67
     1
  8
0
100
AcDbBlockEnd
  0
BLOCK
  5
5A
330
58
100
AcDbEntity
 67
     1
  8
0
100
AcDbBlockBegin
  2
*Paper_Space0
 70
     0
 10
0.0
 20
0.0
 30
0.0
  3
*Paper_Space0
  1

  0
VIEWPORT
  5
11EF8
330
58
100
AcDbEntity
 67
     1
  8
0
100
AcDbViewport
 10
5.249999639556163
 20
3.999999883606677
 30
0.0
 40
21.60469660038833
 41
8.992999745766947
 68
     0
 69
     0
 12
5.249999639556163
 22
3.999999883606677
 13
0.0
 23
0.0
 14
0.5
 24
0.5
 15
0.5
 25
0.5
 16
0.0
 26
0.0
 36
1.0
 17
0.0
 27
0.0
 37
0.0
 42
50.0
 43
0.0
 44
0.0
 45
8.992999745766947
 50
0.0
 51
0.0
 72
  1000
 90
    32800
  1

281
     0
 71
     1
 74
     0
110
0.0
120
0.0
130
0.0
111
1.0
121
0.0
131
0.0
112
0.0
122
1.0
132
0.0
 79
     0
146
0.0
170
     0
 61
     5
348
17572
292
     1
282
     1
141
0.0
142
0.0
 63
   250
421
  3355443
  0
VIEWPORT
  5
11EFB
330
58
100
AcDbEntity
 67
     1
  8
Dim
100
AcDbViewport
 10
5.24999976158142
 20
3.99999976158142
 30
0.0
 40
8.399999618530271
 41
6.399999618530272
 68
     0
 69
     0
 12
70.24570646213799
 22
55.11630672257945
 13
0.0
 23
0.0
 14
0.5
 24
0.5
 15
0.5
 25
0.5
 16
0.0
 26
0.0
 36
1.0
 17
0.0
 27
0.0
 37
0.0
 42
50.0
 43
0.0
 44
0.0
 45
113.4515982453417
 50
0.0
 51
0.0
 72
  1000
 90
    32864
  1

281
     0
 71
     1
 74
     0
110
0.0
120
0.0
130
0.0
111
1.0
121
0.0
131
0.0
112
0.0
122
1.0
132
0.0
 79
     0
146
0.0
170
     0
 61
     5
348
17572
292
     1
282
     1
141
0.0
142
0.0
 63
   250
421
  3355443
  0
ENDBLK
  5
5B
330
58
100
AcDbEntity
 67
     1
  8
0
100
AcDbBlockEnd
  0
BLOCK
  5
13CF
330
13CB
100
AcDbEntity
  8
0
100
AcDbBlockBegin
  2
BRKLINE
 70
     0
 10
0.0
 20
0.0
 30
0.0
  3
BRKLINE
  1

  0
LWPOLYLINE
  5
13CC
330
13CB
100
AcDbEntity
  8
0
100
AcDbPolyline
 90
        4
 70
     0
 43
0.0
 10
6.808656731150684
 20
3.512459941779828
 10
6.558656731150684
 20
4.199329296643485
 10
6.058656731150684
 20
2.825590586916172
 10
5.808656731150684
 20
3.512459941779828
  0
POINT
  5
13CD
330
13CB
100
AcDbEntity
  8
DEFPOINTS
100
AcDbPoint
 10
6.808656731150684
 20
3.512459941779828
 30
0.0
  0
POINT
  5
13CE
330
13CB
100
AcDbEntity
  8
DEFPOINTS
100
AcDbPoint
 10
5.808656731150684
 20
3.512459941779828
 30
0.0
  0
ENDBLK
  5
13D0
330
13CB
100
AcDbEntity
  8
0
100
AcDbBlockEnd
  0
BLOCK
  5
1725
330
1723
100
AcDbEntity
  8
0
100
AcDbBlockBegin
  2
_ArchTick
 70
     0
 10
0.0
 20
0.0
 30
0.0
  3
_ArchTick
  1

  0
LWPOLYLINE
  5
1724
330
1723
100
AcDbEntity
  8
0
  6
ByBlock
 62
     0
100
AcDbPolyline
 90
        2
 70
     0
 43
0.15
 10
-0.5
 20
-0.5
 10
0.5
 20
0.5
  0
ENDBLK
  5
1726
330
1723
100
AcDbEntity
  8
0
100
AcDbBlockEnd
  0
BLOCK
  5
7B6C
330
7B6B
100
AcDbEntity
  8
0
100
AcDbBlockBegin
  2
logo
 70
     0
 10
0.0
 20
0.0
 30
0.0
  3
logo
  1

  0
MTEXT
  5
7B6D
330
7B6B
100
AcDbEntity
  8
Text
100
AcDbMText
 10
221.086693675525
 20
7.073797073357269
 30
0.0
 40
4.125
 41
21.35400527714894
 46
0.0
 71
     5
 72
     5
  1
\fArial|b1|i0|c0|p34;LOGIX
 73
     1
 44
1.0
  0
LWPOLYLINE
  5
7B6E
330
7B6B
100
AcDbEntity
  8
Text
 62
    10
100
AcDbPolyline
 90
        4
 70
     1
 43
0.0
 10
225.1499332619207
 20
9.683728632982365
 10
224.7383820841952
 20
9.683728632982365
 10
224.7383820841952
 20
10.35291851038301
 10
225.1499332619207
 20
10.35291851038301
  0
HATCH
  5
7B6F
330
7B6B
100
AcDbEntity
  8
Text
 62
    10
100
AcDbHatch
 10
0.0
 20
0.0
 30
0.0
210
0.0
220
0.0
230
1.0
  2
SOLID
 70
     1
 71
     0
 91
        1
 92
        7
 72
     0
 73
     1
 93
        4
 10
225.5614844396461
 20
9.683728632982363
 10
225.5614844396461
 20
10.35291851038301
 10
224.7383820841953
 20
10.35291851038301
 10
224.7383820841953
 20
9.683728632982365
 97
        0
 75
     0
 76
     1
 47
0.0123602155066018
 98
        1
 10
225.7208762804179
 20
9.919538556040233
450
        0
451
        0
460
0.0
461
0.0
452
        0
462
0.0
453
        0
470

  0
TEXT
  5
7B70
330
7B6B
100
AcDbEntity
  8
Text
100
AcDbText
 10
216.1026506038589
 20
3.969685468766058
 30
0.0
 40
0.65625
  1
INSULATED CONCRETE FORMS
  7
TITLE
100
AcDbText
  0
LWPOLYLINE
  5
7B71
330
7B6B
100
AcDbEntity
  8
Text
100
AcDbPolyline
 90
        3
 70
     0
 43
0.38671875
 10
211.295228210912
 20
6.320133515475628
 10
211.295228210912
 20
4.138949166248082
 10
215.2000098659969
 20
4.138949166248082
  0
HATCH
  5
7B72
330
7B6B
100
AcDbEntity
  8
Text
 62
    10
100
AcDbHatch
 10
0.0
 20
0.0
 30
0.0
210
0.0
220
0.0
230
1.0
  2
SOLID
 70
     1
 71
     1
 91
        1
 92
        7
 72
     0
 73
     1
 93
        4
 10
212.339355867348
 20
4.353444358275677
 10
212.339355867348
 20
5.022634235676324
 10
211.5162535118971
 20
5.022634235676322
 10
211.5162535118971
 20
4.353444358275677
 97
        1
330
7B73
 75
     0
 76
     1
 47
0.0123602155066018
 98
        1
 10
212.0586078659991
 20
4.589254281333545
450
        0
451
        0
460
0.0
461
0.0
452
        0
462
0.0
453
        0
470

  0
LWPOLYLINE
  5
7B73
102
{ACAD_REACTORS
330
7B72
102
}
330
7B6B
100
AcDbEntity
  8
Text
 62
    10
100
AcDbPolyline
 90
        4
 70
     1
 43
0.0
 10
212.339355867348
 20
4.353444358275677
 10
211.5162535118971
 20
4.353444358275677
 10
211.5162535118971
 20
5.022634235676324
 10
212.339355867348
 20
5.022634235676324
  0
MTEXT
  5
7B74
330
7B6B
100
AcDbEntity
  8
Text
100
AcDbMText
 10
231.5267760865217
 20
9.129830932173035
 30
0.0
 40
1.0
 41
1.967384484442007
 46
0.0
 71
     3
 72
     5
  1
{\fArial|b1|i0|c0|p34;TM}
 73
     1
 44
1.0
  0
ENDBLK
  5
7B75
330
7B6B
100
AcDbEntity
  8
0
100
AcDbBlockEnd
  0
BLOCK
  5
7B77
330
7B76
100
AcDbEntity
  8
0
100
AcDbBlockBegin
  2
logo1
 70
     0
 10
0.0
 20
0.0
 30
0.0
  3
logo1
  1

  0
INSERT
  5
1937D
330
7B76
100
AcDbEntity
  8
Text
100
AcDbBlockReference
  2
logo
 10
0.2750878984697351
 20
1.429312710851462
 30
0.0
  0
MTEXT
  5
1937E
330
7B76
100
AcDbEntity
  8
Text
100
AcDbMText
 10
220.8462269722975
 20
3.419269878896534
 30
0.0
 40
1.5397913732992
 41
28.81904330094251
 46
0.0
 71
     5
 72
     5
  1
{\fArial|b1|i0|c0|p34;Good. Solid. Green.}
 73
     1
 44
1.0
  0
MTEXT
  5
1937F
330
7B76
100
AcDbEntity
  8
Text
100
AcDbMText
 10
231.9043748365881
 20
4.468802917119665
 30
0.0
 40
0.7698956866496004
 41
1.514680828553249
 46
0.0
 71
     3
 72
     5
  1
{\fArial|b1|i0|c0|p34;TM}
 73
     1
 44
1.0
  0
MTEXT
  5
19380
330
7B76
100
AcDbEntity
  8
Text
100
AcDbMText
 10
229.1192517599591
 20
2.675911896170958
 30
0.0
 40
0.75
 41
8.36266296602462
 46
0.0
 71
     1
 72
     5
  1
www.logixicf.com
 73
     1
 44
1.0
  0
ENDBLK
  5
7B7C
330
7B76
100
AcDbEntity
  8
0
100
AcDbBlockEnd
  0
BLOCK
  5
17EB5
330
17EB4
100
AcDbEntity
  8
0
100
AcDbBlockBegin
  2
*D5
 70
     1
 10
0.0
 20
0.0
 30
0.0
  3
*D5
  1

  0
LINE
  5
18EBC
330
17EB4
100
AcDbEntity
  8
Dim
 62
     0
440
 16777216
370
    -2
100
AcDbLine
 10
561.6063815412009
 20
92.74999079092408
 30
0.0
 11
561.6063815412009
 21
102.1621002353625
 31
0.0
  0
LINE
  5
18EBD
330
17EB4
100
AcDbEntity
  8
Dim
 62
     0
440
 16777216
370
    -2
100
AcDbLine
 10
558.6063815412009
 20
89.74999079092407
 30
0.0
 11
558.6063815412009
 21
102.1621002353625
 31
0.0
  0
LINE
  5
18EBE
330
17EB4
100
AcDbEntity
  8
Dim
 62
     0
440
 16777216
370
    -2
100
AcDbLine
 10
561.6063815412009
 20
101.6621002353625
 30
0.0
 11
560.6606672554866
 21
101.6621002353625
 31
0.0
  0
LINE
  5
18EBF
330
17EB4
100
AcDbEntity
  8
Dim
 62
     0
440
 16777216
370
    -2
100
AcDbLine
 10
558.6063815412009
 20
101.6621002353625
 30
0.0
 11
559.5520958269152
 21
101.6621002353625
 31
0.0
  0
INSERT
  5
18EC0
330
17EB4
100
AcDbEntity
  8
Dim
 62
     0
440
 16777216
370
    -2
100
AcDbBlockReference
  2
_ArchTick
 10
561.6063815412009
 20
101.6621002353625
 30
0.0
 41
0.75
 42
0.75
 43
0.75
  0
INSERT
  5
18EC1
330
17EB4
100
AcDbEntity
  8
Dim
 62
     0
440
 16777216
370
    -2
100
AcDbBlockReference
  2
_ArchTick
 10
558.6063815412009
 20
101.6621002353625
 30
0.0
 41
0.75
 42
0.75
 43
0.75
 50
180.0
  0
MTEXT
  5
18EC2
330
17EB4
100
AcDbEntity
  8
Dim
 62
     0
440
 16777216
100
AcDbMText
 10
560.1063815412008
 20
101.6621002353625
 30
0.0
 40
0.75
 41
0.0
 46
0.0
 71
     5
 72
     1
  1
\A1;1"
  7
Logix
 73
     1
 44
1.0
  0
POINT
  5
18EC3
330
17EB4
100
AcDbEntity
  8
DEFPOINTS
 62
     0
440
 16777216
100
AcDbPoint
 10
561.6063815412009
 20
92.24999079092407
 30
0.0
  0
POINT
  5
18EC4
330
17EB4
100
AcDbEntity
  8
DEFPOINTS
 62
     0
440
 16777216
100
AcDbPoint
 10
558.6063815412009
 20
89.24999079092406
 30
0.0
  0
POINT
  5
18EC5
330
17EB4
100
AcDbEntity
  8
DEFPOINTS
 62
     0
440
 16777216
100
AcDbPoint
 10
558.6063815412009
 20
101.6621002353625
 30
0.0
  0
ENDBLK
  5
17EB6
330
17EB4
100
AcDbEntity
  8
0
100
AcDbBlockEnd
  0
BLOCK
  5
18971
330
18970
100
AcDbEntity
  8
0
100
AcDbBlockBegin
  2
*D6
 70
     1
 10
0.0
 20
0.0
 30
0.0
  3
*D6
  1

  0
LINE
  5
18EEE
330
18970
100
AcDbEntity
  8
Dim
 62
     0
440
 16777216
370
    -2
100
AcDbLine
 10
576.6063815412008
 20
92.74999079092408
 30
0.0
 11
576.6063815412008
 21
102.1621002353625
 31
0.0
  0
LINE
  5
18EEF
330
18970
100
AcDbEntity
  8
Dim
 62
     0
440
 16777216
370
    -2
100
AcDbLine
 10
573.6063815412008
 20
92.74999079092408
 30
0.0
 11
573.6063815412008
 21
102.1621002353625
 31
0.0
  0
LINE
  5
18EF0
330
18970
100
AcDbEntity
  8
Dim
 62
     0
440
 16777216
370
    -2
100
AcDbLine
 10
576.6063815412008
 20
101.6621002353625
 30
0.0
 11
575.6606672554865
 21
101.6621002353625
 31
0.0
  0
LINE
  5
18EF1
330
18970
100
AcDbEntity
  8
Dim
 62
     0
440
 16777216
370
    -2
100
AcDbLine
 10
573.6063815412008
 20
101.6621002353625
 30
0.0
 11
574.5520958269151
 21
101.6621002353625
 31
0.0
  0
INSERT
  5
18EF2
330
18970
100
AcDbEntity
  8
Dim
 62
     0
440
 16777216
370
    -2
100
AcDbBlockReference
  2
_ArchTick
 10
576.6063815412008
 20
101.6621002353625
 30
0.0
 41
0.75
 42
0.75
 43
0.75
  0
INSERT
  5
18EF3
330
18970
100
AcDbEntity
  8
Dim
 62
     0
440
 16777216
370
    -2
100
AcDbBlockReference
  2
_ArchTick
 10
573.6063815412008
 20
101.6621002353625
 30
0.0
 41
0.75
 42
0.75
 43
0.75
 50
180.0
  0
MTEXT
  5
18EF4
330
18970
100
AcDbEntity
  8
Dim
 62
     0
440
 16777216
100
AcDbMText
 10
575.1063815412009
 20
101.6621002353625
 30
0.0
 40
0.75
 41
0.0
 46
0.0
 71
     5
 72
     1
  1
\A1;1"
  7
Logix
 73
     1
 44
1.0
  0
POINT
  5
18EF5
330
18970
100
AcDbEntity
  8
DEFPOINTS
 62
     0
440
 16777216
100
AcDbPoint
 10
576.6063815412008
 20
92.24999079092407
 30
0.0
  0
POINT
  5
18EF6
330
18970
100
AcDbEntity
  8
DEFPOINTS
 62
     0
440
 16777216
100
AcDbPoint
 10
573.6063815412008
 20
92.24999079092407
 30
0.0
  0
POINT
  5
18EF7
330
18970
100
AcDbEntity
  8
DEFPOINTS
 62
     0
440
 16777216
100
AcDbPoint
 10
573.6063815412008
 20
101.6621002353625
 30
0.0
  0
ENDBLK
  5
18972
330
18970
100
AcDbEntity
  8
0
100
AcDbBlockEnd
  0
BLOCK
  5
18999
330
18998
100
AcDbEntity
  8
0
100
AcDbBlockBegin
  2
*D7
 70
     1
 10
0.0
 20
0.0
 30
0.0
  3
*D7
  1

  0
LINE
  5
18F02
330
18998
100
AcDbEntity
  8
Dim
 62
     0
440
 16777216
370
    -2
100
AcDbLine
 10
561.6063815412009
 20
92.74999079092408
 30
0.0
 11
561.6063815412009
 21
102.1621002353625
 31
0.0
  0
LINE
  5
18F03
330
18998
100
AcDbEntity
  8
Dim
 62
     0
440
 16777216
370
    -2
100
AcDbLine
 10
564.6063815412008
 20
92.74999079092406
 30
0.0
 11
564.6063815412008
 21
102.1621002353625
 31
0.0
  0
LINE
  5
18F04
330
18998
100
AcDbEntity
  8
Dim
 62
     0
440
 16777216
370
    -2
100
AcDbLine
 10
561.6063815412009
 20
101.6621002353625
 30
0.0
 11
562.5520958269151
 21
101.6621002353625
 31
0.0
  0
LINE
  5
18F05
330
18998
100
AcDbEntity
  8
Dim
 62
     0
440
 16777216
370
    -2
100
AcDbLine
 10
564.6063815412008
 20
101.6621002353625
 30
0.0
 11
563.6606672554866
 21
101.6621002353625
 31
0.0
  0
INSERT
  5
18F06
330
18998
100
AcDbEntity
  8
Dim
 62
     0
440
 16777216
370
    -2
100
AcDbBlockReference
  2
_ArchTick
 10
561.6063815412009
 20
101.6621002353625
 30
0.0
 41
0.75
 42
0.75
 43
0.75
 50
180.0
  0
INSERT
  5
18F07
330
18998
100
AcDbEntity
  8
Dim
 62
     0
440
 16777216
370
    -2
100
AcDbBlockReference
  2
_ArchTick
 10
564.6063815412008
 20
101.6621002353625
 30
0.0
 41
0.75
 42
0.75
 43
0.75
  0
MTEXT
  5
18F08
330
18998
100
AcDbEntity
  8
Dim
 62
     0
440
 16777216
100
AcDbMText
 10
563.1063815412009
 20
101.6621002353625
 30
0.0
 40
0.75
 41
0.0
 46
0.0
 71
     5
 72
     1
  1
\A1;1"
  7
Logix
 73
     1
 44
1.0
  0
POINT
  5
18F09
330
18998
100
AcDbEntity
  8
DEFPOINTS
 62
     0
440
 16777216
100
AcDbPoint
 10
561.6063815412009
 20
92.24999079092407
 30
0.0
  0
POINT
  5
18F0A
330
18998
100
AcDbEntity
  8
DEFPOINTS
 62
     0
440
 16777216
100
AcDbPoint
 10
564.6063815412008
 20
92.24999079092405
 30
0.0
  0
POINT
  5
18F0B
330
18998
100
AcDbEntity
  8
DEFPOINTS
 62
     0
440
 16777216
100
AcDbPoint
 10
564.6063815412008
 20
101.6621002353625
 30
0.0
  0
ENDBLK
  5
1899A
330
18998
100
AcDbEntity
  8
0
100
AcDbBlockEnd
  0
ENDSEC
  0
SECTION
  2
ENTITIES
  0
LINE
  5
17CFE
330
1F
100
AcDbEntity
  8
Block
100
AcDbLine
 10
576.6063815412008
 20
92.24999079092407
 30
0.0
 11
576.6063815412008
 21
113.6721535497339
 31
0.0
  0
LINE
  5
17CFF
330
1F
100
AcDbEntity
  8
Block
100
AcDbLine
 10
584.8563815412009
 20
116.0768193575361
 30
0.0
 11
584.8563815412009
 21
92.24999079092407
 31
0.0
  0
LINE
  5
17D00
330
1F
100
AcDbEntity
  8
Block
100
AcDbLine
 10
608.8563815412008
 20
112.634885483541
 30
0.0
 11
608.8563815412008
 21
92.24999079092407
 31
0.0
  0
LINE
  5
17D01
330
1F
100
AcDbEntity
  8
Block
100
AcDbLine
 10
584.8563815412009
 20
92.24999079092407
 30
0.0
 11
576.6063815412008
 21
92.24999079092407
 31
0.0
  0
LINE
  5
17D02
330
1F
100
AcDbEntity
  8
Block
100
AcDbLine
 10
617.1063815412009
 20
107.1667054253885
 30
0.0
 11
617.1063815412009
 21
92.24999079092407
 31
0.0
  0
LINE
  5
17D03
330
1F
100
AcDbEntity
  8
Block
100
AcDbLine
 10
617.1063815412009
 20
92.24999079092407
 30
0.0
 11
608.8563815412008
 21
92.24999079092407
 31
0.0
  0
LINE
  5
17D04
330
1F
100
AcDbEntity
  8
Block
100
AcDbLine
 10
584.8563815412009
 20
92.24999079092407
 30
0.0
 11
581.8563815412009
 21
92.24999079092407
 31
0.0
  0
LINE
  5
17D05
330
1F
100
AcDbEntity
  8
Conc
100
AcDbLine
 10
576.6063815412008
 20
92.24999079092407
 30
0.0
 11
573.6063815412008
 21
92.24999079092407
 31
0.0
  0
LINE
  5
17D06
330
1F
100
AcDbEntity
  8
steel
100
AcDbLine
 10
573.6063815412008
 20
92.24999079092407
 30
0.0
 11
564.6063815412008
 21
92.24999079092407
 31
0.0
  0
LINE
  5
17D07
330
1F
100
AcDbEntity
  8
steel
100
AcDbLine
 10
573.6063815412008
 20
89.24999079092406
 30
0.0
 11
564.6063815412008
 21
89.24999079092406
 31
0.0
  0
LINE
  5
17D08
330
1F
100
AcDbEntity
  8
Conc
100
AcDbLine
 10
564.6063815412008
 20
92.24999079092407
 30
0.0
 11
561.6063815412009
 21
92.24999079092407
 31
0.0
  0
LINE
  5
17D09
330
1F
100
AcDbEntity
  8
Conc
100
AcDbLine
 10
558.6063815412009
 20
89.24999079092406
 30
0.0
 11
561.6063815412009
 21
92.24999079092407
 31
0.0
  0
LINE
  5
17D0A
102
{ACAD_REACTORS
330
17ECC
102
}
330
1F
100
AcDbEntity
  8
Conc
100
AcDbLine
 10
558.6063815412009
 20
89.24999079092406
 30
0.0
 11
558.6063815412009
 21
77.24999079092407
 31
0.0
  0
HATCH
  5
17D0B
330
1F
100
AcDbEntity
  8
steel
100
AcDbHatch
 10
0.0
 20
0.0
 30
0.0
210
0.0
220
0.0
230
1.0
  2
ANSI31
 70
     0
 71
     1
 91
        1
 92
        1
 93
        4
 72
     1
 10
564.6063815412008
 20
92.24999079092407
 11
573.6063815412008
 21
92.24999079092407
 72
     1
 10
573.6063815412008
 20
92.24999079092407
 11
573.6063815412008
 21
89.24999079092406
 72
     1
 10
573.6063815412008
 20
89.24999079092406
 11
564.6063815412008
 21
89.24999079092406
 72
     1
 10
564.6063815412008
 20
89.24999079092406
 11
564.6063815412008
 21
92.24999079092407
 97
        4
330
17E36
330
17D0D
330
17E37
330
17D0C
 75
     0
 76
     1
 52
0.0
 41
3.0
 77
     0
 78
     1
 53
45.0
 43
124.1044986525178
 44
-147.0133721999375
 45
-0.2651650429449553
 46
0.2651650429449553
 79
     0
 98
        1
 10
124.1044986525178
 20
-147.0133721999375
1001
ACAD
1010
0.0
1020
0.0
1030
0.0
  0
LINE
  5
17D0C
102
{ACAD_REACTORS
330
17D0B
102
}
330
1F
100
AcDbEntity
  8
steel
100
AcDbLine
 10
564.6063815412008
 20
92.24999079092407
 30
0.0
 11
564.6063815412008
 21
89.24999079092406
 31
0.0
  0
LINE
  5
17D0D
102
{ACAD_REACTORS
330
17D0B
102
}
330
1F
100
AcDbEntity
  8
steel
100
AcDbLine
 10
573.6063815412008
 20
92.24999079092407
 30
0.0
 11
573.6063815412008
 21
89.24999079092406
 31
0.0
  0
LINE
  5
17D0E
330
1F
100
AcDbEntity
  8
Conc
100
AcDbLine
 10
558.6063815412009
 20
77.24999079092407
 30
0.0
 11
576.6063815412008
 21
44.24999079092407
 31
0.0
  0
LINE
  5
17D0F
330
1F
100
AcDbEntity
  8
Block
100
AcDbLine
 10
576.6063815412008
 20
41.57782803211444
 30
0.0
 11
576.6063815412008
 21
44.24999079092407
 31
0.0
  0
LINE
  5
17D10
330
1F
100
AcDbEntity
  8
Block
100
AcDbLine
 10
576.6063815412008
 20
44.24999079092407
 30
0.0
 11
584.8563815412009
 21
44.24999079092407
 31
0.0
  0
LINE
  5
17D11
330
1F
100
AcDbEntity
  8
Block
100
AcDbLine
 10
584.8563815412009
 20
44.24999079092407
 30
0.0
 11
584.8563815412009
 21
39.17316222431217
 31
0.0
  0
LINE
  5
17D12
330
1F
100
AcDbEntity
  8
Block
100
AcDbLine
 10
608.8563815412008
 20
44.24999079092407
 30
0.0
 11
608.8563815412008
 21
42.61509609830727
 31
0.0
  0
LINE
  5
17D13
330
1F
100
AcDbEntity
  8
Block
100
AcDbLine
 10
608.8563815412008
 20
44.24999079092407
 30
0.0
 11
611.836532442434
 21
44.24999079092407
 31
0.0
  0
LINE
  5
17D15
330
1F
100
AcDbEntity
  8
Block
100
AcDbLine
 10
608.8563815412008
 20
92.24999079092407
 30
0.0
 11
608.8563815412008
 21
44.24999079092407
 31
0.0
  0
LINE
  5
17D16
330
1F
100
AcDbEntity
  8
Block
100
AcDbLine
 10
608.8563815412008
 20
92.24999079092407
 30
0.0
 11
617.1063815412009
 21
92.24999079092407
 31
0.0
  0
LINE
  5
17D17
330
1F
100
AcDbEntity
  8
Block
100
AcDbLine
 10
617.1063815412009
 20
92.24999079092407
 30
0.0
 11
617.1063815412009
 21
48.08327615645982
 31
0.0
  0
LINE
  5
17D18
330
1F
100
AcDbEntity
  8
Block
100
AcDbLine
 10
611.836532442434
 20
44.24999079092407
 30
0.0
 11
608.8563815412008
 21
44.24999079092407
 31
0.0
  0
LWPOLYLINE
  5
17D4C
330
1F
100
AcDbEntity
  8
Webs
  6
Continuous
100
AcDbPolyline
 90
        2
 70
     0
 43
0.0
 10
587.9272476822008
 20
58.12499079092399
 10
584.8563815412009
 20
58.12499079092399
  0
LWPOLYLINE
  5
17D4D
330
1F
100
AcDbEntity
  8
Webs
  6
Continuous
100
AcDbPolyline
 90
        2
 70
     0
 43
0.0
 10
584.8563815412009
 20
64.10207633879238
 42
0.2719204724283024
 10
587.3715815412008
 20
62.62499079092416
  0
LWPOLYLINE
  5
17D4E
330
1F
100
AcDbEntity
  8
Webs
  6
Continuous
100
AcDbPolyline
 90
        2
 70
     0
 43
0.0
 10
587.3715815412008
 20
73.87499079092399
 42
0.2719204724283024
 10
584.8563815412009
 20
72.39790524305576
  0
LWPOLYLINE
  5
17D4F
330
1F
100
AcDbEntity
  8
Webs
  6
Continuous
100
AcDbPolyline
 90
        2
 70
     0
 43
0.0
 10
587.9272476822008
 20
78.37499079092416
 10
584.8563815412009
 20
78.37499079092399
  0
LWPOLYLINE
  5
17D50
330
1F
100
AcDbEntity
  8
Webs
  6
Continuous
100
AcDbPolyline
 90
        2
 70
     0
 43
0.0
 10
608.8563815412008
 20
72.39790524305576
 42
0.2719204724283024
 10
606.3411815412006
 20
73.87499079092399
  0
LWPOLYLINE
  5
17D51
330
1F
100
AcDbEntity
  8
Webs
  6
Continuous
100
AcDbPolyline
 90
        2
 70
     0
 43
0.0
 10
606.3411815412006
 20
62.62499079092399
 10
587.3715815412008
 20
62.62499079092399
  0
LWPOLYLINE
  5
17D52
330
1F
100
AcDbEntity
  8
Webs
  6
Continuous
100
AcDbPolyline
 90
        2
 70
     0
 43
0.0
 10
606.3411815412006
 20
73.87499079092399
 10
587.3715815412008
 20
73.87499079092399
  0
LWPOLYLINE
  5
17D53
330
1F
100
AcDbEntity
  8
Webs
  6
Continuous
100
AcDbPolyline
 90
        2
 70
     0
 43
0.0
 10
605.7855154002005
 20
58.12499079092399
 10
608.8563815412008
 20
58.12499079092399
  0
LWPOLYLINE
  5
17D54
330
1F
100
AcDbEntity
  8
Webs
  6
Continuous
100
AcDbPolyline
 90
        2
 70
     0
 43
0.0
 10
606.3411815412006
 20
62.62499079092416
 42
0.2719204724283024
 10
608.8563815412008
 20
64.10207633879238
  0
LWPOLYLINE
  5
17D55
330
1F
100
AcDbEntity
  8
Webs
  6
Continuous
100
AcDbPolyline
 90
        2
 70
     0
 43
0.0
 10
606.3411815412006
 20
73.87499079092399
 10
587.3715815412008
 20
73.87499079092399
  0
LWPOLYLINE
  5
17D56
330
1F
100
AcDbEntity
  8
Webs
  6
Continuous
100
AcDbPolyline
 90
        2
 70
     0
 43
0.0
 10
605.7855154002005
 20
78.37499079092416
 10
608.8563815412008
 20
78.37499079092399
  0
LINE
  5
17D57
330
1F
100
AcDbEntity
  8
Web
100
AcDbLine
 10
590.1772476822009
 20
58.12499079092399
 30
0.0000000000000107
 11
591.5886650052009
 21
58.12499079092399
 31
0.0000000000000107
  0
LINE
  5
17D58
330
1F
100
AcDbEntity
  8
Web
100
AcDbLine
 10
593.0886650052009
 20
58.12499079092365
 30
0.0000000000000107
 11
595.9188815412009
 21
58.1249907909245
 31
0.0000000000000107
  0
ARC
  5
17D59
330
1F
100
AcDbEntity
  8
Web
100
AcDbCircle
 10
596.8563815412009
 20
59.4374907909245
 30
0.0000000000000107
 40
0.9375
100
AcDbArc
 50
90.0
 51
180.0
  0
LINE
  5
17D5A
330
1F
100
AcDbEntity
  8
Web
100
AcDbLine
 10
595.9188815412009
 20
59.4374907909245
 30
0.0000000000000107
 11
595.9188815412009
 21
58.1249907909245
 31
0.0000000000000107
  0
ARC
  5
17D5B
330
1F
100
AcDbEntity
  8
Web
100
AcDbCircle
 10
592.3386650052009
 20
58.87499079092399
 30
0.0000000000000107
 40
0.75
100
AcDbArc
 50
0.0
 51
180.0
  0
LINE
  5
17D5C
330
1F
100
AcDbEntity
  8
Web
100
AcDbLine
 10
591.5886650052009
 20
58.87499079092399
 30
0.0000000000000107
 11
591.5886650052009
 21
58.12499079092399
 31
0.0000000000000107
  0
LINE
  5
17D5D
330
1F
100
AcDbEntity
  8
Web
100
AcDbLine
 10
593.0886650052009
 20
58.87499079092382
 30
0.0000000000000107
 11
593.0886650052009
 21
58.12499079092382
 31
0.0000000000000107
  0
LINE
  5
17D5E
330
1F
100
AcDbEntity
  8
Web
100
AcDbLine
 10
587.9272476822008
 20
59.24999079092398
 30
0.0000000000000107
 11
587.9272476822008
 21
58.12499079092399
 31
0.0000000000000107
  0
LINE
  5
17D5F
330
1F
100
AcDbEntity
  8
Web
100
AcDbLine
 10
590.1772476822009
 20
59.24999079092398
 30
0.0000000000000107
 11
590.1772476822009
 21
58.12499079092399
 31
0.0000000000000107
  0
ARC
  5
17D60
330
1F
100
AcDbEntity
  8
Web
100
AcDbCircle
 10
589.0522476822009
 20
59.24999079092398
 30
0.0000000000000107
 40
1.125
100
AcDbArc
 50
0.0
 51
180.0
  0
LINE
  5
17D61
330
1F
100
AcDbEntity
  8
Web
100
AcDbLine
 10
587.9272476822008
 20
58.12499079092399
 30
0.0000000000000107
 11
588.2001906822011
 21
58.12499079092399
 31
0.0000000000000107
  0
LINE
  5
17D62
330
1F
100
AcDbEntity
  8
Web
100
AcDbLine
 10
587.9272476822008
 20
58.93499079092411
 30
0.0000000000000107
 11
588.2781751536612
 21
58.32584746257774
 31
0.0000000000000107
  0
ARC
  5
17D63
330
1F
100
AcDbEntity
  8
Web
100
AcDbCircle
 10
588.2001906822011
 20
58.28092060856957
 30
0.0000000000000107
 40
0.09
100
AcDbArc
 50
0.0
 51
29.94624455264589
  0
LINE
  5
17D64
330
1F
100
AcDbEntity
  8
Web
100
AcDbLine
 10
588.2901906822009
 20
58.28092060856957
 30
0.0000000000000107
 11
588.2901906822009
 21
58.21499079092408
 31
0.0000000000000107
  0
ARC
  5
17D65
330
1F
100
AcDbEntity
  8
Web
100
AcDbCircle
 10
588.2001906822011
 20
58.21499079092408
 30
0.0000000000000107
 40
0.09
100
AcDbArc
 50
269.9999999999968
 51
0.0
  0
LINE
  5
17D66
330
1F
100
AcDbEntity
  8
Web
100
AcDbLine
 10
590.1772476822009
 20
58.12499079092399
 30
0.0000000000000107
 11
589.904304682201
 21
58.12499079092399
 31
0.0000000000000107
  0
LINE
  5
17D67
330
1F
100
AcDbEntity
  8
Web
100
AcDbLine
 10
590.1772476822009
 20
58.93499079092411
 30
0.0000000000000107
 11
589.8263202107409
 21
58.32584746257774
 31
0.0000000000000107
  0
ARC
  5
17D68
330
1F
100
AcDbEntity
  8
Web
100
AcDbCircle
 10
589.904304682201
 20
58.28092060856957
 30
0.0000000000000107
 40
0.09
100
AcDbArc
 50
150.0537554473537
 51
180.0
  0
LINE
  5
17D69
330
1F
100
AcDbEntity
  8
Web
100
AcDbLine
 10
589.8143046822008
 20
58.28092060856957
 30
0.0000000000000107
 11
589.8143046822008
 21
58.21499079092408
 31
0.0000000000000107
  0
ARC
  5
17D6A
330
1F
100
AcDbEntity
  8
Web
100
AcDbCircle
 10
589.904304682201
 20
58.21499079092408
 30
0.0000000000000107
 40
0.09
100
AcDbArc
 50
180.0
 51
270.0000000000033
  0
LINE
  5
17D6B
330
1F
100
AcDbEntity
  8
Web
100
AcDbLine
 10
603.5355154002005
 20
58.12499079092416
 30
0.0000000000000107
 11
602.1240980772009
 21
58.12499079092382
 31
0.0000000000000107
  0
LINE
  5
17D6C
330
1F
100
AcDbEntity
  8
Web
100
AcDbLine
 10
600.624098077201
 20
58.12499079092382
 30
0.0000000000000107
 11
597.7938815412008
 21
58.1249907909245
 31
0.0000000000000107
  0
ARC
  5
17D6D
330
1F
100
AcDbEntity
  8
Web
100
AcDbCircle
 10
596.8563815412009
 20
59.4374907909245
 30
0.0000000000000107
 40
0.9375
100
AcDbArc
 50
0.0
 51
90.0
  0
LINE
  5
17D6E
330
1F
100
AcDbEntity
  8
Web
100
AcDbLine
 10
597.7938815412008
 20
59.4374907909245
 30
0.0000000000000107
 11
597.7938815412008
 21
58.1249907909245
 31
0.0000000000000107
  0
ARC
  5
17D6F
330
1F
100
AcDbEntity
  8
Web
100
AcDbCircle
 10
601.3740980772009
 20
58.87499079092382
 30
0.0000000000000107
 40
0.75
100
AcDbArc
 50
0.0
 51
180.0
  0
LINE
  5
17D70
330
1F
100
AcDbEntity
  8
Web
100
AcDbLine
 10
602.1240980772009
 20
58.87499079092382
 30
0.0000000000000107
 11
602.1240980772009
 21
58.12499079092382
 31
0.0000000000000107
  0
LINE
  5
17D71
330
1F
100
AcDbEntity
  8
Web
100
AcDbLine
 10
600.624098077201
 20
58.87499079092382
 30
0.0000000000000107
 11
600.624098077201
 21
58.12499079092382
 31
0.0000000000000107
  0
LINE
  5
17D72
330
1F
100
AcDbEntity
  8
Web
100
AcDbLine
 10
605.7855154002005
 20
59.24999079092398
 30
0.0000000000000107
 11
605.7855154002005
 21
58.12499079092399
 31
0.0000000000000107
  0
LINE
  5
17D73
330
1F
100
AcDbEntity
  8
Web
100
AcDbLine
 10
603.5355154002005
 20
59.24999079092398
 30
0.0000000000000107
 11
603.5355154002005
 21
58.12499079092399
 31
0.0000000000000107
  0
ARC
  5
17D74
330
1F
100
AcDbEntity
  8
Web
100
AcDbCircle
 10
604.6605154002005
 20
59.24999079092398
 30
0.0000000000000107
 40
1.125
100
AcDbArc
 50
0.0
 51
180.0
  0
LINE
  5
17D75
330
1F
100
AcDbEntity
  8
Web
100
AcDbLine
 10
605.7855154002005
 20
58.12499079092416
 30
0.0000000000000107
 11
605.5125724002007
 21
58.12499079092399
 31
0.0000000000000107
  0
LINE
  5
17D76
330
1F
100
AcDbEntity
  8
Web
100
AcDbLine
 10
605.7855154002005
 20
58.93499079092411
 30
0.0000000000000107
 11
605.4345879287406
 21
58.32584746257791
 31
0.0000000000000107
  0
ARC
  5
17D77
330
1F
100
AcDbEntity
  8
Web
100
AcDbCircle
 10
605.5125724002007
 20
58.28092060856974
 30
0.0000000000000107
 40
0.09
100
AcDbArc
 50
150.0537554473537
 51
180.0
  0
LINE
  5
17D78
330
1F
100
AcDbEntity
  8
Web
100
AcDbLine
 10
605.4225724002004
 20
58.28092060856974
 30
0.0000000000000107
 11
605.4225724002004
 21
58.21499079092408
 31
0.0000000000000107
  0
ARC
  5
17D79
330
1F
100
AcDbEntity
  8
Web
100
AcDbCircle
 10
605.5125724002007
 20
58.21499079092408
 30
0.0000000000000107
 40
0.09
100
AcDbArc
 50
180.0
 51
270.0000000000033
  0
LINE
  5
17D7A
330
1F
100
AcDbEntity
  8
Web
100
AcDbLine
 10
603.5355154002005
 20
58.12499079092416
 30
0.0000000000000107
 11
603.8084584002007
 21
58.12499079092399
 31
0.0000000000000107
  0
LINE
  5
17D7B
330
1F
100
AcDbEntity
  8
Web
100
AcDbLine
 10
603.5355154002005
 20
58.93499079092411
 30
0.0000000000000107
 11
603.8864428716608
 21
58.32584746257791
 31
0.0000000000000107
  0
ARC
  5
17D7C
330
1F
100
AcDbEntity
  8
Web
100
AcDbCircle
 10
603.8084584002007
 20
58.28092060856974
 30
0.0000000000000107
 40
0.09
100
AcDbArc
 50
0.0
 51
29.94624455264589
  0
LINE
  5
17D7D
330
1F
100
AcDbEntity
  8
Web
100
AcDbLine
 10
603.8984584002006
 20
58.28092060856974
 30
0.0000000000000107
 11
603.8984584002006
 21
58.21499079092408
 31
0.0000000000000107
  0
ARC
  5
17D7E
330
1F
100
AcDbEntity
  8
Web
100
AcDbCircle
 10
603.8084584002007
 20
58.21499079092408
 30
0.0000000000000107
 40
0.09
100
AcDbArc
 50
269.9999999999968
 51
0.0
  0
LINE
  5
17D7F
330
1F
100
AcDbEntity
  8
Web
100
AcDbLine
 10
590.1772476822009
 20
78.37499079092416
 30
0.0000000000000107
 11
591.5886650052009
 21
78.37499079092416
 31
0.0000000000000107
  0
LINE
  5
17D80
330
1F
100
AcDbEntity
  8
Web
100
AcDbLine
 10
593.0886650052009
 20
78.37499079092484
 30
0.0000000000000107
 11
595.9188815412009
 21
78.37499079092416
 31
0.0000000000000107
  0
ARC
  5
17D81
330
1F
100
AcDbEntity
  8
Web
100
AcDbCircle
 10
596.8563815412009
 20
77.06249079092415
 30
0.0000000000000107
 40
0.9375
100
AcDbArc
 50
180.0
 51
270.0
  0
LINE
  5
17D82
330
1F
100
AcDbEntity
  8
Web
100
AcDbLine
 10
595.9188815412009
 20
77.06249079092415
 30
0.0000000000000107
 11
595.9188815412009
 21
78.37499079092416
 31
0.0000000000000107
  0
ARC
  5
17D83
330
1F
100
AcDbEntity
  8
Web
100
AcDbCircle
 10
592.3386650052009
 20
77.62499079092416
 30
0.0000000000000107
 40
0.75
100
AcDbArc
 50
180.0
 51
0.0
  0
LINE
  5
17D84
330
1F
100
AcDbEntity
  8
Web
100
AcDbLine
 10
591.5886650052009
 20
77.62499079092416
 30
0.0000000000000107
 11
591.5886650052009
 21
78.37499079092416
 31
0.0000000000000107
  0
LINE
  5
17D85
330
1F
100
AcDbEntity
  8
Web
100
AcDbLine
 10
593.0886650052009
 20
77.62499079092416
 30
0.0000000000000107
 11
593.0886650052009
 21
78.37499079092416
 31
0.0000000000000107
  0
LINE
  5
17D86
330
1F
100
AcDbEntity
  8
Web
100
AcDbLine
 10
587.9272476822008
 20
77.24999079092416
 30
0.0000000000000107
 11
587.9272476822008
 21
78.37499079092416
 31
0.0000000000000107
  0
LINE
  5
17D87
330
1F
100
AcDbEntity
  8
Web
100
AcDbLine
 10
590.1772476822009
 20
77.24999079092416
 30
0.0000000000000107
 11
590.1772476822009
 21
78.37499079092416
 31
0.0000000000000107
  0
ARC
  5
17D88
330
1F
100
AcDbEntity
  8
Web
100
AcDbCircle
 10
589.0522476822009
 20
77.24999079092416
 30
0.0000000000000107
 40
1.125
100
AcDbArc
 50
180.0
 51
0.0
  0
LINE
  5
17D89
330
1F
100
AcDbEntity
  8
Web
100
AcDbLine
 10
587.9272476822008
 20
78.37499079092416
 30
0.0000000000000107
 11
588.2001906822011
 21
78.37499079092416
 31
0.0000000000000107
  0
LINE
  5
17D8A
330
1F
100
AcDbEntity
  8
Web
100
AcDbLine
 10
587.9272476822008
 20
77.56499079092421
 30
0.0000000000000107
 11
588.2781751536612
 21
78.17413411927024
 31
0.0000000000000107
  0
ARC
  5
17D8B
330
1F
100
AcDbEntity
  8
Web
100
AcDbCircle
 10
588.2001906822011
 20
78.2190609732784
 30
0.0000000000000107
 40
0.09
100
AcDbArc
 50
330.0537554473541
 51
0.0
  0
LINE
  5
17D8C
330
1F
100
AcDbEntity
  8
Web
100
AcDbLine
 10
588.2901906822009
 20
78.2190609732784
 30
0.0000000000000107
 11
588.2901906822009
 21
78.28499079092424
 31
0.0000000000000107
  0
ARC
  5
17D8D
330
1F
100
AcDbEntity
  8
Web
100
AcDbCircle
 10
588.2001906822011
 20
78.28499079092424
 30
0.0000000000000107
 40
0.09
100
AcDbArc
 50
0.0
 51
90.00000000000325
  0
LINE
  5
17D8E
330
1F
100
AcDbEntity
  8
Web
100
AcDbLine
 10
590.1772476822009
 20
78.37499079092416
 30
0.0000000000000107
 11
589.904304682201
 21
78.37499079092416
 31
0.0000000000000107
  0
LINE
  5
17D8F
330
1F
100
AcDbEntity
  8
Web
100
AcDbLine
 10
590.1772476822009
 20
77.56499079092421
 30
0.0000000000000107
 11
589.8263202107409
 21
78.17413411927024
 31
0.0000000000000107
  0
ARC
  5
17D90
330
1F
100
AcDbEntity
  8
Web
100
AcDbCircle
 10
589.904304682201
 20
78.2190609732784
 30
0.0000000000000107
 40
0.09
100
AcDbArc
 50
180.0
 51
209.9462445526462
  0
LINE
  5
17D91
330
1F
100
AcDbEntity
  8
Web
100
AcDbLine
 10
589.8143046822008
 20
78.2190609732784
 30
0.0000000000000107
 11
589.8143046822008
 21
78.28499079092424
 31
0.0000000000000107
  0
ARC
  5
17D92
330
1F
100
AcDbEntity
  8
Web
100
AcDbCircle
 10
589.904304682201
 20
78.28499079092424
 30
0.0000000000000107
 40
0.09
100
AcDbArc
 50
89.99999999999674
 51
180.0
  0
LINE
  5
17D93
330
1F
100
AcDbEntity
  8
Web
100
AcDbLine
 10
603.5355154002005
 20
78.37499079092416
 30
0.0000000000000107
 11
602.1240980772009
 21
78.37499079092416
 31
0.0000000000000107
  0
LINE
  5
17D94
330
1F
100
AcDbEntity
  8
Web
100
AcDbLine
 10
600.624098077201
 20
78.37499079092484
 30
0.0000000000000107
 11
597.7938815412008
 21
78.37499079092416
 31
0.0000000000000107
  0
ARC
  5
17D95
330
1F
100
AcDbEntity
  8
Web
100
AcDbCircle
 10
596.8563815412009
 20
77.06249079092415
 30
0.0000000000000107
 40
0.9375
100
AcDbArc
 50
270.0
 51
0.0
  0
LINE
  5
17D96
330
1F
100
AcDbEntity
  8
Web
100
AcDbLine
 10
597.7938815412008
 20
77.06249079092415
 30
0.0000000000000107
 11
597.7938815412008
 21
78.37499079092416
 31
0.0000000000000107
  0
ARC
  5
17D97
330
1F
100
AcDbEntity
  8
Web
100
AcDbCircle
 10
601.3740980772009
 20
77.62499079092416
 30
0.0000000000000107
 40
0.75
100
AcDbArc
 50
180.0
 51
0.0
  0
LINE
  5
17D98
330
1F
100
AcDbEntity
  8
Web
100
AcDbLine
 10
602.1240980772009
 20
77.62499079092416
 30
0.0000000000000107
 11
602.1240980772009
 21
78.37499079092416
 31
0.0000000000000107
  0
LINE
  5
17D99
330
1F
100
AcDbEntity
  8
Web
100
AcDbLine
 10
600.624098077201
 20
77.62499079092416
 30
0.0000000000000107
 11
600.624098077201
 21
78.37499079092416
 31
0.0000000000000107
  0
LINE
  5
17D9A
330
1F
100
AcDbEntity
  8
Web
100
AcDbLine
 10
605.7855154002005
 20
77.24999079092416
 30
0.0000000000000107
 11
605.7855154002005
 21
78.37499079092416
 31
0.0000000000000107
  0
LINE
  5
17D9B
330
1F
100
AcDbEntity
  8
Web
100
AcDbLine
 10
603.5355154002005
 20
77.24999079092416
 30
0.0000000000000107
 11
603.5355154002005
 21
78.37499079092416
 31
0.0000000000000107
  0
ARC
  5
17D9C
330
1F
100
AcDbEntity
  8
Web
100
AcDbCircle
 10
604.6605154002005
 20
77.24999079092416
 30
0.0000000000000107
 40
1.125
100
AcDbArc
 50
180.0
 51
0.0
  0
LINE
  5
17D9D
330
1F
100
AcDbEntity
  8
Web
100
AcDbLine
 10
605.7855154002005
 20
78.37499079092416
 30
0.0000000000000107
 11
605.5125724002007
 21
78.37499079092416
 31
0.0000000000000107
  0
LINE
  5
17D9E
330
1F
100
AcDbEntity
  8
Web
100
AcDbLine
 10
605.7855154002005
 20
77.56499079092421
 30
0.0000000000000107
 11
605.4345879287406
 21
78.17413411927024
 31
0.0000000000000107
  0
ARC
  5
17D9F
330
1F
100
AcDbEntity
  8
Web
100
AcDbCircle
 10
605.5125724002007
 20
78.2190609732784
 30
0.0000000000000107
 40
0.09
100
AcDbArc
 50
180.0
 51
209.9462445526462
  0
LINE
  5
17DA0
330
1F
100
AcDbEntity
  8
Web
100
AcDbLine
 10
605.4225724002004
 20
78.2190609732784
 30
0.0000000000000107
 11
605.4225724002004
 21
78.28499079092424
 31
0.0000000000000107
  0
ARC
  5
17DA1
330
1F
100
AcDbEntity
  8
Web
100
AcDbCircle
 10
605.5125724002007
 20
78.28499079092424
 30
0.0000000000000107
 40
0.09
100
AcDbArc
 50
89.99999999999674
 51
180.0
  0
LINE
  5
17DA2
330
1F
100
AcDbEntity
  8
Web
100
AcDbLine
 10
603.5355154002005
 20
78.37499079092416
 30
0.0000000000000107
 11
603.8084584002007
 21
78.37499079092416
 31
0.0000000000000107
  0
LINE
  5
17DA3
330
1F
100
AcDbEntity
  8
Web
100
AcDbLine
 10
603.5355154002005
 20
77.56499079092421
 30
0.0000000000000107
 11
603.8864428716608
 21
78.17413411927024
 31
0.0000000000000107
  0
ARC
  5
17DA4
330
1F
100
AcDbEntity
  8
Web
100
AcDbCircle
 10
603.8084584002007
 20
78.2190609732784
 30
0.0000000000000107
 40
0.09
100
AcDbArc
 50
330.0537554473541
 51
0.0
  0
LINE
  5
17DA5
330
1F
100
AcDbEntity
  8
Web
100
AcDbLine
 10
603.8984584002006
 20
78.2190609732784
 30
0.0000000000000107
 11
603.8984584002006
 21
78.28499079092424
 31
0.0000000000000107
  0
ARC
  5
17DA6
330
1F
100
AcDbEntity
  8
Web
100
AcDbCircle
 10
603.8084584002007
 20
78.28499079092424
 30
0.0000000000000107
 40
0.09
100
AcDbArc
 50
0.0
 51
90.00000000000325
  0
LWPOLYLINE
  5
17DA7
330
1F
100
AcDbEntity
  8
Webs
  6
Continuous
100
AcDbPolyline
 90
        2
 70
     0
 43
0.0
 10
587.9272476822008
 20
106.124990790924
 10
584.8563815412009
 20
106.124990790924
  0
LWPOLYLINE
  5
17DA8
330
1F
100
AcDbEntity
  8
Webs
  6
Continuous
100
AcDbPolyline
 90
        2
 70
     0
 43
0.0
 10
584.8563815412009
 20
112.1020763387923
 42
0.2719204724283024
 10
587.3715815412008
 20
110.6249907909241
  0
LWPOLYLINE
  5
17DAC
330
1F
100
AcDbEntity
  8
Webs
  6
Continuous
100
AcDbPolyline
 90
        2
 70
     0
 43
0.0
 10
606.3411815412006
 20
110.624990790924
 10
587.3715815412008
 20
110.624990790924
  0
LWPOLYLINE
  5
17DAE
330
1F
100
AcDbEntity
  8
Webs
  6
Continuous
100
AcDbPolyline
 90
        2
 70
     0
 43
0.0
 10
605.7855154002005
 20
106.124990790924
 10
608.8563815412008
 20
106.124990790924
  0
LWPOLYLINE
  5
17DAF
330
1F
100
AcDbEntity
  8
Webs
  6
Continuous
100
AcDbPolyline
 90
        2
 70
     0
 43
0.0
 10
606.3411815412006
 20
110.6249907909241
 42
0.2719204724283024
 10
608.8563815412008
 20
112.1020763387923
  0
LINE
  5
17DB2
330
1F
100
AcDbEntity
  8
Web
100
AcDbLine
 10
590.1772476822009
 20
106.124990790924
 30
0.0000000000000107
 11
591.5886650052009
 21
106.124990790924
 31
0.0000000000000107
  0
LINE
  5
17DB3
330
1F
100
AcDbEntity
  8
Web
100
AcDbLine
 10
593.0886650052009
 20
106.1249907909237
 30
0.0000000000000107
 11
595.9188815412009
 21
106.1249907909245
 31
0.0000000000000107
  0
ARC
  5
17DB4
330
1F
100
AcDbEntity
  8
Web
100
AcDbCircle
 10
596.8563815412009
 20
107.4374907909245
 30
0.0000000000000107
 40
0.9375
100
AcDbArc
 50
90.0
 51
180.0
  0
LINE
  5
17DB5
330
1F
100
AcDbEntity
  8
Web
100
AcDbLine
 10
595.9188815412009
 20
107.4374907909245
 30
0.0000000000000107
 11
595.9188815412009
 21
106.1249907909245
 31
0.0000000000000107
  0
ARC
  5
17DB6
330
1F
100
AcDbEntity
  8
Web
100
AcDbCircle
 10
592.3386650052009
 20
106.874990790924
 30
0.0000000000000107
 40
0.75
100
AcDbArc
 50
0.0
 51
180.0
  0
LINE
  5
17DB7
330
1F
100
AcDbEntity
  8
Web
100
AcDbLine
 10
591.5886650052009
 20
106.874990790924
 30
0.0000000000000107
 11
591.5886650052009
 21
106.124990790924
 31
0.0000000000000107
  0
LINE
  5
17DB8
330
1F
100
AcDbEntity
  8
Web
100
AcDbLine
 10
593.0886650052009
 20
106.8749907909238
 30
0.0000000000000107
 11
593.0886650052009
 21
106.1249907909238
 31
0.0000000000000107
  0
LINE
  5
17DB9
330
1F
100
AcDbEntity
  8
Web
100
AcDbLine
 10
587.9272476822008
 20
107.249990790924
 30
0.0000000000000107
 11
587.9272476822008
 21
106.124990790924
 31
0.0000000000000107
  0
LINE
  5
17DBA
330
1F
100
AcDbEntity
  8
Web
100
AcDbLine
 10
590.1772476822009
 20
107.249990790924
 30
0.0000000000000107
 11
590.1772476822009
 21
106.124990790924
 31
0.0000000000000107
  0
ARC
  5
17DBB
330
1F
100
AcDbEntity
  8
Web
100
AcDbCircle
 10
589.0522476822009
 20
107.249990790924
 30
0.0000000000000107
 40
1.125
100
AcDbArc
 50
0.0
 51
180.0
  0
LINE
  5
17DBC
330
1F
100
AcDbEntity
  8
Web
100
AcDbLine
 10
587.9272476822008
 20
106.124990790924
 30
0.0000000000000107
 11
588.2001906822011
 21
106.124990790924
 31
0.0000000000000107
  0
LINE
  5
17DBD
330
1F
100
AcDbEntity
  8
Web
100
AcDbLine
 10
587.9272476822008
 20
106.9349907909241
 30
0.0000000000000107
 11
588.2781751536612
 21
106.3258474625777
 31
0.0000000000000107
  0
ARC
  5
17DBE
330
1F
100
AcDbEntity
  8
Web
100
AcDbCircle
 10
588.2001906822011
 20
106.2809206085695
 30
0.0000000000000107
 40
0.09
100
AcDbArc
 50
0.0
 51
29.94624455264589
  0
LINE
  5
17DBF
330
1F
100
AcDbEntity
  8
Web
100
AcDbLine
 10
588.2901906822009
 20
106.2809206085695
 30
0.0000000000000107
 11
588.2901906822009
 21
106.214990790924
 31
0.0000000000000107
  0
ARC
  5
17DC0
330
1F
100
AcDbEntity
  8
Web
100
AcDbCircle
 10
588.2001906822011
 20
106.214990790924
 30
0.0000000000000107
 40
0.09
100
AcDbArc
 50
269.9999999999968
 51
0.0
  0
LINE
  5
17DC1
330
1F
100
AcDbEntity
  8
Web
100
AcDbLine
 10
590.1772476822009
 20
106.124990790924
 30
0.0000000000000107
 11
589.904304682201
 21
106.124990790924
 31
0.0000000000000107
  0
LINE
  5
17DC2
330
1F
100
AcDbEntity
  8
Web
100
AcDbLine
 10
590.1772476822009
 20
106.9349907909241
 30
0.0000000000000107
 11
589.8263202107409
 21
106.3258474625777
 31
0.0000000000000107
  0
ARC
  5
17DC3
330
1F
100
AcDbEntity
  8
Web
100
AcDbCircle
 10
589.904304682201
 20
106.2809206085695
 30
0.0000000000000107
 40
0.09
100
AcDbArc
 50
150.0537554473537
 51
180.0
  0
LINE
  5
17DC4
330
1F
100
AcDbEntity
  8
Web
100
AcDbLine
 10
589.8143046822008
 20
106.2809206085695
 30
0.0000000000000107
 11
589.8143046822008
 21
106.214990790924
 31
0.0000000000000107
  0
ARC
  5
17DC5
330
1F
100
AcDbEntity
  8
Web
100
AcDbCircle
 10
589.904304682201
 20
106.214990790924
 30
0.0000000000000107
 40
0.09
100
AcDbArc
 50
180.0
 51
270.0000000000033
  0
LINE
  5
17DC6
330
1F
100
AcDbEntity
  8
Web
100
AcDbLine
 10
603.5355154002005
 20
106.1249907909241
 30
0.0000000000000107
 11
602.1240980772009
 21
106.1249907909238
 31
0.0000000000000107
  0
LINE
  5
17DC7
330
1F
100
AcDbEntity
  8
Web
100
AcDbLine
 10
600.624098077201
 20
106.1249907909238
 30
0.0000000000000107
 11
597.7938815412008
 21
106.1249907909245
 31
0.0000000000000107
  0
ARC
  5
17DC8
330
1F
100
AcDbEntity
  8
Web
100
AcDbCircle
 10
596.8563815412009
 20
107.4374907909245
 30
0.0000000000000107
 40
0.9375
100
AcDbArc
 50
0.0
 51
90.0
  0
LINE
  5
17DC9
330
1F
100
AcDbEntity
  8
Web
100
AcDbLine
 10
597.7938815412008
 20
107.4374907909245
 30
0.0000000000000107
 11
597.7938815412008
 21
106.1249907909245
 31
0.0000000000000107
  0
ARC
  5
17DCA
330
1F
100
AcDbEntity
  8
Web
100
AcDbCircle
 10
601.3740980772009
 20
106.8749907909238
 30
0.0000000000000107
 40
0.75
100
AcDbArc
 50
0.0
 51
180.0
  0
LINE
  5
17DCB
330
1F
100
AcDbEntity
  8
Web
100
AcDbLine
 10
602.1240980772009
 20
106.8749907909238
 30
0.0000000000000107
 11
602.1240980772009
 21
106.1249907909238
 31
0.0000000000000107
  0
LINE
  5
17DCC
330
1F
100
AcDbEntity
  8
Web
100
AcDbLine
 10
600.624098077201
 20
106.8749907909238
 30
0.0000000000000107
 11
600.624098077201
 21
106.1249907909238
 31
0.0000000000000107
  0
LINE
  5
17DCD
330
1F
100
AcDbEntity
  8
Web
100
AcDbLine
 10
605.7855154002005
 20
107.249990790924
 30
0.0000000000000107
 11
605.7855154002005
 21
106.124990790924
 31
0.0000000000000107
  0
LINE
  5
17DCE
330
1F
100
AcDbEntity
  8
Web
100
AcDbLine
 10
603.5355154002005
 20
107.249990790924
 30
0.0000000000000107
 11
603.5355154002005
 21
106.124990790924
 31
0.0000000000000107
  0
ARC
  5
17DCF
330
1F
100
AcDbEntity
  8
Web
100
AcDbCircle
 10
604.6605154002005
 20
107.249990790924
 30
0.0000000000000107
 40
1.125
100
AcDbArc
 50
0.0
 51
180.0
  0
LINE
  5
17DD0
330
1F
100
AcDbEntity
  8
Web
100
AcDbLine
 10
605.7855154002005
 20
106.1249907909241
 30
0.0000000000000107
 11
605.5125724002007
 21
106.124990790924
 31
0.0000000000000107
  0
LINE
  5
17DD1
330
1F
100
AcDbEntity
  8
Web
100
AcDbLine
 10
605.7855154002005
 20
106.9349907909241
 30
0.0000000000000107
 11
605.4345879287406
 21
106.3258474625779
 31
0.0000000000000107
  0
ARC
  5
17DD2
330
1F
100
AcDbEntity
  8
Web
100
AcDbCircle
 10
605.5125724002007
 20
106.2809206085697
 30
0.0000000000000107
 40
0.09
100
AcDbArc
 50
150.0537554473537
 51
180.0
  0
LINE
  5
17DD3
330
1F
100
AcDbEntity
  8
Web
100
AcDbLine
 10
605.4225724002004
 20
106.2809206085697
 30
0.0000000000000107
 11
605.4225724002004
 21
106.214990790924
 31
0.0000000000000107
  0
ARC
  5
17DD4
330
1F
100
AcDbEntity
  8
Web
100
AcDbCircle
 10
605.5125724002007
 20
106.214990790924
 30
0.0000000000000107
 40
0.09
100
AcDbArc
 50
180.0
 51
270.0000000000033
  0
LINE
  5
17DD5
330
1F
100
AcDbEntity
  8
Web
100
AcDbLine
 10
603.5355154002005
 20
106.1249907909241
 30
0.0000000000000107
 11
603.8084584002007
 21
106.124990790924
 31
0.0000000000000107
  0
LINE
  5
17DD6
330
1F
100
AcDbEntity
  8
Web
100
AcDbLine
 10
603.5355154002005
 20
106.9349907909241
 30
0.0000000000000107
 11
603.8864428716608
 21
106.3258474625779
 31
0.0000000000000107
  0
ARC
  5
17DD7
330
1F
100
AcDbEntity
  8
Web
100
AcDbCircle
 10
603.8084584002007
 20
106.2809206085697
 30
0.0000000000000107
 40
0.09
100
AcDbArc
 50
0.0
 51
29.94624455264589
  0
LINE
  5
17DD8
330
1F
100
AcDbEntity
  8
Web
100
AcDbLine
 10
603.8984584002006
 20
106.2809206085697
 30
0.0000000000000107
 11
603.8984584002006
 21
106.214990790924
 31
0.0000000000000107
  0
ARC
  5
17DD9
330
1F
100
AcDbEntity
  8
Web
100
AcDbCircle
 10
603.8084584002007
 20
106.214990790924
 30
0.0000000000000107
 40
0.09
100
AcDbArc
 50
269.9999999999968
 51
0.0
  0
LINE
  5
17E02
330
1F
100
AcDbEntity
  8
steel
  6
HIDDEN
100
AcDbLine
 10
573.6063815412008
 20
92.24999079092407
 30
0.0
 11
573.606381541201
 21
112.2732842867966
 31
0.0
  0
LINE
  5
17E04
102
{ACAD_REACTORS
330
189B0
102
}
330
1F
100
AcDbEntity
  8
steel
  6
HIDDEN
100
AcDbLine
 10
564.606381541201
 20
105.8353282547709
 30
0.0
 11
564.6063815412008
 21
92.24999079092407
 31
0.0
  0
CIRCLE
  5
17E05
330
1F
100
AcDbEntity
  8
steel
  6
HIDDEN
100
AcDbCircle
 10
569.1063815412008
 20
96.74999079092408
 30
0.0
 40
0.9375
  0
HATCH
  5
17E0A
330
1F
100
AcDbEntity
  8
steel
100
AcDbHatch
 10
0.0
 20
0.0
 30
0.0
210
0.0
220
0.0
230
1.0
  2
ANSI31
 70
     0
 71
     0
 91
        1
 92
        1
 93
        9
 72
     1
 10
576.3537168531136
 20
88.85214477195814
 11
576.3537168531136
 21
87.37499079092408
 72
     1
 10
576.3537168531136
 20
87.37499079092406
 11
596.1240980772008
 21
87.37499079092406
 72
     2
 10
596.124098077201
 20
81.37499079092407
 40
5.999999999999997
 50
270.0
 51
359.9776745741168
 73
     0
 72
     1
 10
602.1240976217145
 20
81.37732870399634
 11
603.9990977301637
 21
81.37732870399634
 72
     2
 10
596.124098077201
 20
81.37499079092412
 40
7.874999999999985
 50
0.0170098481110607
 51
90.0
 73
     1
 72
     1
 10
596.124098077201
 20
89.24999079092414
 11
564.6063815412008
 21
89.24999079092408
 72
     1
 10
564.6063815412008
 20
89.24999079092406
 11
564.6063815412008
 21
88.6146179478003
 72
     2
 10
565.8063815412008
 20
85.70214477195809
 40
3.149999999999999
 50
247.6073121946
 51
270.0
 73
     0
 72
     1
 10
565.8063815412008
 20
88.85214477195814
 11
576.3537168531136
 21
88.85214477195814
 97
        0
 75
     0
 76
     1
 52
45.0
 41
3.0
 77
     0
 78
     1
 53
90.0
 43
124.1044986525178
 44
-147.0133721999375
 45
-0.375
 46
0.0000000000000001
 79
     0
 98
        1
 10
588.7672053181465
 20
87.58259180499008
1001
ACAD
1010
0.0
1020
0.0
1030
0.0
  0
LINE
  5
17E0B
330
1F
100
AcDbEntity
  8
steel
100
AcDbLine
 10
564.6063815412008
 20
89.24999079092406
 30
0.0
 11
564.6063815412008
 21
88.6146179478003
 31
0.0
  0
LWPOLYLINE
  5
17E0C
330
1F
100
AcDbEntity
  8
steel
100
AcDbPolyline
 90
        3
 70
     0
 43
0.0
 10
565.1418620179136
 20
87.37499079092406
 10
596.124098077201
 20
87.37499079092406
 42
-0.414099440493801
 10
602.1240976217145
 20
81.37732870399634
 42
-0.414099440493801
  0
HATCH
  5
17E0D
330
1F
100
AcDbEntity
  8
steel
100
AcDbHatch
 10
0.0
 20
0.0
 30
0.0
210
0.0
220
0.0
230
1.0
  2
ANSI31
 70
     0
 71
     0
 91
        4
 92
        5
 93
        4
 72
     1
 10
602.1240980772009
 20
65.70859281746987
 11
603.9990980772008
 21
65.70859281746987
 72
     1
 10
603.9990980772008
 20
65.70859281746987
 11
603.9990980772009
 21
80.15643961600114
 72
     1
 10
603.9990980772009
 20
80.15643961600114
 11
602.1240980772009
 21
80.15643961600114
 72
     1
 10
602.1240980772009
 20
80.15643961600114
 11
602.1240980772009
 21
65.70859281746987
 97
        0
 92
        1
 93
        4
 72
     1
 10
602.1240980772009
 20
49.59217846420341
 11
603.9990980772009
 21
49.59217846420346
 72
     1
 10
603.9990980772009
 20
49.59217846420347
 11
603.9990980772009
 21
64.50859281746994
 72
     1
 10
603.9990980772009
 20
64.50859281746994
 11
602.1240980772009
 21
64.5085928174699
 72
     1
 10
602.1240980772009
 20
64.50859281746989
 11
602.1240980772009
 21
49.59217846420341
 97
        0
 92
        1
 93
        4
 72
     1
 10
602.1240980772009
 20
47.58832372081656
 11
603.9990980772009
 21
47.58832372081656
 72
     1
 10
603.9990980772009
 20
47.58832372081656
 11
603.9990980772009
 21
48.39217846420355
 72
     1
 10
603.9990980772009
 20
48.39217846420353
 11
602.1240980772009
 21
48.39217846420358
 72
     1
 10
602.1240980772009
 20
48.3921784642036
 11
602.1240980772009
 21
47.58832372081656
 97
        0
 92
        1
 93
        4
 72
     1
 10
603.9990980772008
 20
46.38832372081651
 11
602.1240980772007
 21
46.38832372081651
 72
     1
 10
602.1240980772009
 20
46.38832372081651
 11
602.124098077201
 21
40.613534298087
 72
     1
 10
602.1240980772009
 20
40.61353429808701
 11
603.9990980772009
 21
40.61353429808701
 72
     1
 10
603.9990980772009
 20
40.61353429808701
 11
603.9990980772008
 21
46.38832372081653
 97
        0
 75
     0
 76
     1
 52
45.0
 41
3.0
 77
     0
 78
     1
 53
90.0
 43
124.1044986525178
 44
-147.0133721999375
 45
-0.375
 46
0.0000000000000001
 79
     0
 47
0.0197466242748918
 98
        2
 10
603.061598077201
 20
60.23715447055105
 10
603.061598077201
 20
60.23715447055105
1001
ACAD
1010
0.0
1020
0.0
1030
0.0
  0
LWPOLYLINE
  5
17E0E
330
1F
100
AcDbEntity
  8
steel
100
AcDbPolyline
 90
        2
 70
     0
 43
0.0
 10
602.1240980772009
 20
64.50859281746994
 10
602.1240980772009
 20
49.59217846420347
  0
LWPOLYLINE
  5
17E0F
330
1F
100
AcDbEntity
  8
steel
100
AcDbPolyline
 90
        2
 70
     0
 43
0.0
 10
602.1240980772009
 20
48.39217846420353
 10
602.1240980772009
 20
47.58832372081656
  0
LWPOLYLINE
  5
17E10
330
1F
100
AcDbEntity
  8
steel
100
AcDbPolyline
 90
        2
 70
     0
 43
0.0
 10
602.1240980772009
 20
46.38832372081651
 10
602.1240980772009
 20
40.61353429808701
  0
LWPOLYLINE
  5
17E11
102
{ACAD_REACTORS
330
17F9F
102
}
330
1F
100
AcDbEntity
  8
steel
100
AcDbPolyline
 90
        3
 70
     0
 43
0.0
 10
564.6063815412008
 20
89.24999079092406
 10
596.124098077201
 20
89.24999079092406
 42
-0.4141266115355494
 10
603.9990977301636
 20
81.37732870399634
 42
-0.4141266115355494
  0
LWPOLYLINE
  5
17E12
330
1F
100
AcDbEntity
  8
steel
100
AcDbPolyline
 90
        2
 70
     0
 43
0.0
 10
603.9990980772009
 20
80.15643961600114
 10
603.9990980772009
 20
65.70859281746987
  0
LWPOLYLINE
  5
17E13
330
1F
100
AcDbEntity
  8
steel
100
AcDbPolyline
 90
        2
 70
     0
 43
0.0
 10
603.9990980772009
 20
64.50859281746994
 10
603.9990980772009
 20
49.59217846420347
  0
LWPOLYLINE
  5
17E14
330
1F
100
AcDbEntity
  8
steel
100
AcDbPolyline
 90
        2
 70
     0
 43
0.0
 10
603.9990980772009
 20
48.39217846420353
 10
603.9990980772009
 20
47.58832372081656
  0
LWPOLYLINE
  5
17E15
330
1F
100
AcDbEntity
  8
steel
100
AcDbPolyline
 90
        2
 70
     0
 43
0.0
 10
603.9990980772009
 20
46.38832372081651
 10
603.9990980772009
 20
40.61353429808701
  0
LINE
  5
17E16
330
1F
100
AcDbEntity
  8
steel
100
AcDbLine
 10
603.9990980772009
 20
40.61353429808701
 30
0.0
 11
602.1240980772009
 21
40.61353429808701
 31
0.0
  0
HATCH
  5
17E17
330
1F
100
AcDbEntity
  8
steel
100
AcDbHatch
 10
0.0
 20
0.0
 30
0.0
210
0.0
220
0.0
230
1.0
  2
ANSI31
 70
     0
 71
     0
 91
        4
 92
        5
 93
        8
 72
     1
 10
562.8063815412008
 20
81.3773287039964
 11
564.0063815412008
 21
81.3773287039964
 72
     1
 10
564.0063815412008
 20
81.3773287039964
 11
564.0063815412008
 21
85.70214477195815
 72
     2
 10
565.8063815412008
 20
85.70214477195813
 40
1.799999999999982
 50
180.0
 51
270.0
 73
     0
 72
     1
 10
565.8063815412008
 20
87.50214477195811
 11
576.2037168531136
 21
87.50214477195811
 72
     1
 10
576.2037168531136
 20
87.50214477195811
 11
576.2037168531136
 21
88.70214477195814
 72
     1
 10
576.2037168531136
 20
88.70214477195814
 11
565.8063815412008
 21
88.70214477195814
 72
     2
 10
565.8063815412008
 20
85.70214477195813
 40
2.999999999999999
 50
90.0
 51
180.0
 73
     1
 72
     1
 10
562.8063815412008
 20
85.70214477195813
 11
562.8063815412008
 21
81.37732870399638
 97
        0
 92
        5
 93
        6
 72
     1
 10
581.2306844273203
 20
48.39217846420353
 11
579.6943659858347
 21
48.39217846420353
 72
     2
 10
583.2744422436616
 20
50.58832372081645
 40
4.199999999999936
 50
211.5264235356018
 51
270.0000000000012
 73
     1
 72
     1
 10
583.2744422436617
 20
46.38832372081651
 11
606.9484935757136
 21
46.38832372081651
 72
     1
 10
606.9484935757136
 20
46.38832372081651
 11
606.9484935757136
 21
47.58832372081653
 72
     1
 10
606.9484935757136
 20
47.58832372081656
 11
583.2744422436617
 21
47.5883237208166
 72
     2
 10
583.2744422436617
 20
50.58832372081659
 40
3.000000000000014
 50
90.0
 51
132.9416037632882
 73
     0
 97
        0
 92
        1
 93
        4
 72
     1
 10
572.2643052583576
 20
64.50859281746994
 11
570.8974000853238
 21
64.50859281746994
 72
     1
 10
570.8974000853238
 20
64.50859281746994
 11
579.0336260961964
 21
49.59217846420347
 72
     1
 10
579.0336260961964
 20
49.59217846420347
 11
580.4005312692301
 21
49.59217846420347
 72
     1
 10
580.4005312692302
 20
49.59217846420347
 11
572.2643052583576
 21
64.50859281746994
 97
        0
 92
        1
 93
        8
 72
     1
 10
570.2428546307785
 20
65.70859281746982
 11
571.6097598038124
 21
65.70859281746987
 72
     1
 10
571.6097598038122
 20
65.70859281746987
 11
564.2261695099548
 21
79.24517502287475
 72
     2
 10
565.8063815412008
 20
80.1071088580997
 40
1.799999999999983
 50
151.3895403340366
 51
180.0000000000027
 73
     0
 72
     1
 10
564.0063815412008
 20
80.10710885809983
 11
564.0063815412008
 21
80.17732870399639
 72
     1
 10
564.0063815412008
 20
80.17732870399635
 11
562.8063815412008
 21
80.17732870399635
 72
     1
 10
562.8063815412008
 20
80.17732870399635
 11
562.8063815412008
 21
80.10710885809979
 72
     2
 10
565.8063815412007
 20
80.10710885809983
 40
2.999999999999911
 50
180.0
 51
208.6104596659656
 73
     1
 72
     1
 10
563.1726948224577
 20
78.6705524660581
 11
570.2428546307785
 21
65.70859281746982
 97
        0
 75
     0
 76
     1
 52
90.0
 41
3.0
 77
     0
 78
     1
 53
135.0
 43
124.1044986525178
 44
-147.0133721999375
 45
-0.2651650429449553
 46
-0.2651650429449553
 79
     0
 47
0.0325529875475655
 98
        3
 10
578.0442342046228
 20
63.67540580516211
 10
581.0546298050785
 20
57.05695392619396
 10
581.0546298050785
 20
57.05695392619396
1001
ACAD
1010
0.0
1020
0.0
1030
0.0
  0
LWPOLYLINE
  5
17E18
330
1F
100
AcDbEntity
  8
steel
100
AcDbPolyline
 90
        4
 70
     0
 43
0.0
 10
576.2037168531136
 20
87.50214477195811
 10
565.8063815412008
 20
87.50214477195811
 42
0.4142135623730895
 10
564.0063815412008
 20
85.70214477195813
 10
564.0063815412008
 20
81.37732870399634
  0
LWPOLYLINE
  5
17E19
330
1F
100
AcDbEntity
  8
steel
100
AcDbPolyline
 90
        4
 70
     0
 43
0.0
 10
564.0063815412008
 20
80.1773287039964
 10
564.0063815412008
 20
80.10710885809983
 42
0.1254892417104844
 10
564.2261695099549
 20
79.24517502287475
 10
571.6097598038121
 20
65.70859281746987
  0
LWPOLYLINE
  5
17E1A
330
1F
100
AcDbEntity
  8
steel
100
AcDbPolyline
 90
        2
 70
     0
 43
0.0
 10
572.2643052583576
 20
64.50859281746994
 10
580.4005312692302
 20
49.59217846420347
  0
LWPOLYLINE
  5
17E1B
330
1F
100
AcDbEntity
  8
steel
100
AcDbPolyline
 90
        3
 70
     0
 43
0.0
 10
581.2306844273203
 20
48.39217846420353
 42
0.1895919588249211
 10
583.2744422436617
 20
47.58832372081656
 10
606.9484935757136
 20
47.58832372081656
  0
LWPOLYLINE
  5
17E1C
330
1F
100
AcDbEntity
  8
steel
100
AcDbPolyline
 90
        4
 70
     0
 43
0.0
 10
576.2037168531136
 20
88.70214477195814
 10
565.8063815412008
 20
88.70214477195814
 42
0.4142135623730984
 10
562.8063815412008
 20
85.70214477195813
 10
562.8063815412008
 20
81.37732870399634
  0
LWPOLYLINE
  5
17E1D
330
1F
100
AcDbEntity
  8
steel
100
AcDbPolyline
 90
        4
 70
     0
 43
0.0
 10
562.8063815412008
 20
80.1773287039964
 10
562.8063815412008
 20
80.10710885809983
 42
0.1254892417104839
 10
563.1726948224577
 20
78.6705524660581
 10
570.2428546307785
 20
65.70859281746987
  0
LWPOLYLINE
  5
17E1E
330
1F
100
AcDbEntity
  8
steel
100
AcDbPolyline
 90
        2
 70
     0
 43
0.0
 10
570.8974000853239
 20
64.50859281746994
 10
579.0336260961964
 20
49.59217846420347
  0
LWPOLYLINE
  5
17E1F
330
1F
100
AcDbEntity
  8
steel
100
AcDbPolyline
 90
        3
 70
     0
 43
0.0
 10
579.6943659858348
 20
48.39217846420353
 42
0.2608233383357073
 10
583.2744422436617
 20
46.38832372081651
 10
606.9484935757136
 20
46.38832372081651
  0
LINE
  5
17E20
330
1F
100
AcDbEntity
  8
steel
100
AcDbLine
 10
576.2037168531136
 20
87.50214477195811
 30
0.0
 11
576.2037168531136
 21
88.70214477195814
 31
0.0
  0
LINE
  5
17E21
330
1F
100
AcDbEntity
  8
steel
100
AcDbLine
 10
606.9484935757136
 20
47.58832372081656
 30
0.0
 11
606.9484935757136
 21
46.38832372081651
 31
0.0
  0
HATCH
  5
17E22
330
1F
100
AcDbEntity
  8
steel
100
AcDbHatch
 10
0.0
 20
0.0
 30
0.0
210
0.0
220
0.0
230
1.0
  2
ANSI31
 70
     0
 71
     1
 91
        1
 92
        1
 93
        4
 72
     1
 10
562.2063815412009
 20
80.1773287039964
 11
604.6495527081451
 21
80.1773287039964
 72
     2
 10
604.6495527081451
 20
80.77732870399637
 40
0.5999999999999659
 50
270.0
 51
450.0
 73
     1
 72
     1
 10
604.6495527081451
 20
81.37732870399634
 11
562.2063815412009
 21
81.37732870399634
 72
     2
 10
562.2063815412009
 20
80.77732870399637
 40
0.5999999999999659
 50
90.0
 51
270.0
 73
     1
 97
        4
330
17E25
330
17E26
330
17E24
330
17E23
 75
     0
 76
     1
 52
180.0
 41
3.0
 77
     0
 78
     1
 53
225.0
 43
124.1044986525178
 44
-147.0133721999375
 45
0.2651650429449552
 46
-0.2651650429449553
 79
     0
 98
        1
 10
124.1044986525178
 20
-147.0133721999375
1001
ACAD
1010
0.0
1020
0.0
1030
0.0
  0
ARC
  5
17E23
102
{ACAD_REACTORS
330
17E22
102
}
330
1F
100
AcDbEntity
  8
steel
100
AcDbCircle
 10
562.2063815412009
 20
80.77732870399637
 30
0.0
 40
0.5999999999999659
100
AcDbArc
 50
90.0
 51
270.0
  0
LINE
  5
17E24
102
{ACAD_REACTORS
330
17E22
102
}
330
1F
100
AcDbEntity
  8
steel
100
AcDbLine
 10
562.2063815412009
 20
81.37732870399634
 30
0.0
 11
604.6495527081451
 21
81.37732870399634
 31
0.0
  0
LINE
  5
17E25
102
{ACAD_REACTORS
330
17E22
102
}
330
1F
100
AcDbEntity
  8
steel
100
AcDbLine
 10
562.2063815412009
 20
80.1773287039964
 30
0.0
 11
604.6495527081451
 21
80.1773287039964
 31
0.0
  0
ARC
  5
17E26
102
{ACAD_REACTORS
330
17E22
330
17FA5
102
}
330
1F
100
AcDbEntity
  8
steel
100
AcDbCircle
 10
604.6495527081451
 20
80.77732870399637
 30
0.0
 40
0.5999999999999659
100
AcDbArc
 50
270.0
 51
90.0
  0
HATCH
  5
17E27
330
1F
100
AcDbEntity
  8
steel
100
AcDbHatch
 10
0.0
 20
0.0
 30
0.0
210
0.0
220
0.0
230
1.0
  2
ANSI31
 70
     0
 71
     1
 91
        1
 92
        1
 93
        4
 72
     2
 10
604.6495527081451
 20
48.9921784642035
 40
0.5999999999999659
 50
270.0
 51
450.0
 73
     1
 72
     1
 10
604.6495527081451
 20
49.59217846420347
 11
578.7483398952203
 21
49.59217846420347
 72
     2
 10
578.7483398952203
 20
48.9921784642035
 40
0.5999999999999659
 50
90.0
 51
270.0
 73
     1
 72
     1
 10
578.7483398952203
 20
48.39217846420353
 11
604.6495527081451
 21
48.39217846420353
 97
        4
330
17E2A
330
17E28
330
17E30
330
17E29
 75
     0
 76
     1
 52
180.0
 41
3.0
 77
     0
 78
     1
 53
225.0
 43
124.1044986525178
 44
-147.0133721999375
 45
0.2651650429449552
 46
-0.2651650429449553
 79
     0
 98
        1
 10
124.1044986525178
 20
-147.0133721999375
1001
ACAD
1010
0.0
1020
0.0
1030
0.0
  0
LINE
  5
17E28
102
{ACAD_REACTORS
330
17E27
102
}
330
1F
100
AcDbEntity
  8
steel
100
AcDbLine
 10
578.7483398952203
 20
49.59217846420347
 30
0.0
 11
604.6495527081451
 21
49.59217846420347
 31
0.0
  0
LINE
  5
17E29
102
{ACAD_REACTORS
330
17E27
102
}
330
1F
100
AcDbEntity
  8
steel
100
AcDbLine
 10
578.7483398952203
 20
48.39217846420353
 30
0.0
 11
604.6495527081451
 21
48.39217846420353
 31
0.0
  0
ARC
  5
17E2A
102
{ACAD_REACTORS
330
17E27
330
17FA5
102
}
330
1F
100
AcDbEntity
  8
steel
100
AcDbCircle
 10
604.6495527081451
 20
48.9921784642035
 30
0.0
 40
0.5999999999999659
100
AcDbArc
 50
270.0
 51
90.0
  0
HATCH
  5
17E2B
330
1F
100
AcDbEntity
  8
steel
100
AcDbHatch
 10
0.0
 20
0.0
 30
0.0
210
0.0
220
0.0
230
1.0
  2
ANSI31
 70
     0
 71
     1
 91
        1
 92
        1
 93
        4
 72
     2
 10
569.9965462859934
 20
65.10859281746991
 40
0.5999999999999659
 50
90.0
 51
270.0
 73
     1
 72
     1
 10
569.9965462859934
 20
64.50859281746994
 11
604.6495527081451
 21
64.50859281746994
 72
     2
 10
604.6495527081451
 20
65.10859281746991
 40
0.5999999999999659
 50
270.0
 51
450.0
 73
     1
 72
     1
 10
604.6495527081451
 20
65.70859281746987
 11
569.9965462859934
 21
65.70859281746987
 97
        4
330
17E2F
330
17E2D
330
17E2E
330
17E2C
 75
     0
 76
     1
 52
180.0
 41
3.0
 77
     0
 78
     1
 53
225.0
 43
124.1044986525178
 44
-147.0133721999375
 45
0.2651650429449552
 46
-0.2651650429449553
 79
     0
 98
        1
 10
124.1044986525178
 20
-147.0133721999375
1001
ACAD
1010
0.0
1020
0.0
1030
0.0
  0
LINE
  5
17E2C
102
{ACAD_REACTORS
330
17E2B
102
}
330
1F
100
AcDbEntity
  8
steel
100
AcDbLine
 10
569.9965462859934
 20
65.70859281746987
 30
0.0
 11
604.6495527081451
 21
65.70859281746987
 31
0.0
  0
LINE
  5
17E2D
102
{ACAD_REACTORS
330
17E2B
102
}
330
1F
100
AcDbEntity
  8
steel
100
AcDbLine
 10
569.9965462859934
 20
64.50859281746994
 30
0.0
 11
604.6495527081451
 21
64.50859281746994
 31
0.0
  0
ARC
  5
17E2E
102
{ACAD_REACTORS
330
17E2B
330
17FA5
102
}
330
1F
100
AcDbEntity
  8
steel
100
AcDbCircle
 10
604.6495527081451
 20
65.10859281746991
 30
0.0
 40
0.5999999999999659
100
AcDbArc
 50
270.0
 51
90.0
  0
ARC
  5
17E2F
102
{ACAD_REACTORS
330
17E2B
102
}
330
1F
100
AcDbEntity
  8
steel
100
AcDbCircle
 10
569.9965462859934
 20
65.10859281746991
 30
0.0
 40
0.5999999999999659
100
AcDbArc
 50
90.0
 51
270.0
  0
ARC
  5
17E30
102
{ACAD_REACTORS
330
17E27
102
}
330
1F
100
AcDbEntity
  8
steel
100
AcDbCircle
 10
578.7483398952203
 20
48.9921784642035
 30
0.0
 40
0.5999999999999659
100
AcDbArc
 50
90.0
 51
270.0
  0
HATCH
  5
17E31
330
1F
100
AcDbEntity
  8
steel
100
AcDbHatch
 10
0.0
 20
0.0
 30
0.0
210
0.0
220
0.0
230
1.0
  2
SOLID
 70
     1
 71
     1
 91
        3
 92
        1
 93
        1
 72
     2
 10
565.5992602260501
 20
85.94965654303251
 40
0.9375
 50
0.0
 51
360.0
 73
     1
 97
        1
330
17E32
 92
        1
 93
        1
 72
     2
 10
598.432277860689
 20
85.88110070579162
 40
0.9375
 50
0.0
 51
360.0
 73
     1
 97
        1
330
17E33
 92
        1
 93
        2
 72
     2
 10
601.3740980772009
 20
77.62499079092416
 40
0.5999999999999659
 50
270.0
 51
450.0
 73
     1
 72
     2
 10
601.3740980772009
 20
77.62499079092416
 40
0.5999999999999659
 50
90.0
 51
270.0
 73
     1
 97
        2
330
17E34
330
17E35
 75
     0
 76
     1
 98
        1
 10
124.1044986525178
 20
-147.0133721999375
450
        0
451
        0
460
0.0
461
0.0
452
        0
462
0.0
453
        0
470

1001
ACAD
1010
0.0
1020
0.0
1030
0.0
  0
CIRCLE
  5
17E32
102
{ACAD_REACTORS
330
17E31
330
17FA8
102
}
330
1F
100
AcDbEntity
  8
steel
100
AcDbCircle
 10
565.5992602260501
 20
85.94965654303251
 30
0.0
 40
0.9375
  0
CIRCLE
  5
17E33
102
{ACAD_REACTORS
330
17E31
330
17FAB
102
}
330
1F
100
AcDbEntity
  8
steel
100
AcDbCircle
 10
598.432277860689
 20
85.88110070579162
 30
0.0
 40
0.9375
  0
ARC
  5
17E34
102
{ACAD_REACTORS
330
17E31
102
}
330
1F
100
AcDbEntity
  8
steel
100
AcDbCircle
 10
601.3740980772009
 20
77.62499079092416
 30
0.0000000000000107
 40
0.5999999999999659
100
AcDbArc
 50
270.0
 51
90.0
  0
ARC
  5
17E35
102
{ACAD_REACTORS
330
17E31
102
}
330
1F
100
AcDbEntity
  8
steel
100
AcDbCircle
 10
601.3740980772009
 20
77.62499079092416
 30
0.0000000000000107
 40
0.5999999999999659
100
AcDbArc
 50
90.0
 51
270.0
  0
LINE
  5
17E36
102
{ACAD_REACTORS
330
17D0B
330
18988
102
}
330
1F
100
AcDbEntity
  8
steel
100
AcDbLine
 10
564.6063815412008
 20
92.24999079092407
 30
0.0
 11
573.6063815412008
 21
92.24999079092407
 31
0.0
  0
LINE
  5
17E37
102
{ACAD_REACTORS
330
17D0B
102
}
330
1F
100
AcDbEntity
  8
steel
100
AcDbLine
 10
573.6063815412008
 20
89.24999079092406
 30
0.0
 11
564.6063815412008
 21
89.24999079092406
 31
0.0
  0
LINE
  5
17E38
330
1F
100
AcDbEntity
  8
steel
100
AcDbLine
 10
602.1240980772009
 20
80.15643961600114
 30
0.0
 11
603.9990980772009
 21
80.15643961600114
 31
0.0
  0
HATCH
  5
17E39
330
1F
100
AcDbEntity
  8
steel
100
AcDbHatch
 10
0.0
 20
0.0
 30
0.0
210
0.0
220
0.0
230
1.0
  2
SOLID
 70
     1
 71
     0
 91
        6
 92
        5
 93
        4
 72
     1
 10
589.1662113599639
 20
65.70859281746982
 11
591.0412113599639
 21
65.70859281746982
 72
     1
 10
591.0412113599639
 20
65.70859281746982
 11
591.0412113599639
 21
80.17732870399639
 72
     1
 10
591.0412113599639
 20
80.1773287039964
 11
589.1662113599639
 21
80.1773287039964
 72
     1
 10
589.1662113599639
 20
80.1773287039964
 11
589.1662113599639
 21
65.70859281746983
 97
        0
 92
        1
 93
        4
 72
     1
 10
589.1662113599639
 20
49.59217846420347
 11
591.041211359964
 21
49.59217846420347
 72
     1
 10
591.0412113599639
 20
49.59217846420347
 11
591.0412113599639
 21
64.50859281746994
 72
     1
 10
591.0412113599639
 20
64.50859281746994
 11
589.1662113599639
 21
64.5085928174699
 72
     1
 10
589.1662113599639
 20
64.50859281746989
 11
589.1662113599637
 21
49.59217846420346
 97
        0
 92
        1
 93
        4
 72
     1
 10
589.1662113599639
 20
47.5883237208165
 11
591.041211359964
 21
47.58832372081655
 72
     1
 10
591.0412113599639
 20
47.58832372081656
 11
591.0412113599639
 21
48.39217846420355
 72
     1
 10
591.0412113599639
 20
48.39217846420353
 11
589.1662113599637
 21
48.39217846420353
 72
     1
 10
589.1662113599637
 20
48.39217846420353
 11
589.1662113599639
 21
47.5883237208165
 97
        0
 92
        1
 93
        4
 72
     1
 10
591.041211359964
 20
87.37499079092414
 11
589.166211359964
 21
87.37499079092414
 72
     1
 10
589.166211359964
 20
87.37499079092414
 11
589.166211359964
 21
81.3773287039964
 72
     1
 10
589.166211359964
 20
81.3773287039964
 11
591.0412113599639
 21
81.37732870399636
 72
     1
 10
591.0412113599639
 20
81.37732870399634
 11
591.041211359964
 21
87.37499079092412
 97
        0
 92
        1
 93
        4
 72
     2
 10
591.5886650052016
 20
77.62499079092418
 40
39.03673604126973
 50
90.80354596200347
 51
93.55781812015974
 73
     1
 72
     1
 10
589.166211359964
 20
116.5864907504027
 11
589.166211359964
 21
89.24999079092406
 72
     1
 10
589.166211359964
 20
89.24999079092406
 11
591.0412113599639
 21
89.24999079092406
 72
     1
 10
591.0412113599639
 20
89.24999079092406
 11
591.0412113599639
 21
116.6578878812259
 97
        0
 92
        1
 93
        4
 72
     2
 10
591.5886650052009
 20
77.62499079092416
 40
39.03673604126974
 50
266.4421818798409
 51
269.1964540379971
 73
     1
 72
     1
 10
591.0412113599639
 20
38.59209370062245
 11
591.0412113599639
 21
46.38832372081649
 72
     1
 10
591.0412113599639
 20
46.38832372081648
 11
589.1662113599637
 21
46.38832372081648
 72
     1
 10
589.1662113599639
 20
46.38832372081648
 11
589.1662113599639
 21
38.66349083144564
 97
        0
 75
     0
 76
     1
 47
0.0899447189772664
 98
        3
 10
590.103711359964
 20
68.15986605773637
 10
590.103711359964
 20
68.15986605773637
 10
590.103711359964
 20
68.15986605773637
450
        0
451
        0
460
0.0
461
0.0
452
        0
462
0.0
453
        0
470

1001
ACAD
1010
0.0
1020
0.0
1030
0.0
  0
LINE
  5
17E3A
330
1F
100
AcDbEntity
  8
steel
100
AcDbLine
 10
589.166211359964
 20
92.24999079092407
 30
0.0
 11
589.1662113599639
 21
116.5864907504027
 31
0.0
  0
LINE
  5
17E3B
330
1F
100
AcDbEntity
  8
steel
100
AcDbLine
 10
591.0412113599639
 20
116.6578878812258
 30
0.0
 11
591.0412113599639
 21
89.24999079092406
 31
0.0
  0
LINE
  5
17E3C
330
1F
100
AcDbEntity
  8
steel
100
AcDbLine
 10
589.7313815412007
 20
87.37499079092406
 30
0.0
 11
589.7313815412007
 21
81.3773287039964
 31
0.0
  0
LINE
  5
17E3D
330
1F
100
AcDbEntity
  8
steel
100
AcDbLine
 10
589.7313815412007
 20
80.1773287039964
 30
0.0
 11
589.7313815412007
 21
65.70859281746982
 31
0.0
  0
LINE
  5
17E3E
330
1F
100
AcDbEntity
  8
steel
100
AcDbLine
 10
589.7313815412007
 20
64.50859281746989
 30
0.0
 11
589.7313815412009
 21
49.59217846420347
 31
0.0
  0
LINE
  5
17E3F
330
1F
100
AcDbEntity
  8
steel
100
AcDbLine
 10
589.7313815412009
 20
48.3921784642036
 30
0.0
 11
589.7313815412009
 21
47.58832372081656
 31
0.0
  0
LINE
  5
17E40
330
1F
100
AcDbEntity
  8
steel
100
AcDbLine
 10
589.7313815412009
 20
46.38832372081651
 30
0.0
 11
589.7313815412009
 21
44.24999079092407
 31
0.0
  0
LINE
  5
17E41
330
1F
100
AcDbEntity
  8
steel
100
AcDbLine
 10
589.7313815412009
 20
44.24999079092407
 30
0.0
 11
589.7313815412009
 21
38.63246254652688
 31
0.0
  0
HATCH
  5
17E42
330
1F
100
AcDbEntity
  8
steel
100
AcDbHatch
 10
0.0
 20
0.0
 30
0.0
210
0.0
220
0.0
230
1.0
  2
SOLID
 70
     1
 71
     0
 91
        1
 92
        5
 93
        4
 72
     2
 10
591.5886650052007
 20
77.62499079092413
 40
39.03673604126974
 50
285.1116106047378
 51
287.9828212634756
 73
     1
 72
     1
 10
603.6405479401921
 20
40.49523347314689
 11
603.6405479401921
 21
40.61353429808701
 72
     1
 10
603.6405479401921
 20
40.61353429808701
 11
601.7655479401923
 21
40.61353429808701
 72
     1
 10
601.7655479401923
 20
40.61353429808701
 11
601.7655479401923
 21
39.9381520473621
 97
        0
 75
     0
 76
     1
 47
0.0
 98
        1
 10
602.4883465995112
 20
40.37894404961787
450
        0
451
        0
460
0.0
461
0.0
452
        0
462
0.0
453
        0
470

1001
ACAD
1010
0.0
1020
0.0
1030
0.0
  0
HATCH
  5
17E43
330
1F
100
AcDbEntity
  8
steel
100
AcDbHatch
 10
0.0
 20
0.0
 30
0.0
210
0.0
220
0.0
230
1.0
  2
SOLID
 70
     1
 71
     0
 91
        1
 92
        1
 93
        4
 72
     2
 10
591.5886650052011
 20
77.62499079092407
 40
39.03673604126974
 50
72.01717873652495
 51
74.88838939526292
 73
     1
 72
     1
 10
601.7655479401923
 20
115.3118295344862
 11
601.7655479401923
 21
86.8695033665176
 72
     2
 10
596.124098077201
 20
81.37499079092407
 40
7.875000000000002
 50
315.7559650036036
 51
342.6440249521427
 73
     0
 72
     1
 10
603.6405479401922
 20
83.72416223148309
 11
603.6405479401922
 21
114.7547481087014
 97
        0
 75
     0
 76
     1
 98
        1
 10
1067.392430828875
 20
-147.0133721999375
450
        0
451
        0
460
0.0
461
0.0
452
        0
462
0.0
453
        0
470

1001
ACAD
1010
0.0
1020
0.0
1030
0.0
  0
LINE
  5
17E44
330
1F
100
AcDbEntity
  8
steel
100
AcDbLine
 10
603.6405479401922
 20
92.24999079092407
 30
0.0
 11
603.6405479401921
 21
114.7547481087014
 31
0.0
  0
LINE
  5
17E45
330
1F
100
AcDbEntity
  8
steel
100
AcDbLine
 10
601.7655479401923
 20
115.3118295344862
 30
0.0
 11
601.7655479401923
 21
86.86950336651761
 31
0.0
  0
LINE
  5
17E46
330
1F
100
AcDbEntity
  8
steel
100
AcDbLine
 10
603.6405479401921
 20
40.61353429808701
 30
0.0
 11
603.6405479401921
 21
40.49523347314686
 31
0.0
  0
LINE
  5
17E47
330
1F
100
AcDbEntity
  8
steel
100
AcDbLine
 10
601.7655479401922
 20
40.61353429808701
 30
0.0
 11
601.7655479401922
 21
39.93815204736205
 31
0.0
  0
LINE
  5
17E48
330
1F
100
AcDbEntity
  8
steel
100
AcDbLine
 10
603.6405479401922
 20
40.61353429808701
 30
0.0
 11
601.7655479401923
 21
40.61353429808701
 31
0.0
  0
LWPOLYLINE
  5
17E7E
102
{ACAD_REACTORS
330
17F9C
102
}
330
1F
100
AcDbEntity
  8
steel
100
AcDbPolyline
 90
        2
 70
     0
 43
0.1
 10
564.6063815412008
 20
89.24999079092406
 10
573.6063815412008
 20
89.24999079092406
  0
DIMENSION
  5
17EB3
102
{ACAD_XDICTIONARY
360
17EC1
102
}
102
{ACAD_REACTORS
330
17ECC
102
}
330
1F
100
AcDbEntity
  8
Dim
100
AcDbDimension
280
     0
  2
*D5
 10
558.6063815412009
 20
101.6621002353625
 30
0.0
 11
560.1063815412008
 21
101.6621002353625
 31
0.0
 70
    32
  1
1"
 71
     5
 42
3.0
 73
     0
 74
     0
 75
     0
  3
FBR
100
AcDbAlignedDimension
 13
561.6063815412009
 23
92.24999079092407
 33
0.0
 14
558.6063815412009
 24
89.24999079092406
 34
0.0
100
AcDbRotatedDimension
  0
MULTILEADER
  5
17F7B
330
1F
100
AcDbEntity
  8
Dim
160
               864
310
60030000190000000C00000016000000000000C00C00000033000000000000000C00000013000000993A0000CC0000002600000029A7673B990581409E344CCE72F15940000000000000000000000000000000000000000000000000000000000000F03F000000000000F03F00000000000000000000000000000000420072
310
006700200050004C002C0000000700000001000000000000000000F03F000000000000F03F0000000000000000000000000000F03F0000000000000000000000000000000000000000000000000000000001000000000000000000000072006F006D0061006E0073002E007300680078000000000000000000D00000002600
310
00004EF0F95FE2F7804030599560977A5940000000000000000000000000000000000000000000000000000000000000F03F000000000000F03F0000000000000000000000000000000061007300200073007000650063002700640000000900000001000000000000000000F03F000000000000F03F000000000000000000
310
0000000000F03F0000000000000000000000000000000000000000000000000000000001000000000000000000000072006F006D0061006E0073002E0073006800780000000000000000000C00000033000000000000000C00000010000000050000000C00000016000000000000C00C00000012000000FF7F00000C000000
310
13000000010000000C00000014000000010000005400000007000000030000009AE64EA5C6B781404B60543608BF5640000000000000000014D137DDC7B8814048585F358FB656400000000000000000FAC5E99D7CB78140316E6097F7BB564000000000000000000C00000014000000010000000C00000013000000891300
310
003C00000006000000020000004A569CA1A1B781403E67DAE67FBD5640000000000000000092343EA4263681403C1CC66C5ACB594000000000000000000C00000013000000112700003C000000060000000200000092343EA4263681403C1CC66C5ACB594000000000000000001720905C453381403C1CC66C5ACB59400000
310
0000000000000C00000016000000000000C00C00000012000000FF7F00000C00000017000000000000000C000000130000009A3A00000C00000016000000000000C00C00000012000000FF7F00000C00000017000000FFFFFFFF0C0000003300000000000000
100
AcDbMLeader
270
     2
300
CONTEXT_DATA{
 40
1.0
 10
543.0383917656655
 20
103.1773940977736
 30
0.0
 41
1.0
140
0.18
145
0.09
174
     2
175
     2
176
     2
177
     0
290
     1
304
Brg PL,\Pas spec'd
 11
0.0
 21
0.0
 31
1.0
340
1A22
 12
550.3188679561417
 22
104.7726321930117
 32
0.0
 13
1.0
 23
0.0
 33
0.0
 42
0.0
 43
0.0
 44
0.0
 45
1.0
170
     1
 90
-1073741824
171
     3
172
     5
 91
-1073741824
141
0.0
 92
        0
291
     0
292
     0
173
     0
293
     0
142
0.0
143
0.0
294
     0
295
     0
296
     0
110
567.0975899086648
120
90.85249075232525
130
0.0
111
1.0
121
0.0
131
0.0
112
0.0
122
1.0
132
0.0
297
     0
302
LEADER{
290
     1
291
     1
 10
550.7688679561417
 20
103.1773940977736
 30
0.0
 11
-1.0
 21
0.0
 31
0.0
 90
        0
 40
0.36
304
LEADER_LINE{
 10
567.0975899086648
 20
90.85249075232525
 30
0.0
 91
        0
305
}
271
     0
303
}
272
     9
273
     9
301
}
340
175A0
 90
   279552
170
     1
 91
-1056964608
341
14
171
    -2
290
     1
291
     1
 41
0.36
 42
0.18
172
     2
343
1A22
173
     2
 95
        2
174
     1
175
     2
 92
-1056964608
292
     0
 93
-1056964608
 10
1.0
 20
1.0
 30
1.0
 43
0.0
176
     0
293
     0
294
     0
178
     0
179
     3
 45
1.0
271
     0
272
     9
273
     9
  0
MULTILEADER
  5
17F9A
102
{ACAD_XDICTIONARY
360
17F9B
102
}
102
{ACAD_REACTORS
330
17F9C
102
}
330
1F
100
AcDbEntity
  8
Dim
160
               880
310
70030000190000000C00000016000000000000C00C00000033000000000000000C00000013000000993A0000DC000000260000006BDAE31B65058140D838AB300C5A5540000000000000000000000000000000000000000000000000000000000000F03F000000000000F03F00000000000000000000000000000000420072
310
006700200050004C002000770065006C006400200074006F00000000320E00000001000000000000000000F03F000000000000F03F0000000000000000000000000000F03F0000000000000000000000000000000000000000000000000000000001000000000000000000560072006F006D0061006E0073002E0073006800
310
780000006F0000003300D000000026000000459151F71B2B81402D8E008661EF5440000000000000000000000000000000000000000000000000000000000000F03F000000000000F03F00000000000000000000000000000000310035004D0020006200610072007300000000000800000001000000000000000000F03F00
310
0000000000F03F0000000000000000000000000000F03F0000000000000000000000000000000000000000000000000000000001000000000000000000000072006F006D0061006E0073002E0073006800780000000000000000000C00000033000000000000000C00000010000000050000000C00000016000000000000C0
310
0C00000012000000FF7F00000C00000013000000010000000C0000001400000001000000540000000700000003000000299AC05218B081409AFED92CFD4C564000000000000000003E4F3A6B81B181407CD45FD9FF4F564000000000000000000D5DE1154BB08140921FC1EF7D49564000000000000000000C000000140000
310
00010000000C00000013000000891300003C00000006000000020000009BFB50B431B08140168F4D8E3D4B56400000000000000000724F3423DA67814083E355DBB644554000000000000000000C00000013000000112700003C0000000600000002000000724F3423DA67814083E355DBB64455400000000000000000F73A
310
86DBF864814083E355DBB644554000000000000000000C00000016000000000000C00C00000012000000FF7F00000C00000017000000000000000C000000130000009A3A00000C00000016000000000000C00C00000012000000FF7F00000C00000017000000FFFFFFFF0C0000003300000000000000
100
AcDbMLeader
270
     2
300
CONTEXT_DATA{
 40
1.0
 10
544.7748457927778
 20
85.07366069209643
 30
0.0
 41
1.0
140
0.18
145
0.09
174
     2
175
     2
176
     2
177
     0
290
     1
304
Brg PL weld to\P15M bars
 11
0.0
 21
0.0
 31
1.0
340
1A22
 12
556.5315124594444
 22
86.40699402542976
 32
0.0
 13
1.0
 23
0.0
 33
0.0
 42
0.0
 43
0.0
 44
0.0
 45
1.0
170
     1
 90
-1073741824
171
     3
172
     5
 91
-1073741824
141
0.0
 92
        0
291
     0
292
     0
173
     0
293
     0
142
0.0
143
0.0
294
     0
295
     0
296
     0
110
566.1881928019936
120
89.24999079092406
130
0.0
111
1.0
121
0.0
131
0.0
112
0.0
122
1.0
132
0.0
297
     0
302
LEADER{
290
     1
291
     1
 10
556.9815124594445
 20
85.07366069209643
 30
0.0
 11
-1.0
 21
0.0
 31
0.0
 90
        0
 40
0.36
304
LEADER_LINE{
 10
566.1881928019936
 20
89.24999079092406
 30
0.0
 91
        0
305
}
271
     0
303
}
272
     9
273
     9
301
}
340
175A0
 90
   279552
170
     1
 91
-1056964608
341
14
171
    -2
290
     1
291
     1
 41
0.36
 42
0.18
172
     2
343
1A22
173
     2
 95
        2
174
     1
175
     2
 92
-1056964608
292
     0
 93
-1056964608
 10
1.0
 20
1.0
 30
1.0
 43
0.0
176
     0
293
     0
294
     0
178
     0
179
     3
 45
1.0
271
     0
272
     9
273
     9
  0
MULTILEADER
  5
17F9D
102
{ACAD_XDICTIONARY
360
17F9E
102
}
102
{ACAD_REACTORS
330
17F9F
102
}
330
1F
100
AcDbEntity
  8
Dim
160
               864
310
60030000190000000C00000016000000000000C00C00000033000000000000000C00000013000000993A0000D40000002600000086206F233626834078F5C77F94B55B40000000000000000000000000000000000000000000000000000000000000F03F000000000000F03F0000000000000000000000000000000032002D
310
00310035004D00200068006F006F006B00000000000A00000001000000000000000000F03F000000000000F03F0000000000000000000000000000F03F0000000000000000000000000000000000000000000000000000000001000000000000000000000072006F006D0061006E0073002E00730068007800000000000000
310
0000C80000002600000000BF569DD4258340CD4A1DD5E94A5B40000000000000000000000000000000000000000000000000000000000000F03F000000000000F03F00000000000000000000000000000000620061007200730000006F000400000001000000000000000000F03F000000000000F03F000000000000000000
310
0000000000F03F00000000000000000000000000000000000000000000000000000000010000000000000000002D0072006F006D0061006E0073002E0073006800780000006500000000000C00000033000000000000000C00000010000000050000000C00000016000000000000C00C00000012000000FF7F00000C000000
310
13000000010000000C0000001400000001000000540000000700000003000000A99940DD99B88240FABA1A69173756400000000000000000D492504BA3B78240E80FF7A7502E564000000000000000000F81967331B88240BA01B8B61D39564000000000000000000C00000014000000010000000C00000013000000891300
310
003C00000006000000020000005C8D6BA865B882405A5EE98F1A38564000000000000000007EAB1E1CC123834023A0722A3FA05B4000000000000000000C00000013000000112700003C00000006000000020000007EAB1E1CC123834023A0722A3FA05B400000000000000000F9BFCC63A226834023A0722A3FA05B400000
310
0000000000000C00000016000000000000C00C00000012000000FF7F00000C00000017000000000000000C000000130000009A3A00000C00000016000000000000C00C00000012000000FF7F00000C00000017000000FFFFFFFF0C0000003300000000000000
100
AcDbMLeader
270
     2
300
CONTEXT_DATA{
 40
1.0
 10
612.8292919155202
 20
110.5038553351774
 30
0.0
 41
1.0
140
0.18
145
0.09
174
     2
175
     2
176
     0
177
     0
290
     1
304
2-15M hook\Pbars
 11
0.0
 21
0.0
 31
1.0
340
1A22
 12
612.9192919155202
 22
111.8371886685107
 32
0.0
 13
1.0
 23
0.0
 33
0.0
 42
0.0
 43
0.0
 44
0.0
 45
1.0
170
     1
 90
-1073741824
171
     1
172
     5
 91
-1073741824
141
0.0
 92
        0
291
     0
292
     0
173
     0
293
     0
142
0.0
143
0.0
294
     0
295
     0
296
     0
110
598.9547334952171
120
88.72367285849724
130
0.0
111
1.0
121
0.0
131
0.0
112
0.0
122
1.0
132
0.0
297
     0
302
LEADER{
290
     1
291
     1
 10
612.4692919155202
 20
110.5038553351774
 30
0.0
 11
1.0
 21
0.0
 31
0.0
 90
        0
 40
0.36
304
LEADER_LINE{
 10
598.9547334952171
 20
88.72367285849724
 30
0.0
 91
        0
305
}
271
     0
303
}
272
     9
273
     9
301
}
340
175A0
 90
   279552
170
     1
 91
-1056964608
341
14
171
    -2
290
     1
291
     1
 41
0.36
 42
0.18
172
     2
343
1A22
173
     2
 95
        2
174
     1
175
     0
 92
-1056964608
292
     0
 93
-1056964608
 10
1.0
 20
1.0
 30
1.0
 43
0.0
176
     0
293
     0
294
     0
178
     0
179
     1
 45
1.0
271
     0
272
     9
273
     9
  0
MULTILEADER
  5
17FA3
102
{ACAD_XDICTIONARY
360
17FA4
102
}
102
{ACAD_REACTORS
330
17FA5
102
}
330
1F
100
AcDbEntity
  8
Dim
160
              1044
310
14040000240000000C00000016000000000000C00C00000033000000000000000C00000013000000993A0000D000000026000000AD967E0E242F834048D70B53E0145140000000000000000000000000000000000000000000000000000000000000F03F000000000000F03F00000000000000000000000000000000310030
310
004D0020007400690065007300000000000800000001000000000000000000F03F000000000000F03F0000000000000000000000000000F03F0000000000000000000000000000000000000000000000000000000001000000000000000000000072006F006D0061006E0073002E0073006800780000000000000000000C00
310
000033000000000000000C00000010000000050000000C00000016000000000000C00C00000012000000FF7F00000C00000013000000010000000C0000001400000001000000540000000700000003000000399E20709CEA8240F744A1903D23544000000000000000005F57C158F8E982405AAA5CC2BB2D54400000000000
310
0000002094CC7700EB82406FF4D9837825544000000000000000000C00000014000000010000000C00000013000000891300003C00000006000000020000002C99F673CEEA8240B39C3D0A5B245440000000000000000038467799D32D834048D70B53E034514000000000000000000C00000013000000020000000C000000
310
14000000010000005400000007000000030000009B0B645E69EB824081F3B145D14950400000000000000000E4807D15FFE9824048E7492FF3465040000000000000000043CC830638EB82409EBBED92554D504000000000000000000C00000014000000010000000C000000130000008A1300003C00000006000000020000
310
00EFEB73B250EB82408FD74F6C934B5040000000000000000038467799D32D834048D70B53E034514000000000000000000C00000013000000030000000C00000014000000010000005400000007000000030000003652321CE2E98240D09468029CBF48400000000000000000E4601C2015E98240EE99EF2014AC48400000
310
000000000000D00153AE71E9824076C53473B5C2484000000000000000000C00000014000000010000000C000000130000008B1300003C000000060000000200000003AA42E5A9E9824023ADCEBA28C14840000000000000000038467799D32D834048D70B53E034514000000000000000000C00000013000000112700003C
310
000000060000000200000038467799D32D834048D70B53E03451400000000000000000B35A25E1B430834048D70B53E034514000000000000000000C00000016000000000000C00C00000012000000FF7F00000C00000017000000000000000C000000130000009A3A00000C00000016000000000000C00C00000012000000
310
FF7F00000C00000017000000FFFFFFFF0C0000003300000000000000
100
AcDbMLeader
270
     2
300
CONTEXT_DATA{
 40
1.0
 10
614.0883200567535
 20
68.8261916747698
 30
0.0
 41
1.0
140
0.18
145
0.09
174
     2
175
     2
176
     0
177
     0
290
     1
304
10M ties
 11
0.0
 21
0.0
 31
1.0
340
1A22
 12
614.1783200567536
 22
69.3261916747698
 32
0.0
 13
1.0
 23
0.0
 33
0.0
 42
0.0
 43
0.0
 44
0.0
 45
1.0
170
     1
 90
-1073741824
171
     1
172
     5
 91
-1073741824
141
0.0
 92
        0
291
     0
292
     0
173
     0
293
     0
142
0.0
143
0.0
294
     0
295
     0
296
     0
110
605.2462630371844
120
80.71458491372451
130
0.0
111
1.0
121
0.0
131
0.0
112
0.0
122
1.0
132
0.0
297
     0
302
LEADER{
290
     1
291
     1
 10
613.7283200567535
 20
68.8261916747698
 30
0.0
 11
1.0
 21
0.0
 31
0.0
 90
        0
 40
0.36
304
LEADER_LINE{
 10
605.2462630371845
 20
80.71458491372451
 30
0.0
 91
        0
305
}
304
LEADER_LINE{
 10
605.249552708145
 20
65.10859281746991
 30
0.0
 91
        1
305
}
304
LEADER_LINE{
 10
605.1353151528424
 20
49.34436427783281
 30
0.0
 91
        2
305
}
271
     0
303
}
272
     9
273
     9
301
}
340
175A0
 90
   279552
170
     1
 91
-1056964608
341
14
171
    -2
290
     1
291
     1
 41
0.36
 42
0.18
172
     2
343
1A22
173
     2
 95
        2
174
     1
175
     0
 92
-1056964608
292
     0
 93
-1056964608
 10
1.0
 20
1.0
 30
1.0
 43
0.0
176
     0
293
     0
294
     0
178
     0
179
     1
 45
1.0
271
     0
272
     9
273
     9
  0
MULTILEADER
  5
17FA6
102
{ACAD_XDICTIONARY
360
17FA7
102
}
102
{ACAD_REACTORS
330
17FA8
102
}
330
1F
100
AcDbEntity
  8
Dim
160
               880
310
70030000190000000C00000016000000000000C00C00000033000000000000000C00000013000000993A0000CC000000260000004E7B385C02278140092F612C31285440000000000000000000000000000000000000000000000000000000000000F03F000000000000F03F00000000000000000000000000000000310035
310
004D00200062006100720000000700000001000000000000000000F03F000000000000F03F0000000000000000000000000000F03F0000000000000000000000000000000000000000000000000000000001000000000000000000000072006F006D0061006E0073002E007300680078000000000000000000E00000002600
310
0000BC56EFC9DDED80405E84B68186BD5340000000000000000000000000000000000000000000000000000000000000F03F000000000000F03F00000000000000000000000000000000770065006C006400200074006F00200068006F006F006B002000620061007200000000001000000001000000000000000000F03F00
310
0000000000F03F0000000000000000000000000000F03F0000000000000000000000000000000000000000000000000000000001000000000000000000789F72006F006D0061006E0073002E007300680078000000AD0B000000000C00000033000000000000000C00000010000000050000000C00000016000000000000C0
310
0C00000012000000FF7F00000C00000013000000010000000C0000001400000001000000540000000700000003000000A7D62DF1D4A68140C098487D8D495540000000000000000020044C7437A88140051CCDC53F4D554000000000000000006138BF770EA78140754C0FD32846554000000000000000000C000000140000
310
00010000000C00000013000000891300003C0000000600000002000000848776B4F1A681409BF22B28DB47554000000000000000009E82ADAC095E8140B4D90BD7DB12544000000000000000000C00000013000000112700003C00000006000000020000009E82ADAC095E8140B4D90BD7DB1254400000000000000000236E
310
FF64285B8140B4D90BD7DB12544000000000000000000C00000016000000000000C00C00000012000000FF7F00000C00000017000000000000000C000000130000009A3A00000C00000016000000000000C00C00000012000000FF7F00000C00000017000000FFFFFFFF0C0000003300000000000000
100
AcDbMLeader
270
     2
300
CONTEXT_DATA{
 40
1.0
 10
541.7861524593953
 20
80.2946679702498
 30
0.0
 41
1.0
140
0.18
145
0.09
174
     2
175
     2
176
     2
177
     0
290
     1
304
15M bar\Pweld to hook bar
 11
0.0
 21
0.0
 31
1.0
340
1A22
 12
555.3047238879668
 22
81.62800130358313
 32
0.0
 13
1.0
 23
0.0
 33
0.0
 42
0.0
 43
0.0
 44
0.0
 45
1.0
170
     1
 90
-1073741824
171
     3
172
     5
 91
-1073741824
141
0.0
 92
        0
291
     0
292
     0
173
     0
293
     0
142
0.0
143
0.0
294
     0
295
     0
296
     0
110
565.0270772875556
120
85.20701737432689
130
0.0
111
1.0
121
0.0
131
0.0
112
0.0
122
1.0
132
0.0
297
     0
302
LEADER{
290
     1
291
     1
 10
555.7547238879667
 20
80.2946679702498
 30
0.0
 11
-1.0
 21
0.0
 31
0.0
 90
        0
 40
0.36
304
LEADER_LINE{
 10
565.0270772875556
 20
85.20701737432689
 30
0.0
 91
        0
305
}
271
     0
303
}
272
     9
273
     9
301
}
340
175A0
 90
   279552
170
     1
 91
-1056964608
341
14
171
    -2
290
     1
291
     1
 41
0.36
 42
0.18
172
     2
343
1A22
173
     2
 95
        2
174
     1
175
     2
 92
-1056964608
292
     0
 93
-1056964608
 10
1.0
 20
1.0
 30
1.0
 43
0.0
176
     0
293
     0
294
     0
178
     0
179
     3
 45
1.0
271
     0
272
     9
273
     9
  0
MULTILEADER
  5
17FA9
102
{ACAD_XDICTIONARY
360
17FAA
102
}
102
{ACAD_REACTORS
330
17FAB
102
}
330
1F
100
AcDbEntity
  8
Dim
160
               656
310
90020000180000000C00000016000000000000C00C00000033000000000000000C00000013000000993A0000CC00000026000000AFD164E8A91C834058D2D4D853305540000000000000000000000000000000000000000000000000000000000000F03F000000000000F03F00000000000000000000000000000000310035
310
004D00200062006100720000000700000001000000000000000000F03F000000000000F03F0000000000000000000000000000F03F0000000000000000000000000000000000000000000000000000000001000000000000000000640072006F006D0061006E0073002E0073006800780000006C00000000000C0000003300
310
0000000000000C00000010000000050000000C00000016000000000000C00C00000012000000FF7F00000C00000013000000010000000C000000140000000100000054000000070000000300000015157C5C28BA82400FB189B1BA4B55400000000000000000DEE80683B7B882409D88630D9C4D55400000000000000000BB
310
2C21F027BA824029F148BA914F554000000000000000000C00000014000000010000000C00000013000000891300003C0000000600000002000000E8A04E2628BA82401C51E935A64D554000000000000000003A815D73591B834058D2D4D85350554000000000000000000C00000013000000112700003C00000006000000
310
020000003A815D73591B834058D2D4D8535055400000000000000000B5950BBB3A1E834058D2D4D85350554000000000000000000C00000016000000000000C00C00000012000000FF7F00000C00000017000000000000000C000000130000009A3A00000C00000016000000000000C00C00000012000000FF7F00000C0000
310
0017000000FFFFFFFF0C0000003300000000000000
100
AcDbMLeader
270
     2
300
CONTEXT_DATA{
 40
1.0
 10
611.7786770730077
 20
85.25511761458744
 30
0.0
 41
1.0
140
0.18
145
0.09
174
     2
175
     2
176
     0
177
     0
290
     1
304
15M bar
 11
0.0
 21
0.0
 31
1.0
340
1A22
 12
611.8686770730078
 22
85.75511761458745
 32
0.0
 13
1.0
 23
0.0
 33
0.0
 42
0.0
 43
0.0
 44
0.0
 45
1.0
170
     1
 90
-1073741824
171
     1
172
     5
 91
-1073741824
141
0.0
 92
        0
291
     0
292
     0
173
     0
293
     0
142
0.0
143
0.0
294
     0
295
     0
296
     0
110
599.0896053829017
120
85.21264967651445
130
0.0
111
1.0
121
0.0
131
0.0
112
0.0
122
1.0
132
0.0
297
     0
302
LEADER{
290
     1
291
     1
 10
611.4186770730078
 20
85.25511761458744
 30
0.0
 11
1.0
 21
0.0
 31
0.0
 90
        0
 40
0.36
304
LEADER_LINE{
 10
599.0896053829017
 20
85.21264967651445
 30
0.0
 91
        0
305
}
271
     0
303
}
272
     9
273
     9
301
}
340
175A0
 90
   279552
170
     1
 91
-1056964608
341
14
171
    -2
290
     1
291
     1
 41
0.36
 42
0.18
172
     2
343
1A22
173
     2
 95
        2
174
     1
175
     0
 92
-1056964608
292
     0
 93
-1056964608
 10
1.0
 20
1.0
 30
1.0
 43
0.0
176
     0
293
     0
294
     0
178
     0
179
     1
 45
1.0
271
     0
272
     9
273
     9
  0
DIMENSION
  5
1896F
102
{ACAD_XDICTIONARY
360
1897D
102
}
102
{ACAD_REACTORS
330
18988
102
}
330
1F
100
AcDbEntity
  8
Dim
100
AcDbDimension
280
     0
  2
*D6
 10
573.6063815412008
 20
101.6621002353625
 30
0.0
 11
575.1063815412009
 21
101.6621002353625
 31
0.0
 70
    32
  1
1"
 71
     5
 42
3.0
 73
     0
 74
     0
 75
     0
  3
FBR
100
AcDbAlignedDimension
 13
576.6063815412008
 23
92.24999079092407
 33
0.0
 14
573.6063815412008
 24
92.24999079092407
 34
0.0
100
AcDbRotatedDimension
  0
DIMENSION
  5
18997
102
{ACAD_XDICTIONARY
360
189A5
102
}
102
{ACAD_REACTORS
330
189B0
102
}
330
1F
100
AcDbEntity
  8
Dim
100
AcDbDimension
280
     0
  2
*D7
 10
564.6063815412008
 20
101.6621002353625
 30
0.0
 11
563.1063815412009
 21
101.6621002353625
 31
0.0
 70
    32
  1
1"
 71
     5
 42
3.0
 73
     0
 74
     0
 75
     0
  3
FBR
100
AcDbAlignedDimension
 13
561.6063815412009
 23
92.24999079092407
 33
0.0
 14
564.6063815412008
 24
92.24999079092405
 34
0.0
100
AcDbRotatedDimension
  0
LWPOLYLINE
  5
18A97
330
1F
100
AcDbEntity
  8
Dim
100
AcDbPolyline
 90
        4
 70
     1
 43
0.22
 10
528.7995063656294
 20
136.6753877720159
 10
623.4610415845345
 20
136.6753877720159
 10
623.4610415845345
 20
14.1722245475506
 10
528.7995063656294
 20
14.1722245475506
  0
LINE
  5
18A98
330
1F
100
AcDbEntity
  8
Dim
100
AcDbLine
 10
528.6895063656295
 20
136.7853877720159
 30
0.0
 11
623.5710415845347
 21
136.7853877720159
 31
0.0
  0
LINE
  5
18A99
330
1F
100
AcDbEntity
  8
Dim
100
AcDbLine
 10
623.5710415845347
 20
136.7853877720159
 30
0.0
 11
623.5710415845347
 21
14.06222454755061
 31
0.0
  0
LINE
  5
18A9A
330
1F
100
AcDbEntity
  8
Dim
100
AcDbLine
 10
623.5710415845347
 20
14.06222454755061
 30
0.0
 11
528.6895063656295
 21
14.0622245475506
 31
0.0
  0
LINE
  5
18A9B
330
1F
100
AcDbEntity
  8
Dim
100
AcDbLine
 10
528.6895063656295
 20
14.0622245475506
 30
0.0
 11
528.6895063656295
 21
136.7853877720159
 31
0.0
  0
LWPOLYLINE
  5
18A9C
330
1F
100
AcDbEntity
  8
Dim
100
AcDbPolyline
 90
        2
 70
     1
 43
0.22
 10
528.7995063656294
 20
27.13400604994612
 10
623.4610415845345
 20
27.13400604994612
  0
LWPOLYLINE
  5
18A9D
330
1F
100
AcDbEntity
  8
Dim
100
AcDbPolyline
 90
        2
 70
     0
 43
0.22
 10
550.072310134098
 20
14.1722245475506
 10
550.072310134098
 20
27.13400604994612
  0
MTEXT
  5
18A9F
330
1F
100
AcDbEntity
  8
Text
100
AcDbMText
 10
551.4253538749726
 20
26.26872306862173
 30
0.0
 40
0.825
 41
26.85060162210712
 46
0.0
 71
     1
 72
     5
  3
{\fTimes New Roman|b0|i0|c0|p18;The drawing represented herein is to be used as a reference guide only;  the user shall check to ensure the drawing meets local building codes and construction practices, including any additional requirements.  Logix r
  1
eserves the right to make changes to the drawing without notice and assumes no liability in connection with the use of the drawing including modification, copying or distribution.}
 73
     1
 44
1.0
  0
LWPOLYLINE
  5
18AA0
330
1F
100
AcDbEntity
  8
Dim
100
AcDbPolyline
 90
        2
 70
     0
 43
0.22
 10
578.5165711736001
 20
14.1722245475506
 10
578.5165711736001
 20
27.13400604994612
  0
LWPOLYLINE
  5
18AA1
330
1F
100
AcDbEntity
  8
Dim
100
AcDbPolyline
 90
        2
 70
     0
 43
0.22
 10
578.672310134098
 20
22.30311529874836
 10
623.4610415845345
 20
22.30311529874836
  0
LWPOLYLINE
  5
18AA2
330
1F
100
AcDbEntity
  8
Dim
100
AcDbPolyline
 90
        2
 70
     0
 43
0.22
 10
605.4666758593164
 20
22.30311529874836
 10
605.4666758593164
 20
27.13400604994612
  0
TEXT
  5
18AA3
330
1F
100
AcDbEntity
  8
Dim
100
AcDbText
 10
579.222310134098
 20
23.85695856181341
 30
0.0
 40
1.1
  1
5.17.4.1
  7
Logix
100
AcDbText
  0
MTEXT
  5
18AA4
330
1F
100
AcDbEntity
  8
Dim
100
AcDbMText
 10
579.222310134098
 20
26.58400604994612
 30
0.0
 40
0.825
 41
2.75
 46
1.077047488132701
 71
     1
 72
     5
  1
Drawing:
  7
Logix
 73
     1
 44
1.0
1001
ACAD
1000
ACAD_MTEXT_DEFINED_HEIGHT_BEGIN
1070
    46
1040
1.077047488132701
1000
ACAD_MTEXT_DEFINED_HEIGHT_END
  0
TEXT
  5
18AA5
330
1F
100
AcDbEntity
  8
Dim
100
AcDbText
 10
606.0166758593164
 20
23.85695856181341
 30
0.0
 40
1.1
  1
Jul 30/13
  7
Logix
100
AcDbText
  0
MTEXT
  5
18AA6
330
1F
100
AcDbEntity
  8
Dim
100
AcDbMText
 10
606.0166758593164
 20
26.58400604994612
 30
0.0
 40
0.825
 41
2.75
 46
1.077047488132701
 71
     1
 72
     5
  1
Date:
  7
Logix
 73
     1
 44
1.0
1001
ACAD
1000
ACAD_MTEXT_DEFINED_HEIGHT_BEGIN
1070
    46
1040
1.077047488132701
1000
ACAD_MTEXT_DEFINED_HEIGHT_END
  0
MTEXT
  5
18AA7
330
1F
100
AcDbEntity
  8
Dim
100
AcDbMText
 10
579.222310134098
 20
21.75311529874836
 30
0.0
 40
0.825
 41
2.75
 46
1.077047488132701
 71
     1
 72
     5
  1
Title:
  7
Logix
 73
     1
 44
1.0
1001
ACAD
1000
ACAD_MTEXT_DEFINED_HEIGHT_BEGIN
1070
    46
1040
1.077047488132701
1000
ACAD_MTEXT_DEFINED_HEIGHT_END
  0
MTEXT
  5
18AA8
330
1F
100
AcDbEntity
  8
Dim
100
AcDbMText
 10
600.947310134098
 20
17.61995717909095
 30
0.0
 40
1.375
 41
43.45
 46
5.874002765444916
 71
     5
 72
     5
  1
CORBEL REINFORCING DETAIL
  7
Logix
 73
     1
 44
1.0
1001
ACAD
1000
ACAD_MTEXT_DEFINED_HEIGHT_BEGIN
1070
    46
1040
5.874002765444916
1000
ACAD_MTEXT_DEFINED_HEIGHT_END
  0
LWPOLYLINE
  5
18D4D
330
1F
100
AcDbEntity
  8
Dim
100
AcDbPolyline
 90
        2
 70
     0
 43
0.22
 10
616.5013034003172
 20
22.30311529874836
 10
616.5013034003172
 20
27.13400604994612
  0
MTEXT
  5
18D4E
330
1F
100
AcDbEntity
  8
Dim
100
AcDbMText
 10
617.0513034003172
 20
26.58400604994612
 30
0.0
 40
0.825
 41
2.75
 46
1.077047488132701
 71
     1
 72
     5
  1
Page:
  7
Logix
 73
     1
 44
1.0
1001
ACAD
1000
ACAD_MTEXT_DEFINED_HEIGHT_BEGIN
1070
    46
1040
1.077047488132701
1000
ACAD_MTEXT_DEFINED_HEIGHT_END
  0
TEXT
  5
18D4F
330
1F
100
AcDbEntity
  8
Dim
100
AcDbText
 10
617.0513034003172
 20
23.85695856181341
 30
0.0
 40
1.1
  1
1/1
  7
Logix
100
AcDbText
  0
MTEXT
  5
19255
102
{ACAD_XDICTIONARY
360
1943E
102
}
330
1F
100
AcDbEntity
  8
Dim
100
AcDbMText
 10
529.4728817877971
 20
35.89764653875183
 30
0.0
 40
0.75
 41
45.5107749919864
 46
0.0
 71
     1
 72
     5
  1
{\LNOTES:\P\pi-2.25,l2.25,t2.25;}1.^ICorbel steel details to be verified and approved by a locally licensed engineer.
  7
Logix
 73
     1
 44
1.0
1001
ACAD
1000
ACAD_MTEXT_COLUMN_INFO_BEGIN
1070
    75
1070
     2
1070
    79
1070
     0
1070
    76
1070
     1
1070
    78
1070
     0
1070
    48
1040
45.5107749919864
1070
    49
1040
5.0
1070
    50
1070
     1
1040
0.0
1000
ACAD_MTEXT_COLUMN_INFO_END
  0
MTEXT
  5
1948C
330
1F
100
AcDbEntity
  8
Title Block
100
AcDbMText
 10
539.1995759312814
 20
23.39197625027673
 30
0.0
 40
3.263703059417291
 41
16.89530481305308
 46
0.0
 71
     5
 72
     5
  1
{\fSansSerif|b1|i0|c2|p2;LOGIX}
 73
     1
 44
1.0
  0
HATCH
  5
1948D
330
1F
100
AcDbEntity
  8
Title Block
 62
    12
420
 14024704
100
AcDbHatch
 10
0.0
 20
0.0
 30
0.0
210
0.0
220
0.0
230
1.0
  2
SOLID
 70
     1
 71
     0
 91
        1
 92
        1
 93
        4
 72
     1
 10
542.7372505496033
 20
25.4569560359781
 11
542.7372505496033
 21
26.13602270864625
 72
     1
 10
542.7372505496033
 20
26.13602270864625
 11
542.0543046799946
 21
26.14073939550352
 72
     1
 10
542.0543046799946
 20
26.14073939550353
 11
542.0543046799946
 21
25.46167272283538
 72
     1
 10
542.0543046799946
 20
25.46167272283538
 11
542.7372505496033
 21
25.4569560359781
 97
        0
 75
     0
 76
     1
 98
        1
 10
542.9279316252237
 20
25.69624635587211
450
        0
451
        0
460
0.0
461
0.0
452
        0
462
0.0
453
        0
470

  0
TEXT
  5
1948E
330
1F
100
AcDbEntity
  8
Title Block
100
AcDbText
 10
534.4307781212165
 20
21.1194434809263
 30
0.0
 40
0.5192254867254781
  1
INSULATED CONCRETE FORMS
  7
TITLE
100
AcDbText
  0
LWPOLYLINE
  5
1948F
330
1F
100
AcDbEntity
  8
Title Block
100
AcDbPolyline
 90
        3
 70
     0
 43
0.5934005562576893
 10
531.4296328484482
 20
22.54596152136159
 10
531.4296328484482
 20
20.82020684651866
 10
534.5190989900378
 20
20.82020684651866
  0
HATCH
  5
19490
330
1F
100
AcDbEntity
  8
Title Block
 62
    12
420
 14024704
100
AcDbHatch
 10
0.0
 20
0.0
 30
0.0
210
0.0
220
0.0
230
1.0
  2
SOLID
 70
     1
 71
     0
 91
        1
 92
        1
 93
        4
 72
     1
 10
532.4171985465511
 20
21.11392740577213
 11
532.4171985465511
 21
21.80298018570864
 72
     1
 10
532.4171985465511
 20
21.80298018570863
 11
531.7214015118223
 21
21.80298018570863
 72
     1
 10
531.7214015118223
 20
21.80298018570863
 11
531.7214015118223
 21
21.11392740577212
 72
     1
 10
531.7214015118223
 20
21.11392740577213
 11
532.4171985465511
 21
21.11392740577213
 97
        0
 75
     0
 76
     1
 98
        1
 10
532.1798725013138
 20
21.43662904463156
450
        0
451
        0
460
0.0
461
0.0
452
        0
462
0.0
453
        0
470

  0
LWPOLYLINE
  5
19491
330
1F
100
AcDbEntity
  8
Title Block
 62
    10
100
AcDbPolyline
 90
        4
 70
     1
 43
0.0
 10
532.4171985465511
 20
21.11392740577213
 10
531.7214015118223
 20
21.11392740577213
 10
531.7214015118223
 20
21.80298018570864
 10
532.4171985465511
 20
21.80298018570864
  0
MTEXT
  5
19492
102
{ACAD_XDICTIONARY
360
19493
102
}
330
1F
100
AcDbEntity
  8
Title Block
100
AcDbMText
 10
547.4597768780301
 20
25.01871176428462
 30
0.0
 40
0.7912007416769191
 41
1.556596063254179
 46
0.0
 71
     3
 72
     5
  1
{\fArial|b0|i0|c0|p34;\H1.0833x;®}
 73
     1
 44
1.0
  0
MTEXT
  5
19494
102
{ACAD_XDICTIONARY
360
19495
102
}
330
1F
100
AcDbEntity
  8
0
 48
0.01
100
AcDbMText
 10
531.1035150266149
 20
19.77783846381156
 30
0.0
 40
1.009502621153317
 41
16.33084841197276
 46
0.0
 71
     1
 72
     5
  1
\pi0.08053;{\C256;\c16777215;Build Anything \fCalibri|b1|i0|c0|p34;Better.}
  7
Logix
 73
     1
 44
1.0
 90
        1
 63
    83
 45
1.5
441
        0
1001
AcadAnnotative
1000
AnnotativeData
1002
{
1070
     1
1070
     1
1002
}
  0
MTEXT
  5
19499
330
1F
100
AcDbEntity
  8
Title Block
100
AcDbMText
 10
538.7687404029162
 20
15.6661040648819
 30
0.0
 40
0.7912007416769191
 41
22.80164843412495
 46
0.0
 71
     5
 72
     5
  1
{\fArial|b0|i0|c0|p34;1-866-944-0153}
 73
     1
 44
1.0
  0
MTEXT
  5
1949A
330
1F
100
AcDbEntity
  8
Title Block
100
AcDbMText
 10
538.7687404029162
 20
16.89714589746038
 30
0.0
 40
0.7912007416769191
 41
22.80164843412495
 46
0.0
 71
     5
 72
     5
  1
{\fArial|b0|i0|c0|p34;www.logixicf.com}
 73
     1
 44
1.0
  0
VIEWPORT
  5
11F07
330
5D
100
AcDbEntity
 67
     1
  8
0
100
AcDbViewport
 10
5.249999639556163
 20
3.999999883606677
 30
0.0
 40
21.60469660038833
 41
8.992999745766947
 68
     1
 69
     1
 12
5.249999639556163
 22
3.999999883606677
 13
0.0
 23
0.0
 14
0.5
 24
0.5
 15
0.5
 25
0.5
 16
0.0
 26
0.0
 36
1.0
 17
0.0
 27
0.0
 37
0.0
 42
50.0
 43
0.0
 44
0.0
 45
8.992999745766947
 50
0.0
 51
0.0
 72
  1000
 90
    32800
  1

281
     0
 71
     1
 74
     0
110
0.0
120
0.0
130
0.0
111
1.0
121
0.0
131
0.0
112
0.0
122
1.0
132
0.0
 79
     0
146
0.0
170
     0
 61
     5
348
17572
292
     1
282
     1
141
0.0
142
0.0
 63
   250
421
  3355443
  0
VIEWPORT
  5
11F09
330
5D
100
AcDbEntity
 67
     1
  8
Dim
100
AcDbViewport
 10
5.24999976158142
 20
3.99999976158142
 30
0.0
 40
8.399999618530271
 41
6.399999618530272
 68
     2
 69
     2
 12
70.24570646213799
 22
55.11630672257945
 13
0.0
 23
0.0
 14
0.5
 24
0.5
 15
0.5
 25
0.5
 16
0.0
 26
0.0
 36
1.0
 17
0.0
 27
0.0
 37
0.0
 42
50.0
 43
0.0
 44
0.0
 45
113.4515982453417
 50
0.0
 51
0.0
 72
  1000
 90
    32864
  1

281
     0
 71
     1
 74
     0
110
0.0
120
0.0
130
0.0
111
1.0
121
0.0
131
0.0
112
0.0
122
1.0
132
0.0
 79
     0
146
0.0
170
     0
 61
     5
348
17572
292
     1
282
     1
141
0.0
142
0.0
 63
   250
421
  3355443
  0
ENDSEC
  0
SECTION
  2
OBJECTS
  0
DICTIONARY
  5
C
330
0
100
AcDbDictionary
281
     1
  3
ACAD_CIP_PREVIOUS_PRODUCT_INFO
350
19459
  3
ACAD_COLOR
350
73
  3
ACAD_DETAILVIEWSTYLE
350
1944B
  3
ACAD_FIELDLIST
350
7B86
  3
ACAD_GROUP
350
D
  3
ACAD_LAYOUT
350
1A
  3
ACAD_MATERIAL
350
72
  3
ACAD_MLEADERSTYLE
350
1759F
  3
ACAD_MLINESTYLE
350
17
  3
ACAD_PLOTSETTINGS
350
19
  3
ACAD_PLOTSTYLENAME
350
E
  3
ACAD_SCALELIST
350
1757D
  3
ACAD_SECTIONVIEWSTYLE
350
19449
  3
ACAD_TABLESTYLE
350
86
  3
ACAD_VISUALSTYLE
350
1756C
  3
AcadDim
350
35BD
  3
ACDB_RECOMPOSE_DATA
350
194DE
  3
AcDbVariableDictionary
350
66
  3
AcDsDecomposeData
350
194E4
  3
AEC_CLASSIFICATION_SYSTEM_DEFS
350
7B87
  3
AEC_PROPERTY_SET_DEFS
350
19488
  3
BNS_VARIABLES
350
1401
  0
DICTIONARY
  5
192FB
330
8
100
AcDbDictionary
280
     1
281
     1
  0
DICTIONARY
  5
8D
330
2
100
AcDbDictionary
280
     1
281
     1
  3
ACAD_LAYERFILTERS
360
16273
  3
ACAD_LAYERSTATES
360
11EFF
  3
ACLYDICTIONARY
360
16272
  0
DICTIONARY
  5
175AF
330
10
100
AcDbDictionary
280
     1
281
     1
  3
ADSK_XREC_LAYER_RECONCILED
360
175B0
  0
DICTIONARY
  5
175B1
330
8B
100
AcDbDictionary
280
     1
281
     1
  3
ADSK_XREC_LAYER_RECONCILED
360
175B2
  0
DICTIONARY
  5
175B3
330
413
100
AcDbDictionary
280
     1
281
     1
  3
ADSK_XREC_LAYER_RECONCILED
360
175B4
  0
DICTIONARY
  5
175B5
330
770
100
AcDbDictionary
280
     1
281
     1
  3
ADSK_XREC_LAYER_RECONCILED
360
175B6
  0
DICTIONARY
  5
175B7
330
E05
100
AcDbDictionary
280
     1
281
     1
  3
ADSK_XREC_LAYER_RECONCILED
360
175B8
  0
DICTIONARY
  5
175B9
330
13AF
100
AcDbDictionary
280
     1
281
     1
  3
ADSK_XREC_LAYER_RECONCILED
360
175BA
  0
DICTIONARY
  5
175BB
330
32CE
100
AcDbDictionary
280
     1
281
     1
  3
ADSK_XREC_LAYER_RECONCILED
360
175BC
  0
DICTIONARY
  5
175BD
330
7B7D
100
AcDbDictionary
280
     1
281
     1
  3
ADSK_XREC_LAYER_RECONCILED
360
175BE
  0
DICTIONARY
  5
176FD
330
176FC
100
AcDbDictionary
280
     1
281
     1
  0
DICTIONARY
  5
1945E
330
1945D
100
AcDbDictionary
280
     1
281
     1
  0
DICTIONARY
  5
19460
330
1945F
100
AcDbDictionary
280
     1
281
     1
  0
DICTIONARY
  5
39A
330
1F
100
AcDbDictionary
280
     1
281
     1
  3
ACAD_SORTENTS
360
39B
  0
DICTIONARY
  5
19382
330
7B76
100
AcDbDictionary
280
     1
281
     1
  0
DICTIONARY
  5
17EC1
330
17EB3
100
AcDbDictionary
280
     1
281
     1
  3
ACAD_DIMASSOC
360
17ECC
  0
DICTIONARY
  5
17F9B
330
17F9A
100
AcDbDictionary
280
     1
281
     1
  3
ACAD_DIMASSOC
360
17F9C
  0
DICTIONARY
  5
17F9E
330
17F9D
100
AcDbDictionary
280
     1
281
     1
  3
ACAD_DIMASSOC
360
17F9F
  0
DICTIONARY
  5
17FA4
330
17FA3
100
AcDbDictionary
280
     1
281
     1
  3
ACAD_DIMASSOC
360
17FA5
  0
DICTIONARY
  5
17FA7
330
17FA6
100
AcDbDictionary
280
     1
281
     1
  3
ACAD_DIMASSOC
360
17FA8
  0
DICTIONARY
  5
17FAA
330
17FA9
100
AcDbDictionary
280
     1
281
     1
  3
ACAD_DIMASSOC
360
17FAB
  0
DICTIONARY
  5
1897D
330
1896F
100
AcDbDictionary
280
     1
281
     1
  3
ACAD_DIMASSOC
360
18988
  0
DICTIONARY
  5
189A5
330
18997
100
AcDbDictionary
280
     1
281
     1
  3
ACAD_DIMASSOC
360
189B0
  0
DICTIONARY
  5
1943E
330
19255
100
AcDbDictionary
280
     1
281
     1
  3
ACAD_MTEXT_2008_RT
360
194DB
  0
DICTIONARY
  5
19493
330
19492
100
AcDbDictionary
280
     1
281
     1
  3
ACAD_MTEXT_2008_RT
360
194DC
  0
DICTIONARY
  5
19495
330
19494
100
AcDbDictionary
280
     1
281
     1
  3
ACAD_MTEXT_2008_RT
360
194DD
  3
AcDbContextDataManager
360
19496
  0
XRECORD
  5
19459
102
{ACAD_REACTORS
330
C
102
}
330
C
100
AcDbXrecord
280
     1
300
ACD
300
2022
300

  0
DICTIONARY
  5
73
102
{ACAD_REACTORS
330
C
102
}
330
C
100
AcDbDictionary
281
     1
  0
DICTIONARY
  5
1944B
102
{ACAD_REACTORS
330
C
102
}
330
C
100
AcDbDictionary
281
     1
  3
Imperial24
350
1944C
  0
FIELDLIST
  5
7B86
102
{ACAD_REACTORS
330
C
102
}
330
C
100
AcDbIdSet
 90
        0
100
AcDbFieldList
  0
DICTIONARY
  5
D
102
{ACAD_REACTORS
330
C
102
}
330
C
100
AcDbDictionary
281
     1
  0
DICTIONARY
  5
1A
102
{ACAD_REACTORS
330
C
102
}
330
C
100
AcDbDictionary
281
     1
  3
Layout1
350
59
  3
Layout2
350
5E
  3
Model
350
22
  0
DICTIONARY
  5
72
102
{ACAD_REACTORS
330
C
102
}
330
C
100
AcDbDictionary
281
     1
  3
ByBlock
350
1755C
  3
ByLayer
350
17554
  3
Global
350
17564
  0
DICTIONARY
  5
1759F
102
{ACAD_REACTORS
330
C
102
}
330
C
100
AcDbDictionary
281
     1
  3
Standard
350
175A0
  0
DICTIONARY
  5
17
102
{ACAD_REACTORS
330
C
102
}
330
C
100
AcDbDictionary
281
     1
  3
Standard
350
18
  0
DICTIONARY
  5
19
102
{ACAD_REACTORS
330
C
102
}
330
C
100
AcDbDictionary
281
     1
  0
ACDBDICTIONARYWDFLT
  5
E
102
{ACAD_REACTORS
330
C
102
}
330
C
100
AcDbDictionary
281
     1
  3
Normal
350
F
100
AcDbDictionaryWithDefault
340
F
  0
DICTIONARY
  5
1757D
102
{ACAD_REACTORS
330
C
102
}
330
C
100
AcDbDictionary
281
     1
  3
A0
350
1757E
  3
A1
350
1757F
  3
A2
350
17580
  3
A3
350
17581
  3
A4
350
17582
  3
A5
350
17583
  3
A6
350
17584
  3
A7
350
17585
  3
A8
350
17586
  3
A9
350
17587
  3
B0
350
17588
  3
B1
350
17589
  3
B2
350
1758A
  3
B3
350
1758B
  3
B4
350
1758C
  3
B5
350
1758D
  3
B6
350
1758E
  3
B7
350
1758F
  3
B8
350
17590
  3
B9
350
17591
  3
C0
350
17592
  3
C1
350
17593
  3
C2
350
17594
  3
C3
350
17595
  3
C4
350
17596
  3
C5
350
17597
  3
C6
350
17598
  3
C7
350
17599
  3
C8
350
1759A
  3
C9
350
1759B
  3
D0
350
1759C
  3
D1
350
1759D
  3
D2
350
1759E
  0
DICTIONARY
  5
19449
102
{ACAD_REACTORS
330
C
102
}
330
C
100
AcDbDictionary
281
     1
  3
Imperial24
350
1944A
  0
DICTIONARY
  5
86
102
{ACAD_REACTORS
330
C
102
}
330
C
100
AcDbDictionary
281
     1
  3
Example1
350
37C9
  3
Example2
350
36AB
  3
Standard
350
87
  0
DICTIONARY
  5
1756C
102
{ACAD_REACTORS
330
C
102
}
330
C
100
AcDbDictionary
281
     1
  3
2dWireframe
350
17572
  3
3D Hidden
350
17574
  3
3dWireframe
350
17573
  3
Basic
350
17571
  3
Brighten
350
17578
  3
ColorChange
350
1757C
  3
Conceptual
350
17575
  3
Dim
350
17577
  3
EdgeColorOff
350
175CD
  3
Facepattern
350
1757B
  3
Flat
350
1756D
  3
FlatWithEdges
350
1756E
  3
Gouraud
350
1756F
  3
GouraudWithEdges
350
17570
  3
Hidden
350
19443
  3
JitterOff
350
175CB
  3
Linepattern
350
1757A
  3
OverhangOff
350
175CC
  3
Realistic
350
17576
  3
Shaded
350
19448
  3
Shaded with edges
350
19447
  3
Shades of Gray
350
19444
  3
Sketchy
350
19445
  3
Thicken
350
17579
  3
Wireframe
350
19442
  3
X-Ray
350
19446
  0
XRECORD
  5
35BD
102
{ACAD_REACTORS
330
C
102
}
330
C
100
AcDbXrecord
280
     1
 90
   990106
  3

 60
     0
 61
     0
 62
     1
 63
     3
 64
     0
 65
     0
 66
     0
 67
     3
 68
     1
 69
     0
 70
     0
 71
     0
 72
     0
 40
0.0
170
     0
340
0
  0
XRECORD
  5
194DE
102
{ACAD_REACTORS
330
C
102
}
330
C
100
AcDbXrecord
280
     1
 90
        1
330
87
330
36AB
330
37C9
330
19255
330
19492
330
19494
  0
DICTIONARY
  5
66
102
{ACAD_REACTORS
330
C
102
}
330
C
100
AcDbDictionary
281
     1
  3
CANNOSCALE
350
175C8
  3
CMLEADERSTYLE
350
175C6
  3
CTABLESTYLE
350
364
  3
CVIEWDETAILSTYLE
350
194C6
  3
CVIEWSECTIONSTYLE
350
194C7
  3
DIMASSOC
350
67
  3
HIDETEXT
350
6B
  3
INDEXCTL
350
1935F
  3
LAYEREVAL
350
19394
  3
LAYERNOTIFY
350
19395
  3
LIGHTINGUNITS
350
175C9
  3
MSLTSCALE
350
175C7
  3
PROJECTNAME
350
8305
  3
SORTENTS
350
1935E
  0
DICTIONARY
  5
194E4
102
{ACAD_REACTORS
330
C
102
}
330
C
100
AcDbDictionary
281
     1
  3
AcDsRecords
350
194E6
  3
AcDsSchemas
350
194E5
1001
ACAD
1070
     2
  0
DICTIONARY
  5
7B87
102
{ACAD_REACTORS
330
C
102
}
330
C
100
AcDbDictionary
281
     1
  0
DICTIONARY
  5
19488
102
{ACAD_REACTORS
330
C
102
}
330
C
100
AcDbDictionary
281
     1
  0
DICTIONARY
  5
1401
102
{ACAD_REACTORS
330
C
102
}
330
C
100
AcDbDictionary
281
     1
  3
ACET.BREAKLINE-BLKEXE
350
1402
  3
ACET.BREAKLINE-BLKSIZE
350
1883D
  0
DICTIONARY
  5
16273
102
{ACAD_REACTORS
330
8D
102
}
330
8D
100
AcDbDictionary
281
     1
  0
DICTIONARY
  5
11EFF
102
{ACAD_REACTORS
330
8D
102
}
330
8D
100
AcDbDictionary
281
     1
  0
DICTIONARY
  5
16272
102
{ACAD_REACTORS
330
8D
102
}
330
8D
100
AcDbDictionary
281
     1
1001
ACAD
1000
<All
  0
XRECORD
  5
175B0
102
{ACAD_REACTORS
330
175AF
102
}
330
175AF
100
AcDbXrecord
280
     1
290
     1
  0
XRECORD
  5
175B2
102
{ACAD_REACTORS
330
175B1
102
}
330
175B1
100
AcDbXrecord
280
     1
290
     1
  0
XRECORD
  5
175B4
102
{ACAD_REACTORS
330
175B3
102
}
330
175B3
100
AcDbXrecord
280
     1
290
     1
  0
XRECORD
  5
175B6
102
{ACAD_REACTORS
330
175B5
102
}
330
175B5
100
AcDbXrecord
280
     1
290
     1
  0
XRECORD
  5
175B8
102
{ACAD_REACTORS
330
175B7
102
}
330
175B7
100
AcDbXrecord
280
     1
290
     1
  0
XRECORD
  5
175BA
102
{ACAD_REACTORS
330
175B9
102
}
330
175B9
100
AcDbXrecord
280
     1
290
     1
  0
XRECORD
  5
175BC
102
{ACAD_REACTORS
330
175BB
102
}
330
175BB
100
AcDbXrecord
280
     1
290
     1
  0
XRECORD
  5
175BE
102
{ACAD_REACTORS
330
175BD
102
}
330
175BD
100
AcDbXrecord
280
     1
290
     1
  0
SORTENTSTABLE
  5
39B
102
{ACAD_REACTORS
330
39A
102
}
330
39A
100
AcDbSortentsTable
330
1F
331
17CFE
  5
17D00
331
17CFF
  5
17D01
331
17D00
  5
17D02
331
17D01
  5
17D03
331
17D02
  5
17D04
331
17D03
  5
17D05
331
17D04
  5
17D06
331
17D05
  5
17D07
331
17D06
  5
17D08
331
17D07
  5
17D09
331
17D08
  5
17D0A
331
17D09
  5
17D0B
331
17D0A
  5
17D0C
331
17D0B
  5
17D0D
331
17D0C
  5
17D0E
331
17D0D
  5
17D0F
331
17D0E
  5
17D10
331
17D0F
  5
17D11
331
17D10
  5
17D12
331
17D11
  5
17D13
331
17D12
  5
17D15
331
17D13
  5
17D16
331
17D15
  5
17D17
331
17D16
  5
17D18
331
17D17
  5
17D4C
331
17D18
  5
17D4D
331
17D4C
  5
17D4E
331
17D4D
  5
17D4F
331
17D4E
  5
17D50
331
17D4F
  5
17D51
331
17D50
  5
17D52
331
17D51
  5
17D53
331
17D52
  5
17D54
331
17D53
  5
17D55
331
17D54
  5
17D56
331
17D55
  5
17D57
331
17D56
  5
17D58
331
17D57
  5
17D59
331
17D58
  5
17D5A
331
17D59
  5
17D5B
331
17D5A
  5
17D5C
331
17D5B
  5
17D5D
331
17D5C
  5
17D5E
331
17D5D
  5
17D5F
331
17D5E
  5
17D60
331
17D5F
  5
17D61
331
17D60
  5
17D62
331
17D61
  5
17D63
331
17D62
  5
17D64
331
17D63
  5
17D65
331
17D64
  5
17D66
331
17D65
  5
17D67
331
17D66
  5
17D68
331
17D67
  5
17D69
331
17D68
  5
17D6A
331
17D69
  5
17D6B
331
17D6A
  5
17D6C
331
17D6B
  5
17D6D
331
17D6C
  5
17D6E
331
17D6D
  5
17D6F
331
17D6E
  5
17D70
331
17D6F
  5
17D71
331
17D70
  5
17D72
331
17D71
  5
17D73
331
17D72
  5
17D74
331
17D73
  5
17D75
331
17D74
  5
17D76
331
17D75
  5
17D77
331
17D76
  5
17D78
331
17D77
  5
17D79
331
17D78
  5
17D7A
331
17D79
  5
17D7B
331
17D7A
  5
17D7C
331
17D7B
  5
17D7D
331
17D7C
  5
17D7E
331
17D7D
  5
17D7F
331
17D7E
  5
17D80
331
17D7F
  5
17D81
331
17D80
  5
17D82
331
17D81
  5
17D83
331
17D82
  5
17D84
331
17D83
  5
17D85
331
17D84
  5
17D86
331
17D85
  5
17D87
331
17D86
  5
17D88
331
17D87
  5
17D89
331
17D88
  5
17D8A
331
17D89
  5
17D8B
331
17D8A
  5
17D8C
331
17D8B
  5
17D8D
331
17D8C
  5
17D8E
331
17D8D
  5
17D8F
331
17D8E
  5
17D90
331
17D8F
  5
17D91
331
17D90
  5
17D92
331
17D91
  5
17D93
331
17D92
  5
17D94
331
17D93
  5
17D95
331
17D94
  5
17D96
331
17D95
  5
17D97
331
17D96
  5
17D98
331
17D97
  5
17D99
331
17D98
  5
17D9A
331
17D99
  5
17D9B
331
17D9A
  5
17D9C
331
17D9B
  5
17D9D
331
17D9C
  5
17D9E
331
17D9D
  5
17D9F
331
17D9E
  5
17DA0
331
17D9F
  5
17DA1
331
17DA0
  5
17DA2
331
17DA1
  5
17DA3
331
17DA2
  5
17DA4
331
17DA3
  5
17DA5
331
17DA4
  5
17DA6
331
17DA5
  5
17DA7
331
17DA6
  5
17DA8
331
17DA7
  5
17DAC
331
17DA8
  5
17DAE
331
17DAC
  5
17DAF
331
17DAE
  5
17DB2
331
17DAF
  5
17DB3
331
17DB2
  5
17DB4
331
17DB3
  5
17DB5
331
17DB4
  5
17DB6
331
17DB5
  5
17DB7
331
17DB6
  5
17DB8
331
17DB7
  5
17DB9
331
17DB8
  5
17DBA
331
17DB9
  5
17DBB
331
17DBA
  5
17DBC
331
17DBB
  5
17DBD
331
17DBC
  5
17DBE
331
17DBD
  5
17DBF
331
17DBE
  5
17DC0
331
17DBF
  5
17DC1
331
17DC0
  5
17DC2
331
17DC1
  5
17DC3
331
17DC2
  5
17DC4
331
17DC3
  5
17DC5
331
17DC4
  5
17DC6
331
17DC5
  5
17DC7
331
17DC6
  5
17DC8
331
17DC7
  5
17DC9
331
17DC8
  5
17DCA
331
17DC9
  5
17DCB
331
17DCA
  5
17DCC
331
17DCB
  5
17DCD
331
17DCC
  5
17DCE
331
17DCD
  5
17DCF
331
17DCE
  5
17DD0
331
17DCF
  5
17DD1
331
17DD0
  5
17DD2
331
17DD1
  5
17DD3
331
17DD2
  5
17DD4
331
17DD3
  5
17DD5
331
17DD4
  5
17DD6
331
17DD5
  5
17DD7
331
17DD6
  5
17DD8
331
17DD7
  5
17DD9
331
17DD8
  5
17E02
331
17DD9
  5
17E04
331
17E02
  5
17E05
331
17E04
  5
17E0A
331
17E05
  5
17E0B
331
17E0A
  5
17E0C
331
17E0B
  5
17E0D
331
17E0C
  5
17E0E
331
17E0D
  5
17E0F
331
17E0E
  5
17E10
331
17E0F
  5
17E11
331
17E10
  5
17E12
331
17E11
  5
17E13
331
17E12
  5
17E14
331
17E13
  5
17E15
331
17E14
  5
17E16
331
17E15
  5
17E17
331
17E16
  5
17E18
331
17E17
  5
17E19
331
17E18
  5
17E1A
331
17E19
  5
17E1B
331
17E1A
  5
17E1C
331
17E1B
  5
17E1D
331
17E1C
  5
17E1E
331
17E1D
  5
17E1F
331
17E1E
  5
17E20
331
17E1F
  5
17E21
331
17E20
  5
17E22
331
17E21
  5
17E23
331
17E22
  5
17E24
331
17E23
  5
17E25
331
17E24
  5
17E26
331
17E25
  5
17E27
331
17E26
  5
17E28
331
17E27
  5
17E29
331
17E28
  5
17E2A
331
17E29
  5
17E2B
331
17E2A
  5
17E2C
331
17E2B
  5
17E2D
331
17E2C
  5
17E2E
331
17E2D
  5
17E2F
331
17E2E
  5
17E30
331
17E2F
  5
17E31
331
17E30
  5
17E32
331
17E31
  5
17E33
331
17E32
  5
17E34
331
17E33
  5
17E35
331
17E34
  5
17E36
331
17E35
  5
17E37
331
17E36
  5
17E38
331
17E37
  5
17E39
331
17E38
  5
17E3A
331
17E39
  5
17E3B
331
17E3A
  5
17E3C
331
17E3B
  5
17E3D
331
17E3C
  5
17E3E
331
17E3D
  5
17E3F
331
17E3E
  5
17E40
331
17E3F
  5
17E41
331
17E40
  5
17E42
331
17E41
  5
17E43
331
17E42
  5
17E44
331
17E43
  5
17E45
331
17E44
  5
17E46
331
17E45
  5
17E47
331
17E46
  5
17E48
331
17E47
  5
17E7E
331
17E48
  5
17E7F
331
17E7E
  5
17E99
331
17EB3
  5
17EDB
331
17F7B
  5
17F9D
331
17F9A
  5
17FA0
331
17F9D
  5
17FA3
331
17FA3
  5
17FA9
331
17FA6
  5
17FAC
331
17FA9
  5
17FAD
331
1896F
  5
189D3
331
18997
  5
189D5
  0
DIMASSOC
  5
17ECC
102
{ACAD_REACTORS
330
17EC1
102
}
330
17EC1
100
AcDbDimAssoc
330
17EB3
 90
        2
 70
     0
 71
     0
  1
AcDbOsnapPointRef
 72
    13
331
17D0A
 73
     2
 91
        0
 40
0.0
 10
0.0
 20
0.0
 30
2.000000000000000E+50
 75
     0
  0
DIMASSOC
  5
17F9C
102
{ACAD_REACTORS
330
17F9B
102
}
330
17F9B
100
AcDbDimAssoc
330
17F9A
 90
        1
 70
     0
 71
     0
  1
AcDbOsnapPointRef
 72
    10
331
17E7E
 73
     2
 91
        1
 40
0.1757568067547481
 10
0.0
 20
0.0
 30
0.0
 75
     0
  0
DIMASSOC
  5
17F9F
102
{ACAD_REACTORS
330
17F9E
102
}
330
17F9E
100
AcDbDimAssoc
330
17F9D
 90
        1
 70
     0
 71
     0
  1
AcDbOsnapPointRef
 72
    10
331
17E11
 73
     2
 91
        2
 40
1.203122428521897
 10
0.0
 20
0.0
 30
0.0
 75
     0
  0
DIMASSOC
  5
17FA5
102
{ACAD_REACTORS
330
17FA4
102
}
330
17FA4
100
AcDbDimAssoc
330
17FA3
 90
        7
 70
     0
 71
     0
  1
AcDbOsnapPointRef
 72
     8
331
17E26
 73
     2
 91
        0
 40
6.178420786204333
 10
0.0
 20
0.0
 30
0.0
 75
     0
  1
AcDbOsnapPointRef
 72
     2
331
17E2E
 73
     2
 91
        0
 40
6.283185307179586
 10
0.0
 20
0.0
 30
0.0
 75
     0
  1
AcDbOsnapPointRef
 72
     8
331
17E2A
 73
     2
 91
        0
 40
6.910504349886643
 10
0.0
 20
0.0
 30
0.0
 75
     0
  0
DIMASSOC
  5
17FA8
102
{ACAD_REACTORS
330
17FA7
102
}
330
17FA7
100
AcDbDimAssoc
330
17FA6
 90
        1
 70
     0
 71
     0
  1
AcDbOsnapPointRef
 72
    10
331
17E32
 73
     2
 91
        0
 40
4.055913801404122
 10
0.0
 20
0.0
 30
0.0
 75
     0
  0
DIMASSOC
  5
17FAB
102
{ACAD_REACTORS
330
17FAA
102
}
330
17FAA
100
AcDbDimAssoc
330
17FA9
 90
        1
 70
     0
 71
     0
  1
AcDbOsnapPointRef
 72
    10
331
17E33
 73
     2
 91
        0
 40
5.489397170924244
 10
0.0
 20
0.0
 30
0.0
 75
     0
  0
DIMASSOC
  5
18988
102
{ACAD_REACTORS
330
1897D
102
}
330
1897D
100
AcDbDimAssoc
330
1896F
 90
        2
 70
     0
 71
     0
  1
AcDbOsnapPointRef
 72
     1
331
17E36
 73
     2
 91
        0
 40
1.0
 10
0.0
 20
0.0
 30
2.000000000000000E+50
 75
     0
  0
DIMASSOC
  5
189B0
102
{ACAD_REACTORS
330
189A5
102
}
330
189A5
100
AcDbDimAssoc
330
18997
 90
        2
 70
     0
 71
     0
  1
AcDbOsnapPointRef
 72
     8
331
17E04
 73
     2
 91
        0
 40
1.0
 10
0.0
 20
0.0
 30
0.0
 75
     1
  1
AcDbOsnapPointRef
 72
     0
 40
0.0
 10
218.3489881688121
 20
126.3695931317416
 30
0.0
 75
     0
  0
XRECORD
  5
194DB
102
{ACAD_REACTORS
330
1943E
102
}
330
1943E
100
AcDbXrecord
280
     1
 40
616163.0
  1
{\LNOTES:\P\pxi-3,l3,t3;}1.^ICorbel steel details to be verified and approved by a locally licensed engineer.
  0
XRECORD
  5
194DC
102
{ACAD_REACTORS
330
19493
102
}
330
19493
100
AcDbXrecord
280
     1
 40
49533.0
  1
\pxql;{\fArial|b0|i0|c0|p34;\H1.0833x;®}
  0
XRECORD
  5
194DD
102
{ACAD_REACTORS
330
19495
102
}
330
19495
100
AcDbXrecord
280
     1
 40
250980.0
  1
\pxqc;{\C256;\c16777215;Build Anything \fCalibri|b1|i0|c0|p34;Better.}
  0
DICTIONARY
  5
19496
102
{ACAD_REACTORS
330
19495
102
}
330
19495
100
AcDbDictionary
281
     1
  3
ACDB_ANNOTATIONSCALES
350
19497
  0
ACDBDETAILVIEWSTYLE
  5
1944C
102
{ACAD_XDICTIONARY
360
1951D
102
}
102
{ACAD_REACTORS
330
1944B
102
}
330
1944B
100
AcDbModelDocViewStyle
 70
     0
  3
Imperial24
290
     0
100
AcDbDetailViewStyle
 70
     0
 71
     0
 90
        3
 71
     1
340
11
 62
   256
 40
0.24
340
0
 62
   256
 40
0.24
300

 40
0.36
280
     3
 71
     2
340
16
 90
       25
 62
   256
 71
     3
340
11
 62
   256
 40
0.24
 90
        1
 40
0.75
 90
        1
300
%<\AcVar ViewType \f "%tc1">% %<\AcVar ViewDetailId>%\PSCALE %<\AcVar ViewScale \f "%sn">%
 71
     4
340
16
 90
       25
 62
   256
340
16
 90
       25
 62
   256
280
     0
  0
LAYOUT
  5
59
102
{ACAD_XDICTIONARY
360
11F01
102
}
102
{ACAD_REACTORS
330
1A
102
}
330
1A
100
AcDbPlotSettings
  1

  2
none_device
  4
Letter_(8.50_x_11.00_Inches)
  6

 40
6.349999904632568
 41
6.349999904632568
 42
6.350006103515625
 43
6.350006103515625
 44
215.8999938964844
 45
279.3999938964844
 46
0.0
 47
0.0
 48
0.0
 49
0.0
140
0.0
141
0.0
142
1.0
143
1.0
 70
   688
 72
     0
 73
     1
 74
     5
  7
acad.ctb
 75
    16
147
1.0
 76
     0
 77
     2
 78
   300
148
0.0
149
0.0
100
AcDbLayout
  1
Layout1
 70
     1
 71
     1
 10
-0.2500002402958907
 20
-0.2499999962453767
 11
10.74999951940821
 21
8.249999763458731
 12
0.0
 22
0.0
 32
0.0
 14
1.049999952316284
 24
0.7999999523162842
 34
0.0
 15
9.449999570846555
 25
7.199999570846556
 35
0.0
146
0.0
 13
0.0
 23
0.0
 33
0.0
 16
1.0
 26
0.0
 36
0.0
 17
0.0
 27
1.0
 37
0.0
 76
     0
330
58
331
11EF8
1001
ACAD_PSEXT
1000
None
1000
None
1000
Not applicable
1000
The layout will not be plotted unless a new plotter configuration name is selected.
1070
     0
  0
LAYOUT
  5
5E
102
{ACAD_XDICTIONARY
360
11F0E
102
}
102
{ACAD_REACTORS
330
1A
102
}
330
1A
100
AcDbPlotSettings
  1

  2
none_device
  4
Letter_(8.50_x_11.00_Inches)
  6

 40
6.349999904632568
 41
6.349999904632568
 42
6.350006103515625
 43
6.350006103515625
 44
215.8999938964844
 45
279.3999938964844
 46
0.0
 47
0.0
 48
0.0
 49
0.0
140
0.0
141
0.0
142
1.0
143
1.0
 70
   688
 72
     0
 73
     1
 74
     5
  7
acad.ctb
 75
    16
147
1.0
 76
     0
 77
     2
 78
   300
148
0.0
149
0.0
100
AcDbLayout
  1
Layout2
 70
     1
 71
     2
 10
-0.2500002402958907
 20
-0.2499999962453767
 11
10.74999951940821
 21
8.249999763458731
 12
0.0
 22
0.0
 32
0.0
 14
1.049999952316284
 24
0.7999999523162842
 34
0.0
 15
9.449999570846555
 25
7.199999570846556
 35
0.0
146
0.0
 13
0.0
 23
0.0
 33
0.0
 16
1.0
 26
0.0
 36
0.0
 17
0.0
 27
1.0
 37
0.0
 76
     0
330
5D
331
11F07
1001
ACAD_PSEXT
1000
None
1000
None
1000
Not applicable
1000
The layout will not be plotted unless a new plotter configuration name is selected.
1070
     0
  0
LAYOUT
  5
22
102
{ACAD_XDICTIONARY
360
1938F
102
}
102
{ACAD_REACTORS
330
1A
102
}
330
1A
100
AcDbPlotSettings
  1

  2
Adobe PDF
  4
Letter
  6

 40
3.174999952316284
 41
3.174999952316284
 42
3.175003051757812
 43
3.17498779296875
 44
215.8999938964844
 45
279.3999938964844
 46
0.0
 47
1.046889997383153
 48
27.11748254559107
 49
-0.7465694939592141
140
113.4754913651642
141
110.8962373936953
142
1.0
143
11.50507416207305
 70
  3764
 72
     0
 73
     0
 74
     1
  7
acad.ctb
 75
     0
147
0.0869181707056302
 76
     0
 77
     4
 78
   300
148
-13428.30310977073
149
-357.0875648802612
100
AcDbLayout
  1
Model
 70
     1
 71
     0
 10
0.0
 20
0.0
 11
12.0
 21
9.0
 12
0.0
 22
0.0
 32
0.0
 14
0.0
 24
0.0
 34
0.0
 15
0.0
 25
0.0
 35
0.0
146
0.0
 13
0.0
 23
0.0
 33
0.0
 16
1.0
 26
0.0
 36
0.0
 17
0.0
 27
1.0
 37
0.0
 76
     0
330
1F
331
17541
1001
ACAD_PSEXT
1000
Adobe PDF
1000
Adobe PDF Converter
1000
Documents\*.pdf
1000

1070
     0
  0
MATERIAL
  5
1755C
102
{ACAD_XDICTIONARY
360
1755D
102
}
102
{ACAD_REACTORS
330
72
102
}
330
72
100
AcDbMaterial
  1
ByBlock
 72
     0
 43
0.0208333333333333
 43
0.0
 43
0.0
 43
0.0
 43
0.0
 43
0.0208333333333333
 43
0.0
 43
0.0
 43
0.0
 43
0.0
 43
1.0
 43
0.0
 43
0.0
 43
0.0
 43
0.0
 43
1.0
 77
     0
 47
0.0208333333333333
 47
0.0
 47
0.0
 47
0.0
 47
0.0
 47
0.0208333333333333
 47
0.0
 47
0.0
 47
0.0
 47
0.0
 47
1.0
 47
0.0
 47
0.0
 47
0.0
 47
0.0
 47
1.0
171
     0
 49
0.0208333333333333
 49
0.0
 49
0.0
 49
0.0
 49
0.0
 49
0.0208333333333333
 49
0.0
 49
0.0
 49
0.0
 49
0.0
 49
1.0
 49
0.0
 49
0.0
 49
0.0
 49
0.0
 49
1.0
175
     0
142
0.0208333333333333
142
0.0
142
0.0
142
0.0
142
0.0
142
0.0208333333333333
142
0.0
142
0.0
142
0.0
142
0.0
142
1.0
142
0.0
142
0.0
142
0.0
142
0.0
142
1.0
179
     0
144
0.0208333333333333
144
0.0
144
0.0
144
0.0
144
0.0
144
0.0208333333333333
144
0.0
144
0.0
144
0.0
144
0.0
144
1.0
144
0.0
144
0.0
144
0.0
144
0.0
144
1.0
147
0.0208333333333333
147
0.0
147
0.0
147
0.0
147
0.0
147
0.0208333333333333
147
0.0
147
0.0
147
0.0
147
0.0
147
1.0
147
0.0
147
0.0
147
0.0
147
0.0
147
1.0
  0
MATERIAL
  5
17554
102
{ACAD_XDICTIONARY
360
17555
102
}
102
{ACAD_REACTORS
330
72
102
}
330
72
100
AcDbMaterial
  1
ByLayer
 72
     0
 43
0.0208333333333333
 43
0.0
 43
0.0
 43
0.0
 43
0.0
 43
0.0208333333333333
 43
0.0
 43
0.0
 43
0.0
 43
0.0
 43
1.0
 43
0.0
 43
0.0
 43
0.0
 43
0.0
 43
1.0
 77
     0
 47
0.0208333333333333
 47
0.0
 47
0.0
 47
0.0
 47
0.0
 47
0.0208333333333333
 47
0.0
 47
0.0
 47
0.0
 47
0.0
 47
1.0
 47
0.0
 47
0.0
 47
0.0
 47
0.0
 47
1.0
171
     0
 49
0.0208333333333333
 49
0.0
 49
0.0
 49
0.0
 49
0.0
 49
0.0208333333333333
 49
0.0
 49
0.0
 49
0.0
 49
0.0
 49
1.0
 49
0.0
 49
0.0
 49
0.0
 49
0.0
 49
1.0
175
     0
142
0.0208333333333333
142
0.0
142
0.0
142
0.0
142
0.0
142
0.0208333333333333
142
0.0
142
0.0
142
0.0
142
0.0
142
1.0
142
0.0
142
0.0
142
0.0
142
0.0
142
1.0
179
     0
144
0.0208333333333333
144
0.0
144
0.0
144
0.0
144
0.0
144
0.0208333333333333
144
0.0
144
0.0
144
0.0
144
0.0
144
1.0
144
0.0
144
0.0
144
0.0
144
0.0
144
1.0
147
0.0208333333333333
147
0.0
147
0.0
147
0.0
147
0.0
147
0.0208333333333333
147
0.0
147
0.0
147
0.0
147
0.0
147
1.0
147
0.0
147
0.0
147
0.0
147
0.0
147
1.0
  0
MATERIAL
  5
17564
102
{ACAD_XDICTIONARY
360
17565
102
}
102
{ACAD_REACTORS
330
72
102
}
330
72
100
AcDbMaterial
  1
Global
 72
     0
 43
0.0208333333333333
 43
0.0
 43
0.0
 43
0.0
 43
0.0
 43
0.0208333333333333
 43
0.0
 43
0.0
 43
0.0
 43
0.0
 43
1.0
 43
0.0
 43
0.0
 43
0.0
 43
0.0
 43
1.0
 77
     0
 47
0.0208333333333333
 47
0.0
 47
0.0
 47
0.0
 47
0.0
 47
0.0208333333333333
 47
0.0
 47
0.0
 47
0.0
 47
0.0
 47
1.0
 47
0.0
 47
0.0
 47
0.0
 47
0.0
 47
1.0
171
     0
 49
0.0208333333333333
 49
0.0
 49
0.0
 49
0.0
 49
0.0
 49
0.0208333333333333
 49
0.0
 49
0.0
 49
0.0
 49
0.0
 49
1.0
 49
0.0
 49
0.0
 49
0.0
 49
0.0
 49
1.0
175
     0
142
0.0208333333333333
142
0.0
142
0.0
142
0.0
142
0.0
142
0.0208333333333333
142
0.0
142
0.0
142
0.0
142
0.0
142
1.0
142
0.0
142
0.0
142
0.0
142
0.0
142
1.0
179
     0
144
0.0208333333333333
144
0.0
144
0.0
144
0.0
144
0.0
144
0.0208333333333333
144
0.0
144
0.0
144
0.0
144
0.0
144
1.0
144
0.0
144
0.0
144
0.0
144
0.0
144
1.0
147
0.0208333333333333
147
0.0
147
0.0
147
0.0
147
0.0
147
0.0208333333333333
147
0.0
147
0.0
147
0.0
147
0.0
147
1.0
147
0.0
147
0.0
147
0.0
147
0.0
147
1.0
  0
MLEADERSTYLE
  5
175A0
102
{ACAD_REACTORS
330
1759F
330
17F7B
330
17F9A
330
17F9D
330
17FA3
330
17FA6
330
17FA9
102
}
330
1759F
100
AcDbMLeaderStyle
179
     2
170
     2
171
     1
172
     0
 90
        2
 40
0.0
 41
0.0
173
     1
 91
-1056964608
340
14
 92
       -2
290
     1
 42
0.09
291
     1
 43
0.36
  3
Standard
 44
0.18
300

342
1A22
174
     2
178
     2
175
     1
176
     0
 93
-1056964608
 45
1.0
292
     0
297
     0
 46
0.18
 94
-1056964608
 47
1.0
 49
1.0
140
1.0
293
     1
141
0.0
294
     1
177
     0
142
1.0
295
     0
296
     0
143
0.125
271
     0
272
     9
273
     9
  0
MLINESTYLE
  5
18
102
{ACAD_REACTORS
330
17
102
}
330
17
100
AcDbMlineStyle
  2
STANDARD
 70
     0
  3

 62
   256
 51
90.0
 52
90.0
 71
     2
 49
0.5
 62
   256
  6
BYLAYER
 49
-0.5
 62
   256
  6
BYLAYER
  0
ACDBPLACEHOLDER
  5
F
102
{ACAD_REACTORS
330
E
102
}
330
E
  0
SCALE
  5
1757E
102
{ACAD_REACTORS
330
1757D
102
}
330
1757D
100
AcDbScale
 70
     0
300
1:1
140
1.0
141
1.0
290
     1
  0
SCALE
  5
1757F
102
{ACAD_REACTORS
330
1757D
102
}
330
1757D
100
AcDbScale
 70
     0
300
1:2
140
1.0
141
2.0
290
     0
  0
SCALE
  5
17580
102
{ACAD_REACTORS
330
1757D
102
}
330
1757D
100
AcDbScale
 70
     0
300
1:4
140
1.0
141
4.0
290
     0
  0
SCALE
  5
17581
102
{ACAD_REACTORS
330
1757D
102
}
330
1757D
100
AcDbScale
 70
     0
300
1:5
140
1.0
141
5.0
290
     0
  0
SCALE
  5
17582
102
{ACAD_REACTORS
330
1757D
102
}
330
1757D
100
AcDbScale
 70
     0
300
1:8
140
1.0
141
8.0
290
     0
  0
SCALE
  5
17583
102
{ACAD_REACTORS
330
1757D
102
}
330
1757D
100
AcDbScale
 70
     0
300
1:10
140
1.0
141
10.0
290
     0
  0
SCALE
  5
17584
102
{ACAD_REACTORS
330
1757D
102
}
330
1757D
100
AcDbScale
 70
     0
300
1:16
140
1.0
141
16.0
290
     0
  0
SCALE
  5
17585
102
{ACAD_REACTORS
330
1757D
102
}
330
1757D
100
AcDbScale
 70
     0
300
1:20
140
1.0
141
20.0
290
     0
  0
SCALE
  5
17586
102
{ACAD_REACTORS
330
1757D
102
}
330
1757D
100
AcDbScale
 70
     0
300
1:30
140
1.0
141
30.0
290
     0
  0
SCALE
  5
17587
102
{ACAD_REACTORS
330
1757D
102
}
330
1757D
100
AcDbScale
 70
     0
300
1:40
140
1.0
141
40.0
290
     0
  0
SCALE
  5
17588
102
{ACAD_REACTORS
330
1757D
102
}
330
1757D
100
AcDbScale
 70
     0
300
1:50
140
1.0
141
50.0
290
     0
  0
SCALE
  5
17589
102
{ACAD_REACTORS
330
1757D
102
}
330
1757D
100
AcDbScale
 70
     0
300
1:100
140
1.0
141
100.0
290
     0
  0
SCALE
  5
1758A
102
{ACAD_REACTORS
330
1757D
102
}
330
1757D
100
AcDbScale
 70
     0
300
2:1
140
2.0
141
1.0
290
     0
  0
SCALE
  5
1758B
102
{ACAD_REACTORS
330
1757D
102
}
330
1757D
100
AcDbScale
 70
     0
300
4:1
140
4.0
141
1.0
290
     0
  0
SCALE
  5
1758C
102
{ACAD_REACTORS
330
1757D
102
}
330
1757D
100
AcDbScale
 70
     0
300
8:1
140
8.0
141
1.0
290
     0
  0
SCALE
  5
1758D
102
{ACAD_REACTORS
330
1757D
102
}
330
1757D
100
AcDbScale
 70
     0
300
10:1
140
10.0
141
1.0
290
     0
  0
SCALE
  5
1758E
102
{ACAD_REACTORS
330
1757D
102
}
330
1757D
100
AcDbScale
 70
     0
300
100:1
140
100.0
141
1.0
290
     0
  0
SCALE
  5
1758F
102
{ACAD_REACTORS
330
1757D
102
}
330
1757D
100
AcDbScale
 70
     0
300
1/128" = 1'-0"
140
0.0078125
141
12.0
290
     0
  0
SCALE
  5
17590
102
{ACAD_REACTORS
330
1757D
102
}
330
1757D
100
AcDbScale
 70
     0
300
1/64" = 1'-0"
140
0.015625
141
12.0
290
     0
  0
SCALE
  5
17591
102
{ACAD_REACTORS
330
1757D
102
}
330
1757D
100
AcDbScale
 70
     0
300
1/32" = 1'-0"
140
0.03125
141
12.0
290
     0
  0
SCALE
  5
17592
102
{ACAD_REACTORS
330
1757D
102
}
330
1757D
100
AcDbScale
 70
     0
300
1/16" = 1'-0"
140
0.0625
141
12.0
290
     0
  0
SCALE
  5
17593
102
{ACAD_REACTORS
330
1757D
102
}
330
1757D
100
AcDbScale
 70
     0
300
3/32" = 1'-0"
140
0.09375
141
12.0
290
     0
  0
SCALE
  5
17594
102
{ACAD_REACTORS
330
1757D
102
}
330
1757D
100
AcDbScale
 70
     0
300
1/8" = 1'-0"
140
0.125
141
12.0
290
     0
  0
SCALE
  5
17595
102
{ACAD_REACTORS
330
1757D
102
}
330
1757D
100
AcDbScale
 70
     0
300
3/16" = 1'-0"
140
0.1875
141
12.0
290
     0
  0
SCALE
  5
17596
102
{ACAD_REACTORS
330
1757D
102
}
330
1757D
100
AcDbScale
 70
     0
300
1/4" = 1'-0"
140
0.25
141
12.0
290
     0
  0
SCALE
  5
17597
102
{ACAD_REACTORS
330
1757D
102
}
330
1757D
100
AcDbScale
 70
     0
300
3/8" = 1'-0"
140
0.375
141
12.0
290
     0
  0
SCALE
  5
17598
102
{ACAD_REACTORS
330
1757D
102
}
330
1757D
100
AcDbScale
 70
     0
300
1/2" = 1'-0"
140
0.5
141
12.0
290
     0
  0
SCALE
  5
17599
102
{ACAD_REACTORS
330
1757D
102
}
330
1757D
100
AcDbScale
 70
     0
300
3/4" = 1'-0"
140
0.75
141
12.0
290
     0
  0
SCALE
  5
1759A
102
{ACAD_REACTORS
330
1757D
102
}
330
1757D
100
AcDbScale
 70
     0
300
1" = 1'-0"
140
1.0
141
12.0
290
     0
  0
SCALE
  5
1759B
102
{ACAD_REACTORS
330
1757D
102
}
330
1757D
100
AcDbScale
 70
     0
300
1-1/2" = 1'-0"
140
1.5
141
12.0
290
     0
  0
SCALE
  5
1759C
102
{ACAD_REACTORS
330
1757D
102
}
330
1757D
100
AcDbScale
 70
     0
300
3" = 1'-0"
140
3.0
141
12.0
290
     0
  0
SCALE
  5
1759D
102
{ACAD_REACTORS
330
1757D
102
}
330
1757D
100
AcDbScale
 70
     0
300
6" = 1'-0"
140
6.0
141
12.0
290
     0
  0
SCALE
  5
1759E
102
{ACAD_REACTORS
330
1757D
102
}
330
1757D
100
AcDbScale
 70
     0
300
1'-0" = 1'-0"
140
12.0
141
12.0
290
     0
  0
ACDBSECTIONVIEWSTYLE
  5
1944A
102
{ACAD_XDICTIONARY
360
1951B
102
}
102
{ACAD_REACTORS
330
19449
102
}
330
19449
100
AcDbModelDocViewStyle
 70
     0
  3
Imperial24
290
     0
100
AcDbSectionViewStyle
 70
     0
 71
     0
 90
       78
 71
     1
340
11
 62
   256
 40
0.24
340
0
340
0
 62
   256
 40
0.24
300
I, O, Q, S, X, Z
 40
0.48
 90
        3
 40
0.18
 90
        1
 71
     2
340
16
 90
       25
 62
   256
340
16
 90
       50
 62
   256
 40
0.24
 40
0.0
 40
0.24
 71
     3
340
11
 62
   256
 40
0.24
 90
        1
 40
0.75
 90
        1
300
%<\AcVar ViewType \f "%tc1">% %<\AcVar ViewSectionStartId>%-%<\AcVar ViewSectionEndId>%\PSCALE %<\AcVar ViewScale \f "%sn">%
 71
     4
 62
   256
 62
   257
300
ANSI31
 40
1.0
 90
        0
290
     0
290
     0
 90
        6
 40
0.0
 40
1.570796326794896
 40
0.2617993877991494
 40
1.308996938995747
 40
-0.2617993877991494
 40
1.832595714594046
  0
TABLESTYLE
  5
37C9
102
{ACAD_XDICTIONARY
360
175C3
102
}
102
{ACAD_REACTORS
330
86
102
}
330
86
100
AcDbTableStyle
280
     0
  3
Standard
 70
     0
 71
     0
 40
0.06
 41
0.06
280
     0
281
     0
  7
Arial
140
0.18
170
     2
 62
     0
 63
     7
283
     0
 90
        4
 91
        0
  1

274
    -2
284
     1
 64
     0
275
    -2
285
     1
 65
     0
276
    -2
286
     1
 66
     0
277
    -2
287
     1
 67
     0
278
    -2
288
     1
 68
     0
279
    -2
289
     1
 69
     0
  7
Arial
140
0.25
170
     5
 62
     1
 63
     7
283
     0
 90
        4
 91
        0
  1

274
    -2
284
     1
 64
     0
275
    -2
285
     1
 65
     0
276
    -2
286
     1
 66
     0
277
    -2
287
     1
 67
     0
278
    -2
288
     1
 68
     0
279
    -2
289
     1
 69
     0
  7
Arial
140
0.18
170
     5
 62
     5
 63
     9
283
     1
 90
        4
 91
        0
  1

274
    -2
284
     1
 64
     0
275
    -2
285
     1
 65
     0
276
    -2
286
     1
 66
     0
277
    -2
287
     1
 67
     0
278
    -2
288
     1
 68
     0
279
    -2
289
     1
 69
     0
  0
TABLESTYLE
  5
36AB
102
{ACAD_XDICTIONARY
360
175C1
102
}
102
{ACAD_REACTORS
330
86
102
}
330
86
100
AcDbTableStyle
280
     0
  3
Standard
 70
     0
 71
     0
 40
1.5
 41
1.5
280
     0
281
     0
  7
Arial
140
4.5
170
     2
 62
     0
 63
     7
283
     0
 90
        4
 91
        0
  1

274
    -2
284
     1
 64
     0
275
    -2
285
     1
 65
     0
276
    -2
286
     1
 66
     0
277
    -2
287
     1
 67
     0
278
    -2
288
     1
 68
     0
279
    -2
289
     1
 69
     0
  7
Arial
140
6.0
170
     5
 62
     1
 63
   254
421
 14079702
283
     1
 90
        4
 91
        0
  1

274
    -2
284
     1
 64
     0
275
    -2
285
     1
 65
     0
276
    -2
286
     1
 66
     0
277
    -2
287
     1
 67
     0
278
    -2
288
     1
 68
     0
279
    -2
289
     1
 69
     0
  7
Arial
140
4.5
170
     5
 62
     5
 63
     7
283
     0
 90
        4
 91
        0
  1

274
    -2
284
     1
 64
     0
275
    -2
285
     1
 65
     0
276
    -2
286
     1
 66
     0
277
    -2
287
     1
 67
     0
278
    -2
288
     1
 68
     0
279
    -2
289
     1
 69
     0
  0
TABLESTYLE
  5
87
102
{ACAD_XDICTIONARY
360
175BF
102
}
102
{ACAD_REACTORS
330
86
102
}
330
86
100
AcDbTableStyle
280
     0
  3
Standard
 70
     0
 71
     0
 40
0.06
 41
0.06
280
     0
281
     0
  7
Standard
140
0.18
170
     2
 62
     0
 63
     7
283
     0
 90
        4
 91
        0
  1

274
    -2
284
     1
 64
     0
275
    -2
285
     1
 65
     0
276
    -2
286
     1
 66
     0
277
    -2
287
     1
 67
     0
278
    -2
288
     1
 68
     0
279
    -2
289
     1
 69
     0
  7
Standard
140
0.25
170
     5
 62
     0
 63
     7
283
     0
 90
        4
 91
        0
  1

274
    -2
284
     1
 64
     0
275
    -2
285
     1
 65
     0
276
    -2
286
     1
 66
     0
277
    -2
287
     1
 67
     0
278
    -2
288
     1
 68
     0
279
    -2
289
     1
 69
     0
  7
Standard
140
0.18
170
     5
 62
     0
 63
     7
283
     0
 90
        4
 91
        0
  1

274
    -2
284
     1
 64
     0
275
    -2
285
     1
 65
     0
276
    -2
286
     1
 66
     0
277
    -2
287
     1
 67
     0
278
    -2
288
     1
 68
     0
279
    -2
289
     1
 69
     0
  0
VISUALSTYLE
  5
17572
102
{ACAD_XDICTIONARY
360
194F1
102
}
102
{ACAD_REACTORS
330
1756C
102
}
330
1756C
100
AcDbVisualStyle
  2
2dWireframe
 70
     4
177
     2
291
     0
 71
     0
176
     1
 72
     2
176
     1
 73
     0
176
     1
 90
        0
176
     1
 40
0.6
176
     1
 41
30.0
176
     1
 63
     7
176
     1
 74
     1
176
     1
 91
        4
176
     1
 64
     7
176
     1
 65
   257
176
     1
 75
     1
176
     1
175
     1
176
     1
 42
1.0
176
     1
 92
        0
176
     1
 66
   257
176
     1
 43
1.0
176
     1
 76
     1
176
     1
 77
     6
176
     1
 78
     2
176
     1
 67
     7
176
     1
 79
     5
176
     1
170
     0
176
     1
171
     0
176
     1
290
     0
176
     1
 93
        1
176
     1
 44
0.0
176
     1
173
     0
176
     1
1001
ACAD
1000
AcDbSavedByObjectVersion
1070
     0
  0
VISUALSTYLE
  5
17574
102
{ACAD_XDICTIONARY
360
194F5
102
}
102
{ACAD_REACTORS
330
1756C
102
}
330
1756C
100
AcDbVisualStyle
  2
3D Hidden
 70
     6
177
     2
291
     0
 71
     1
176
     1
 72
     2
176
     1
 73
     2
176
     1
 90
        0
176
     1
 40
0.6
176
     1
 41
30.0
176
     1
 63
     7
176
     1
 74
     2
176
     1
 91
        2
176
     1
 64
     7
176
     1
 65
   257
176
     1
 75
     2
176
     1
175
     1
176
     1
 42
40.0
176
     1
 92
        0
176
     1
 66
   257
176
     1
 43
1.0
176
     1
 76
     1
176
     1
 77
     6
176
     1
 78
     2
176
     1
 67
     7
176
     1
 79
     3
176
     1
170
     0
176
     1
171
     0
176
     1
290
     0
176
     1
 93
        1
176
     1
 44
0.0
176
     1
173
     0
176
     1
1001
ACAD
1000
AcDbSavedByObjectVersion
1070
     0
  0
VISUALSTYLE
  5
17573
102
{ACAD_XDICTIONARY
360
194F3
102
}
102
{ACAD_REACTORS
330
1756C
102
}
330
1756C
100
AcDbVisualStyle
  2
3dWireframe
 70
     5
177
     2
291
     0
 71
     0
176
     1
 72
     2
176
     1
 73
     0
176
     1
 90
        0
176
     1
 40
0.6
176
     1
 41
30.0
176
     1
 63
     7
176
     1
 74
     1
176
     1
 91
        4
176
     1
 64
     7
176
     1
 65
   257
176
     1
 75
     1
176
     1
175
     1
176
     1
 42
1.0
176
     1
 92
        0
176
     1
 66
   257
176
     1
 43
1.0
176
     1
 76
     1
176
     1
 77
     6
176
     1
 78
     2
176
     1
 67
     7
176
     1
 79
     5
176
     1
170
     0
176
     1
171
     0
176
     1
290
     0
176
     1
 93
        1
176
     1
 44
0.0
176
     1
173
     0
176
     1
1001
ACAD
1000
AcDbSavedByObjectVersion
1070
     0
  0
VISUALSTYLE
  5
17571
102
{ACAD_XDICTIONARY
360
194EF
102
}
102
{ACAD_REACTORS
330
1756C
102
}
330
1756C
100
AcDbVisualStyle
  2
Basic
 70
     7
177
     2
291
     1
 71
     1
176
     1
 72
     0
176
     1
 73
     1
176
     1
 90
        0
176
     1
 40
0.6
176
     1
 41
30.0
176
     1
 63
     7
176
     1
 74
     0
176
     1
 91
        4
176
     1
 64
     7
176
     1
 65
   257
176
     1
 75
     1
176
     1
175
     1
176
     1
 42
1.0
176
     1
 92
        8
176
     1
 66
     7
176
     1
 43
1.0
176
     1
 76
     1
176
     1
 77
     6
176
     1
 78
     2
176
     1
 67
     7
176
     1
 79
     5
176
     1
170
     0
176
     1
171
     0
176
     1
290
     0
176
     1
 93
        1
176
     1
 44
0.0
176
     1
173
     0
176
     1
1001
ACAD
1000
AcDbSavedByObjectVersion
1070
     0
  0
VISUALSTYLE
  5
17578
102
{ACAD_XDICTIONARY
360
194FD
102
}
102
{ACAD_REACTORS
330
1756C
102
}
330
1756C
100
AcDbVisualStyle
  2
Brighten
 70
    12
177
     2
291
     1
 71
     2
176
     1
 72
     2
176
     1
 73
     0
176
     1
 90
        0
176
     1
 40
0.6
176
     1
 41
30.0
176
     1
 63
     7
176
     1
 74
     1
176
     1
 91
        4
176
     1
 64
     7
176
     1
 65
   257
176
     1
 75
     1
176
     1
175
     1
176
     1
 42
1.0
176
     1
 92
        8
176
     1
 66
     7
176
     1
 43
1.0
176
     1
 76
     1
176
     1
 77
     6
176
     1
 78
     2
176
     1
 67
     7
176
     1
 79
     5
176
     1
170
     0
176
     1
171
     0
176
     1
290
     0
176
     1
 93
        1
176
     1
 44
50.0
176
     1
173
     0
176
     1
1001
ACAD
1000
AcDbSavedByObjectVersion
1070
     0
  0
VISUALSTYLE
  5
1757C
102
{ACAD_XDICTIONARY
360
19505
102
}
102
{ACAD_REACTORS
330
1756C
102
}
330
1756C
100
AcDbVisualStyle
  2
ColorChange
 70
    16
177
     2
291
     1
 71
     2
176
     1
 72
     2
176
     1
 73
     3
176
     1
 90
        0
176
     1
 40
0.6
176
     1
 41
30.0
176
     1
 63
     8
176
     1
 74
     1
176
     1
 91
        4
176
     1
 64
     7
176
     1
 65
   257
176
     1
 75
     1
176
     1
175
     1
176
     1
 42
1.0
176
     1
 92
        8
176
     1
 66
     8
176
     1
 43
1.0
176
     1
 76
     1
176
     1
 77
     6
176
     1
 78
     2
176
     1
 67
     7
176
     1
 79
     5
176
     1
170
     0
176
     1
171
     0
176
     1
290
     0
176
     1
 93
        1
176
     1
 44
0.0
176
     1
173
     0
176
     1
1001
ACAD
1000
AcDbSavedByObjectVersion
1070
     0
  0
VISUALSTYLE
  5
17575
102
{ACAD_XDICTIONARY
360
194F7
102
}
102
{ACAD_REACTORS
330
1756C
102
}
330
1756C
100
AcDbVisualStyle
  2
Conceptual
 70
     9
177
     2
291
     0
 71
     3
176
     1
 72
     2
176
     1
 73
     0
176
     1
 90
        0
176
     1
 40
0.6
176
     1
 41
30.0
176
     1
 63
     7
176
     1
 74
     2
176
     1
 91
        2
176
     1
 64
     7
176
     1
 65
   257
176
     1
 75
     1
176
     1
175
     1
176
     1
 42
40.0
176
     1
 92
        8
176
     1
 66
     7
176
     1
 43
1.0
176
     1
 76
     1
176
     1
 77
     6
176
     1
 78
     2
176
     1
 67
     7
176
     1
 79
     3
176
     1
170
     0
176
     1
171
     0
176
     1
290
     0
176
     1
 93
        1
176
     1
 44
0.0
176
     1
173
     0
176
     1
1001
ACAD
1000
AcDbSavedByObjectVersion
1070
     0
  0
VISUALSTYLE
  5
17577
102
{ACAD_XDICTIONARY
360
194FB
102
}
102
{ACAD_REACTORS
330
1756C
102
}
330
1756C
100
AcDbVisualStyle
  2
Dim
 70
    11
177
     2
291
     1
 71
     2
176
     1
 72
     2
176
     1
 73
     0
176
     1
 90
        0
176
     1
 40
0.6
176
     1
 41
30.0
176
     1
 63
     7
176
     1
 74
     1
176
     1
 91
        4
176
     1
 64
     7
176
     1
 65
   257
176
     1
 75
     1
176
     1
175
     1
176
     1
 42
1.0
176
     1
 92
        8
176
     1
 66
     7
176
     1
 43
1.0
176
     1
 76
     1
176
     1
 77
     6
176
     1
 78
     2
176
     1
 67
     7
176
     1
 79
     5
176
     1
170
     0
176
     1
171
     0
176
     1
290
     0
176
     1
 93
        1
176
     1
 44
-50.0
176
     1
173
     0
176
     1
1001
ACAD
1000
AcDbSavedByObjectVersion
1070
     0
  0
VISUALSTYLE
  5
175CD
102
{ACAD_XDICTIONARY
360
1950B
102
}
102
{ACAD_REACTORS
330
1756C
102
}
330
1756C
100
AcDbVisualStyle
  2
EdgeColorOff
 70
    22
177
     2
291
     1
 71
     2
176
     0
 72
     2
176
     0
 73
     0
176
     0
 90
        0
176
     0
 40
0.6
176
     0
 41
30.0
176
     0
 63
     7
176
     0
 74
     1
176
     0
 91
        4
176
     0
 64
     7
176
     0
 65
   257
176
     0
 75
     1
176
     0
175
     1
176
     0
 42
1.0
176
     0
 92
        8
176
     2
 66
     7
176
     0
 43
1.0
176
     0
 76
     1
176
     0
 77
     6
176
     0
 78
     2
176
     0
 67
     7
176
     0
 79
     5
176
     0
170
     0
176
     0
171
     0
176
     0
290
     0
176
     0
 93
        1
176
     0
 44
0.0
176
     0
173
     0
176
     0
1001
ACAD
1000
AcDbSavedByObjectVersion
1070
     0
  0
VISUALSTYLE
  5
1757B
102
{ACAD_XDICTIONARY
360
19503
102
}
102
{ACAD_REACTORS
330
1756C
102
}
330
1756C
100
AcDbVisualStyle
  2
Facepattern
 70
    15
177
     2
291
     1
 71
     2
176
     1
 72
     2
176
     1
 73
     0
176
     1
 90
        0
176
     1
 40
0.6
176
     1
 41
30.0
176
     1
 63
     7
176
     1
 74
     1
176
     1
 91
        4
176
     1
 64
     7
176
     1
 65
   257
176
     1
 75
     1
176
     1
175
     1
176
     1
 42
1.0
176
     1
 92
        8
176
     1
 66
     7
176
     1
 43
1.0
176
     1
 76
     1
176
     1
 77
     6
176
     1
 78
     2
176
     1
 67
     7
176
     1
 79
     5
176
     1
170
     0
176
     1
171
     0
176
     1
290
     0
176
     1
 93
        1
176
     1
 44
0.0
176
     1
173
     0
176
     1
1001
ACAD
1000
AcDbSavedByObjectVersion
1070
     0
  0
VISUALSTYLE
  5
1756D
102
{ACAD_XDICTIONARY
360
194E7
102
}
102
{ACAD_REACTORS
330
1756C
102
}
330
1756C
100
AcDbVisualStyle
  2
Flat
 70
     0
177
     2
291
     1
 71
     2
176
     1
 72
     1
176
     1
 73
     1
176
     1
 90
        2
176
     1
 40
0.6
176
     1
 41
30.0
176
     1
 63
     7
176
     1
 74
     0
176
     1
 91
        4
176
     1
 64
     7
176
     1
 65
   257
176
     1
 75
     1
176
     1
175
     1
176
     1
 42
1.0
176
     1
 92
        8
176
     1
 66
     7
176
     1
 43
1.0
176
     1
 76
     1
176
     1
 77
     6
176
     1
 78
     2
176
     1
 67
     7
176
     1
 79
     5
176
     1
170
     0
176
     1
171
     0
176
     1
290
     0
176
     1
 93
       13
176
     1
 44
0.0
176
     1
173
     0
176
     1
1001
ACAD
1000
AcDbSavedByObjectVersion
1070
     0
  0
VISUALSTYLE
  5
1756E
102
{ACAD_XDICTIONARY
360
194E9
102
}
102
{ACAD_REACTORS
330
1756C
102
}
330
1756C
100
AcDbVisualStyle
  2
FlatWithEdges
 70
     1
177
     2
291
     1
 71
     2
176
     1
 72
     1
176
     1
 73
     1
176
     1
 90
        2
176
     1
 40
0.6
176
     1
 41
30.0
176
     1
 63
     7
176
     1
 74
     1
176
     1
 91
        4
176
     1
 64
     7
176
     1
 65
   257
176
     1
 75
     1
176
     1
175
     1
176
     1
 42
1.0
176
     1
 92
        0
176
     1
 66
   257
176
     1
 43
1.0
176
     1
 76
     1
176
     1
 77
     6
176
     1
 78
     2
176
     1
 67
     7
176
     1
 79
     5
176
     1
170
     0
176
     1
171
     0
176
     1
290
     0
176
     1
 93
       13
176
     1
 44
0.0
176
     1
173
     0
176
     1
1001
ACAD
1000
AcDbSavedByObjectVersion
1070
     0
  0
VISUALSTYLE
  5
1756F
102
{ACAD_XDICTIONARY
360
194EB
102
}
102
{ACAD_REACTORS
330
1756C
102
}
330
1756C
100
AcDbVisualStyle
  2
Gouraud
 70
     2
177
     2
291
     1
 71
     2
176
     1
 72
     2
176
     1
 73
     1
176
     1
 90
        2
176
     1
 40
0.6
176
     1
 41
30.0
176
     1
 63
     7
176
     1
 74
     0
176
     1
 91
        4
176
     1
 64
     7
176
     1
 65
   257
176
     1
 75
     1
176
     1
175
     1
176
     1
 42
1.0
176
     1
 92
        0
176
     1
 66
     7
176
     1
 43
1.0
176
     1
 76
     1
176
     1
 77
     6
176
     1
 78
     2
176
     1
 67
     7
176
     1
 79
     5
176
     1
170
     0
176
     1
171
     0
176
     1
290
     0
176
     1
 93
       13
176
     1
 44
0.0
176
     1
173
     0
176
     1
1001
ACAD
1000
AcDbSavedByObjectVersion
1070
     0
  0
VISUALSTYLE
  5
17570
102
{ACAD_XDICTIONARY
360
194ED
102
}
102
{ACAD_REACTORS
330
1756C
102
}
330
1756C
100
AcDbVisualStyle
  2
GouraudWithEdges
 70
     3
177
     2
291
     1
 71
     2
176
     1
 72
     2
176
     1
 73
     1
176
     1
 90
        2
176
     1
 40
0.6
176
     1
 41
30.0
176
     1
 63
     7
176
     1
 74
     1
176
     1
 91
        4
176
     1
 64
     7
176
     1
 65
   257
176
     1
 75
     1
176
     1
175
     1
176
     1
 42
1.0
176
     1
 92
        0
176
     1
 66
   257
176
     1
 43
1.0
176
     1
 76
     1
176
     1
 77
     6
176
     1
 78
     2
176
     1
 67
     7
176
     1
 79
     5
176
     1
170
     0
176
     1
171
     0
176
     1
290
     0
176
     1
 93
       13
176
     1
 44
0.0
176
     1
173
     0
176
     1
1001
ACAD
1000
AcDbSavedByObjectVersion
1070
     0
  0
VISUALSTYLE
  5
19443
102
{ACAD_XDICTIONARY
360
1950F
102
}
102
{ACAD_REACTORS
330
1756C
102
}
330
1756C
100
AcDbVisualStyle
  2
Hidden
 70
     6
177
     2
291
     0
 71
     1
176
     1
 72
     2
176
     1
 73
     2
176
     1
 90
        0
176
     1
 40
0.6
176
     1
 41
30.0
176
     1
 63
     7
421
 16777215
176
     1
 74
     2
176
     1
 91
        2
176
     1
 64
     7
176
     1
 65
   257
176
     1
 75
     2
176
     1
175
     1
176
     1
 42
40.0
176
     1
 92
        0
176
     1
 66
   257
176
     1
 43
1.0
176
     1
 76
     1
176
     1
 77
     6
176
     1
 78
     2
176
     1
 67
     7
176
     1
 79
     3
176
     1
170
     0
176
     1
171
     0
176
     1
290
     0
176
     1
 93
        1
176
     1
 44
0.0
176
     1
173
     0
176
     1
1001
ACAD
1000
AcDbSavedByObjectVersion
1070
     0
  0
VISUALSTYLE
  5
175CB
102
{ACAD_XDICTIONARY
360
19507
102
}
102
{ACAD_REACTORS
330
1756C
102
}
330
1756C
100
AcDbVisualStyle
  2
JitterOff
 70
    20
177
     2
291
     1
 71
     2
176
     0
 72
     2
176
     0
 73
     0
176
     0
 90
        0
176
     0
 40
0.6
176
     0
 41
30.0
176
     0
 63
     7
176
     0
 74
     1
176
     0
 91
        4
176
     0
 64
     7
176
     0
 65
   257
176
     0
 75
     1
176
     0
175
     1
176
     0
 42
1.0
176
     0
 92
       10
176
     2
 66
     7
176
     0
 43
1.0
176
     0
 76
     1
176
     0
 77
     6
176
     0
 78
     2
176
     0
 67
     7
176
     0
 79
     5
176
     0
170
     0
176
     0
171
     0
176
     0
290
     0
176
     0
 93
        1
176
     0
 44
0.0
176
     0
173
     0
176
     0
1001
ACAD
1000
AcDbSavedByObjectVersion
1070
     0
  0
VISUALSTYLE
  5
1757A
102
{ACAD_XDICTIONARY
360
19501
102
}
102
{ACAD_REACTORS
330
1756C
102
}
330
1756C
100
AcDbVisualStyle
  2
Linepattern
 70
    14
177
     2
291
     1
 71
     2
176
     1
 72
     2
176
     1
 73
     0
176
     1
 90
        0
176
     1
 40
0.6
176
     1
 41
30.0
176
     1
 63
     7
176
     1
 74
     1
176
     1
 91
        4
176
     1
 64
     7
176
     1
 65
   257
176
     1
 75
     7
176
     1
175
     7
176
     1
 42
1.0
176
     1
 92
        8
176
     1
 66
     7
176
     1
 43
1.0
176
     1
 76
     1
176
     1
 77
     6
176
     1
 78
     2
176
     1
 67
     7
176
     1
 79
     5
176
     1
170
     0
176
     1
171
     0
176
     1
290
     0
176
     1
 93
        1
176
     1
 44
0.0
176
     1
173
     0
176
     1
1001
ACAD
1000
AcDbSavedByObjectVersion
1070
     0
  0
VISUALSTYLE
  5
175CC
102
{ACAD_XDICTIONARY
360
19509
102
}
102
{ACAD_REACTORS
330
1756C
102
}
330
1756C
100
AcDbVisualStyle
  2
OverhangOff
 70
    21
177
     2
291
     1
 71
     2
176
     0
 72
     2
176
     0
 73
     0
176
     0
 90
        0
176
     0
 40
0.6
176
     0
 41
30.0
176
     0
 63
     7
176
     0
 74
     1
176
     0
 91
        4
176
     0
 64
     7
176
     0
 65
   257
176
     0
 75
     1
176
     0
175
     1
176
     0
 42
1.0
176
     0
 92
        9
176
     2
 66
     7
176
     0
 43
1.0
176
     0
 76
     1
176
     0
 77
     6
176
     0
 78
     2
176
     0
 67
     7
176
     0
 79
     5
176
     0
170
     0
176
     0
171
     0
176
     0
290
     0
176
     0
 93
        1
176
     0
 44
0.0
176
     0
173
     0
176
     0
1001
ACAD
1000
AcDbSavedByObjectVersion
1070
     0
  0
VISUALSTYLE
  5
17576
102
{ACAD_XDICTIONARY
360
194F9
102
}
102
{ACAD_REACTORS
330
1756C
102
}
330
1756C
100
AcDbVisualStyle
  2
Realistic
 70
     8
177
     2
291
     0
 71
     2
176
     1
 72
     2
176
     1
 73
     0
176
     1
 90
        0
176
     1
 40
0.6
176
     1
 41
30.0
176
     1
 63
     7
176
     1
 74
     1
176
     1
 91
        0
176
     1
 64
     7
176
     1
 65
   257
176
     1
 75
     1
176
     1
175
     1
176
     1
 42
1.0
176
     1
 92
        8
176
     1
 66
     8
176
     1
 43
1.0
176
     1
 76
     1
176
     1
 77
     6
176
     1
 78
     2
176
     1
 67
     7
176
     1
 79
     5
176
     1
170
     0
176
     1
171
     0
176
     1
290
     0
176
     1
 93
       13
176
     1
 44
0.0
176
     1
173
     0
176
     1
1001
ACAD
1000
AcDbSavedByObjectVersion
1070
     0
  0
VISUALSTYLE
  5
19448
102
{ACAD_XDICTIONARY
360
19519
102
}
102
{ACAD_REACTORS
330
1756C
102
}
330
1756C
100
AcDbVisualStyle
  2
Shaded
 70
    27
177
     2
291
     0
 71
     2
176
     1
 72
     2
176
     1
 73
     1
176
     1
 90
        2
176
     1
 40
0.6
176
     1
 41
30.0
176
     1
 63
     7
421
 16777215
176
     1
 74
     0
176
     1
 91
        4
176
     1
 64
     7
176
     1
 65
   257
176
     1
 75
     1
176
     1
175
     1
176
     1
 42
1.0
176
     1
 92
        8
176
     1
 66
   257
176
     1
 43
1.0
176
     1
 76
     1
176
     1
 77
     6
176
     1
 78
     2
176
     1
 67
     8
425
  7895160
176
     1
 79
     3
176
     1
170
     0
176
     1
171
     0
176
     1
290
     0
176
     1
 93
        5
176
     1
 44
0.0
176
     1
173
     0
176
     1
1001
ACAD
1000
AcDbSavedByObjectVersion
1070
     0
  0
VISUALSTYLE
  5
19447
102
{ACAD_XDICTIONARY
360
19517
102
}
102
{ACAD_REACTORS
330
1756C
102
}
330
1756C
100
AcDbVisualStyle
  2
Shaded with edges
 70
    26
177
     2
291
     0
 71
     2
176
     1
 72
     2
176
     1
 73
     1
176
     1
 90
        2
176
     1
 40
0.6
176
     1
 41
30.0
176
     1
 63
     7
421
 16777215
176
     1
 74
     1
176
     1
 91
        2
176
     1
 64
     7
176
     1
 65
   257
176
     1
 75
     2
176
     1
175
     1
176
     1
 42
1.0
176
     1
 92
        8
176
     1
 66
   257
176
     1
 43
1.0
176
     1
 76
     1
176
     1
 77
     6
176
     1
 78
     2
176
     1
 67
     7
176
     1
 79
     3
176
     1
170
     0
176
     1
171
     0
176
     1
290
     0
176
     1
 93
        5
176
     1
 44
0.0
176
     1
173
     0
176
     1
1001
ACAD
1000
AcDbSavedByObjectVersion
1070
     0
  0
VISUALSTYLE
  5
19444
102
{ACAD_XDICTIONARY
360
19511
102
}
102
{ACAD_REACTORS
330
1756C
102
}
330
1756C
100
AcDbVisualStyle
  2
Shades of Gray
 70
    23
177
     2
291
     0
 71
     2
176
     1
 72
     2
176
     1
 73
     3
176
     1
 90
        0
176
     1
 40
0.6
176
     1
 41
30.0
176
     1
 63
     7
421
 16777215
176
     1
 74
     2
176
     1
 91
        2
176
     1
 64
     7
176
     1
 65
     7
176
     1
 75
     1
176
     1
175
     1
176
     1
 42
40.0
176
     1
 92
        8
176
     1
 66
     7
176
     1
 43
1.0
176
     1
 76
     1
176
     1
 77
     6
176
     1
 78
     2
176
     1
 67
     7
176
     1
 79
     3
176
     1
170
     0
176
     1
171
     0
176
     1
290
     0
176
     1
 93
        1
176
     1
 44
0.0
176
     1
173
     0
176
     1
1001
ACAD
1000
AcDbSavedByObjectVersion
1070
     0
  0
VISUALSTYLE
  5
19445
102
{ACAD_XDICTIONARY
360
19513
102
}
102
{ACAD_REACTORS
330
1756C
102
}
330
1756C
100
AcDbVisualStyle
  2
Sketchy
 70
    24
177
     2
291
     0
 71
     1
176
     1
 72
     2
176
     1
 73
     2
176
     1
 90
        0
176
     1
 40
0.6
176
     1
 41
30.0
176
     1
 63
     7
421
 16777215
176
     1
 74
     2
176
     1
 91
        2
176
     1
 64
     7
176
     1
 65
     7
176
     1
 75
     1
176
     1
175
     1
176
     1
 42
40.0
176
     1
 92
       11
176
     1
 66
     7
176
     1
 43
1.0
176
     1
 76
     1
176
     1
 77
     6
176
     1
 78
     2
176
     1
 67
     7
176
     1
 79
     6
176
     1
170
     0
176
     1
171
     0
176
     1
290
     0
176
     1
 93
        1
176
     1
 44
0.0
176
     1
173
     0
176
     1
1001
ACAD
1000
AcDbSavedByObjectVersion
1070
     0
  0
VISUALSTYLE
  5
17579
102
{ACAD_XDICTIONARY
360
194FF
102
}
102
{ACAD_REACTORS
330
1756C
102
}
330
1756C
100
AcDbVisualStyle
  2
Thicken
 70
    13
177
     2
291
     1
 71
     2
176
     1
 72
     2
176
     1
 73
     0
176
     1
 90
        0
176
     1
 40
0.6
176
     1
 41
30.0
176
     1
 63
     7
176
     1
 74
     1
176
     1
 91
        4
176
     1
 64
     7
176
     1
 65
   257
176
     1
 75
     1
176
     1
175
     1
176
     1
 42
1.0
176
     1
 92
       12
176
     1
 66
     7
176
     1
 43
1.0
176
     1
 76
     1
176
     1
 77
     6
176
     1
 78
     2
176
     1
 67
     7
176
     1
 79
     5
176
     1
170
     0
176
     1
171
     0
176
     1
290
     0
176
     1
 93
        1
176
     1
 44
0.0
176
     1
173
     0
176
     1
1001
ACAD
1000
AcDbSavedByObjectVersion
1070
     0
  0
VISUALSTYLE
  5
19442
102
{ACAD_XDICTIONARY
360
1950D
102
}
102
{ACAD_REACTORS
330
1756C
102
}
330
1756C
100
AcDbVisualStyle
  2
Wireframe
 70
     5
177
     2
291
     0
 71
     0
176
     1
 72
     2
176
     1
 73
     0
176
     1
 90
        0
176
     1
 40
0.6
176
     1
 41
30.0
176
     1
 63
     7
421
 16777215
176
     1
 74
     1
176
     1
 91
        4
176
     1
 64
     7
176
     1
 65
   257
176
     1
 75
     1
176
     1
175
     1
176
     1
 42
1.0
176
     1
 92
        0
176
     1
 66
   257
176
     1
 43
1.0
176
     1
 76
     1
176
     1
 77
     6
176
     1
 78
     2
176
     1
 67
     7
176
     1
 79
     3
176
     1
170
     0
176
     1
171
     0
176
     1
290
     0
176
     1
 93
        1
176
     1
 44
0.0
176
     1
173
     0
176
     1
1001
ACAD
1000
AcDbSavedByObjectVersion
1070
     0
  0
VISUALSTYLE
  5
19446
102
{ACAD_XDICTIONARY
360
19515
102
}
102
{ACAD_REACTORS
330
1756C
102
}
330
1756C
100
AcDbVisualStyle
  2
X-Ray
 70
    25
177
     2
291
     0
 71
     2
176
     1
 72
     2
176
     1
 73
     1
176
     1
 90
        1
176
     1
 40
0.5
176
     1
 41
30.0
176
     1
 63
     7
421
 16777215
176
     1
 74
     1
176
     1
 91
        0
176
     1
 64
     7
176
     1
 65
   257
176
     1
 75
     1
176
     1
175
     1
176
     1
 42
1.0
176
     1
 92
        8
176
     1
 66
     7
176
     1
 43
1.0
176
     1
 76
     1
176
     1
 77
     6
176
     1
 78
     2
176
     1
 67
     7
176
     1
 79
     3
176
     1
170
     0
176
     1
171
     0
176
     1
290
     0
176
     1
 93
       13
176
     1
 44
0.0
176
     1
173
     0
176
     1
1001
ACAD
1000
AcDbSavedByObjectVersion
1070
     0
  0
DICTIONARYVAR
  5
175C8
102
{ACAD_REACTORS
330
66
102
}
330
66
100
DictionaryVariables
280
     0
  1
1:1
  0
DICTIONARYVAR
  5
175C6
102
{ACAD_REACTORS
330
66
102
}
330
66
100
DictionaryVariables
280
     0
  1
STANDARD
  0
DICTIONARYVAR
  5
364
102
{ACAD_REACTORS
330
66
102
}
330
66
100
DictionaryVariables
280
     0
  1
STANDARD
  0
DICTIONARYVAR
  5
194C6
102
{ACAD_REACTORS
330
66
102
}
330
66
100
DictionaryVariables
280
     0
  1
Imperial24
  0
DICTIONARYVAR
  5
194C7
102
{ACAD_REACTORS
330
66
102
}
330
66
100
DictionaryVariables
280
     0
  1
Imperial24
  0
DICTIONARYVAR
  5
67
102
{ACAD_REACTORS
330
66
102
}
330
66
100
DictionaryVariables
280
     0
  1
2
  0
DICTIONARYVAR
  5
6B
102
{ACAD_REACTORS
330
66
102
}
330
66
100
DictionaryVariables
280
     0
  1
1
  0
DICTIONARYVAR
  5
1935F
102
{ACAD_REACTORS
330
66
102
}
330
66
100
DictionaryVariables
280
     0
  1
0
  0
DICTIONARYVAR
  5
19394
102
{ACAD_REACTORS
330
66
102
}
330
66
100
DictionaryVariables
280
     0
  1
1
  0
DICTIONARYVAR
  5
19395
102
{ACAD_REACTORS
330
66
102
}
330
66
100
DictionaryVariables
280
     0
  1
15
  0
DICTIONARYVAR
  5
175C9
102
{ACAD_REACTORS
330
66
102
}
330
66
100
DictionaryVariables
280
     0
  1
0
  0
DICTIONARYVAR
  5
175C7
102
{ACAD_REACTORS
330
66
102
}
330
66
100
DictionaryVariables
280
     0
  1
0
  0
DICTIONARYVAR
  5
8305
102
{ACAD_REACTORS
330
66
102
}
330
66
100
DictionaryVariables
280
     0
  1

  0
DICTIONARYVAR
  5
1935E
102
{ACAD_REACTORS
330
66
102
}
330
66
100
DictionaryVariables
280
     0
  1
127
  0
DICTIONARY
  5
194E6
102
{ACAD_REACTORS
330
194E4
102
}
330
194E4
100
AcDbDictionary
281
     1
  0
DICTIONARY
  5
194E5
102
{ACAD_REACTORS
330
194E4
102
}
330
194E4
100
AcDbDictionary
281
     1
  3
2237859419632
350
194DF
  3
2237859419648
350
194E0
  3
2237859419664
350
194E1
  3
2237859419680
350
194E2
  3
2237859419696
350
194E3
  0
XRECORD
  5
1402
102
{ACAD_REACTORS
330
1401
102
}
330
1401
100
AcDbXrecord
280
     1
 40
1.0
  0
XRECORD
  5
1883D
102
{ACAD_REACTORS
330
1401
102
}
330
1401
100
AcDbXrecord
280
     1
 40
0.05
  0
DICTIONARY
  5
19497
102
{ACAD_REACTORS
330
19496
102
}
330
19496
100
AcDbDictionary
281
     1
  3
*A1
350
19498
  0
DICTIONARY
  5
1951D
330
1944C
100
AcDbDictionary
280
     1
281
     1
  3
ACAD_XREC_ROUNDTRIP
360
1951E
  0
DICTIONARY
  5
11F01
330
59
100
AcDbDictionary
280
     1
281
     1
  0
DICTIONARY
  5
11F0E
330
5E
100
AcDbDictionary
280
     1
281
     1
  0
DICTIONARY
  5
1938F
330
22
100
AcDbDictionary
280
     1
281
     1
  0
DICTIONARY
  5
1755D
330
1755C
100
AcDbDictionary
280
     1
281
     1
  3
BUMPTILE
360
1755F
  3
DIFFUSETILE
360
1755E
  3
OPACITYTILE
360
17562
  3
REFLECTIONTILE
360
17561
  3
REFRACTIONTILE
360
17563
  3
SPECULARTILE
360
17560
  0
DICTIONARY
  5
17555
330
17554
100
AcDbDictionary
280
     1
281
     1
  3
BUMPTILE
360
17557
  3
DIFFUSETILE
360
17556
  3
OPACITYTILE
360
1755A
  3
REFLECTIONTILE
360
17559
  3
REFRACTIONTILE
360
1755B
  3
SPECULARTILE
360
17558
  0
DICTIONARY
  5
17565
330
17564
100
AcDbDictionary
280
     1
281
     1
  3
BUMPTILE
360
17567
  3
DIFFUSETILE
360
17566
  3
OPACITYTILE
360
1756A
  3
REFLECTIONTILE
360
17569
  3
REFRACTIONTILE
360
1756B
  3
SPECULARTILE
360
17568
  0
DICTIONARY
  5
1951B
330
1944A
100
AcDbDictionary
280
     1
281
     1
  3
ACAD_XREC_ROUNDTRIP
360
1951C
  0
DICTIONARY
  5
175C3
330
37C9
100
AcDbDictionary
280
     1
281
     1
  3
ACAD_ROUNDTRIP_2008_TABLESTYLE_CELLSTYLEMAP
360
194DA
  0
DICTIONARY
  5
175C1
330
36AB
100
AcDbDictionary
280
     1
281
     1
  3
ACAD_ROUNDTRIP_2008_TABLESTYLE_CELLSTYLEMAP
360
194D9
  0
DICTIONARY
  5
175BF
330
87
100
AcDbDictionary
280
     1
281
     1
  3
ACAD_ROUNDTRIP_2008_TABLESTYLE_CELLSTYLEMAP
360
194D8
  0
DICTIONARY
  5
194F1
330
17572
100
AcDbDictionary
280
     1
281
     1
  3
ACAD_XREC_ROUNDTRIP
360
194F2
  0
DICTIONARY
  5
194F5
330
17574
100
AcDbDictionary
280
     1
281
     1
  3
ACAD_XREC_ROUNDTRIP
360
194F6
  0
DICTIONARY
  5
194F3
330
17573
100
AcDbDictionary
280
     1
281
     1
  3
ACAD_XREC_ROUNDTRIP
360
194F4
  0
DICTIONARY
  5
194EF
330
17571
100
AcDbDictionary
280
     1
281
     1
  3
ACAD_XREC_ROUNDTRIP
360
194F0
  0
DICTIONARY
  5
194FD
330
17578
100
AcDbDictionary
280
     1
281
     1
  3
ACAD_XREC_ROUNDTRIP
360
194FE
  0
DICTIONARY
  5
19505
330
1757C
100
AcDbDictionary
280
     1
281
     1
  3
ACAD_XREC_ROUNDTRIP
360
19506
  0
DICTIONARY
  5
194F7
330
17575
100
AcDbDictionary
280
     1
281
     1
  3
ACAD_XREC_ROUNDTRIP
360
194F8
  0
DICTIONARY
  5
194FB
330
17577
100
AcDbDictionary
280
     1
281
     1
  3
ACAD_XREC_ROUNDTRIP
360
194FC
  0
DICTIONARY
  5
1950B
330
175CD
100
AcDbDictionary
280
     1
281
     1
  3
ACAD_XREC_ROUNDTRIP
360
1950C
  0
DICTIONARY
  5
19503
330
1757B
100
AcDbDictionary
280
     1
281
     1
  3
ACAD_XREC_ROUNDTRIP
360
19504
  0
DICTIONARY
  5
194E7
330
1756D
100
AcDbDictionary
280
     1
281
     1
  3
ACAD_XREC_ROUNDTRIP
360
194E8
  0
DICTIONARY
  5
194E9
330
1756E
100
AcDbDictionary
280
     1
281
     1
  3
ACAD_XREC_ROUNDTRIP
360
194EA
  0
DICTIONARY
  5
194EB
330
1756F
100
AcDbDictionary
280
     1
281
     1
  3
ACAD_XREC_ROUNDTRIP
360
194EC
  0
DICTIONARY
  5
194ED
330
17570
100
AcDbDictionary
280
     1
281
     1
  3
ACAD_XREC_ROUNDTRIP
360
194EE
  0
DICTIONARY
  5
1950F
330
19443
100
AcDbDictionary
280
     1
281
     1
  3
ACAD_XREC_ROUNDTRIP
360
19510
  0
DICTIONARY
  5
19507
330
175CB
100
AcDbDictionary
280
     1
281
     1
  3
ACAD_XREC_ROUNDTRIP
360
19508
  0
DICTIONARY
  5
19501
330
1757A
100
AcDbDictionary
280
     1
281
     1
  3
ACAD_XREC_ROUNDTRIP
360
19502
  0
DICTIONARY
  5
19509
330
175CC
100
AcDbDictionary
280
     1
281
     1
  3
ACAD_XREC_ROUNDTRIP
360
1950A
  0
DICTIONARY
  5
194F9
330
17576
100
AcDbDictionary
280
     1
281
     1
  3
ACAD_XREC_ROUNDTRIP
360
194FA
  0
DICTIONARY
  5
19519
330
19448
100
AcDbDictionary
280
     1
281
     1
  3
ACAD_XREC_ROUNDTRIP
360
1951A
  0
DICTIONARY
  5
19517
330
19447
100
AcDbDictionary
280
     1
281
     1
  3
ACAD_XREC_ROUNDTRIP
360
19518
  0
DICTIONARY
  5
19511
330
19444
100
AcDbDictionary
280
     1
281
     1
  3
ACAD_XREC_ROUNDTRIP
360
19512
  0
DICTIONARY
  5
19513
330
19445
100
AcDbDictionary
280
     1
281
     1
  3
ACAD_XREC_ROUNDTRIP
360
19514
  0
DICTIONARY
  5
194FF
330
17579
100
AcDbDictionary
280
     1
281
     1
  3
ACAD_XREC_ROUNDTRIP
360
19500
  0
DICTIONARY
  5
1950D
330
19442
100
AcDbDictionary
280
     1
281
     1
  3
ACAD_XREC_ROUNDTRIP
360
1950E
  0
DICTIONARY
  5
19515
330
19446
100
AcDbDictionary
280
     1
281
     1
  3
ACAD_XREC_ROUNDTRIP
360
19516
  0
XRECORD
  5
194DF
102
{ACAD_REACTORS
330
194E5
102
}
330
194E5
100
AcDbXrecord
280
     1
  1
AcDb_Thumbnail_Schema
102
{ATTRRECORD
341
194E0
  2
AcDbDs::TreatedAsObjectData
280
     1
291
     1
102
ATTRRECORD}
102
{ATTRRECORD
341
194E1
  2
AcDbDs::Legacy
280
     1
291
     1
102
ATTRRECORD}
  2
AcDbDs::ID
280
    10
 91
        8
102
{ATTRRECORD
341
194E2
  2
AcDs:Indexable
280
     1
291
     1
102
ATTRRECORD}
102
{ATTRRECORD
341
194E3
  2
AcDbDs::HandleAttribute
280
     7
282
     1
102
ATTRRECORD}
  2
Thumbnail_Data
280
    15
 91
        0
  0
XRECORD
  5
194E0
102
{ACAD_REACTORS
330
194E5
102
}
330
194E5
100
AcDbXrecord
280
     1
  1
AcDbDs::TreatedAsObjectDataSchema
  2
AcDbDs::TreatedAsObjectData
280
     1
 91
        0
  0
XRECORD
  5
194E1
102
{ACAD_REACTORS
330
194E5
102
}
330
194E5
100
AcDbXrecord
280
     1
  1
AcDbDs::LegacySchema
  2
AcDbDs::Legacy
280
     1
 91
        0
  0
XRECORD
  5
194E2
102
{ACAD_REACTORS
330
194E5
102
}
330
194E5
100
AcDbXrecord
280
     1
  1
AcDbDs::IndexedPropertySchema
  2
AcDs:Indexable
280
     1
 91
        0
  0
XRECORD
  5
194E3
102
{ACAD_REACTORS
330
194E5
102
}
330
194E5
100
AcDbXrecord
280
     1
  1
AcDbDs::HandleAttributeSchema
  2
AcDbDs::HandleAttribute
280
     7
 91
        1
284
     1
  0
ACDB_MTEXTOBJECTCONTEXTDATA_CLASS
  5
19498
102
{ACAD_REACTORS
330
19497
102
}
330
19497
100
AcDbObjectContextData
 70
     4
290
     1
100
AcDbAnnotScaleObjectContextData
340
1757E
 70
     1
 10
1.0
 20
0.0
 30
0.0
 11
531.1035150266149
 21
19.77783846381156
 31
0.0
 40
16.33084841197276
 41
0.0
 42
16.16979143508874
 43
1.346003494871089
 71
     0
  0
XRECORD
  5
1951E
102
{ACAD_REACTORS
330
1951D
102
}
330
1951D
100
AcDbXrecord
280
     1
102
DISPLAYNAME
  1
Imperial24
102
FLAGS
 90
        0
  0
XRECORD
  5
1755F
102
{ACAD_REACTORS
330
1755D
102
}
330
1755D
100
AcDbXrecord
280
     1
270
     1
271
     1
  0
XRECORD
  5
1755E
102
{ACAD_REACTORS
330
1755D
102
}
330
1755D
100
AcDbXrecord
280
     1
270
     1
271
     1
  0
XRECORD
  5
17562
102
{ACAD_REACTORS
330
1755D
102
}
330
1755D
100
AcDbXrecord
280
     1
270
     1
271
     1
  0
XRECORD
  5
17561
102
{ACAD_REACTORS
330
1755D
102
}
330
1755D
100
AcDbXrecord
280
     1
270
     1
271
     1
  0
XRECORD
  5
17563
102
{ACAD_REACTORS
330
1755D
102
}
330
1755D
100
AcDbXrecord
280
     1
270
     1
271
     1
  0
XRECORD
  5
17560
102
{ACAD_REACTORS
330
1755D
102
}
330
1755D
100
AcDbXrecord
280
     1
270
     1
271
     1
  0
XRECORD
  5
17557
102
{ACAD_REACTORS
330
17555
102
}
330
17555
100
AcDbXrecord
280
     1
270
     1
271
     1
  0
XRECORD
  5
17556
102
{ACAD_REACTORS
330
17555
102
}
330
17555
100
AcDbXrecord
280
     1
270
     1
271
     1
  0
XRECORD
  5
1755A
102
{ACAD_REACTORS
330
17555
102
}
330
17555
100
AcDbXrecord
280
     1
270
     1
271
     1
  0
XRECORD
  5
17559
102
{ACAD_REACTORS
330
17555
102
}
330
17555
100
AcDbXrecord
280
     1
270
     1
271
     1
  0
XRECORD
  5
1755B
102
{ACAD_REACTORS
330
17555
102
}
330
17555
100
AcDbXrecord
280
     1
270
     1
271
     1
  0
XRECORD
  5
17558
102
{ACAD_REACTORS
330
17555
102
}
330
17555
100
AcDbXrecord
280
     1
270
     1
271
     1
  0
XRECORD
  5
17567
102
{ACAD_REACTORS
330
17565
102
}
330
17565
100
AcDbXrecord
280
     1
270
     1
271
     1
  0
XRECORD
  5
17566
102
{ACAD_REACTORS
330
17565
102
}
330
17565
100
AcDbXrecord
280
     1
270
     1
271
     1
  0
XRECORD
  5
1756A
102
{ACAD_REACTORS
330
17565
102
}
330
17565
100
AcDbXrecord
280
     1
270
     1
271
     1
  0
XRECORD
  5
17569
102
{ACAD_REACTORS
330
17565
102
}
330
17565
100
AcDbXrecord
280
     1
270
     1
271
     1
  0
XRECORD
  5
1756B
102
{ACAD_REACTORS
330
17565
102
}
330
17565
100
AcDbXrecord
280
     1
270
     1
271
     1
  0
XRECORD
  5
17568
102
{ACAD_REACTORS
330
17565
102
}
330
17565
100
AcDbXrecord
280
     1
270
     1
271
     1
  0
XRECORD
  5
1951C
102
{ACAD_REACTORS
330
1951B
102
}
330
1951B
100
AcDbXrecord
280
     1
102
DISPLAYNAME
  1
Imperial24
102
FLAGS
 90
        0
  0
CELLSTYLEMAP
  5
194DA
102
{ACAD_REACTORS
330
175C3
102
}
330
175C3
100
AcDbCellStyleMap
 90
        3
300
CELLSTYLE
  1
TABLEFORMAT_BEGIN
 90
        5
170
     1
 91
        0
 92
    32768
 62
   257
 93
        1
300
CONTENTFORMAT
  1
CONTENTFORMAT_BEGIN
 90
        0
 91
        0
 92
        4
 93
        0
300

 40
0.0
140
1.0
 94
        5
 62
     1
340
36AA
144
0.25
309
CONTENTFORMAT_END
171
     0
 94
        6
 95
        1
302
GRIDFORMAT
  1
GRIDFORMAT_BEGIN
 90
        0
 91
        1
 62
     0
 92
       -2
340
0
 93
        0
 40
0.045
309
GRIDFORMAT_END
 95
        2
302
GRIDFORMAT
  1
GRIDFORMAT_BEGIN
 90
        0
 91
        1
 62
     0
 92
       -2
340
0
 93
        0
 40
0.045
309
GRIDFORMAT_END
 95
        4
302
GRIDFORMAT
  1
GRIDFORMAT_BEGIN
 90
        0
 91
        1
 62
     0
 92
       -2
340
0
 93
        0
 40
0.045
309
GRIDFORMAT_END
 95
        8
302
GRIDFORMAT
  1
GRIDFORMAT_BEGIN
 90
        0
 91
        1
 62
     0
 92
       -2
340
0
 93
        0
 40
0.045
309
GRIDFORMAT_END
 95
       16
302
GRIDFORMAT
  1
GRIDFORMAT_BEGIN
 90
        0
 91
        1
 62
     0
 92
       -2
340
0
 93
        0
 40
0.045
309
GRIDFORMAT_END
 95
       32
302
GRIDFORMAT
  1
GRIDFORMAT_BEGIN
 90
        0
 91
        1
 62
     0
 92
       -2
340
0
 93
        0
 40
0.045
309
GRIDFORMAT_END
309
TABLEFORMAT_END
  1
CELLSTYLE_BEGIN
 90
        1
 91
        1
300
_TITLE
309
CELLSTYLE_END
300
CELLSTYLE
  1
TABLEFORMAT_BEGIN
 90
        5
170
     1
 91
        0
 92
        0
 62
     9
 93
        1
300
CONTENTFORMAT
  1
CONTENTFORMAT_BEGIN
 90
        0
 91
        0
 92
        4
 93
        0
300

 40
0.0
140
1.0
 94
        5
 62
     5
340
36AA
144
0.18
309
CONTENTFORMAT_END
171
     0
 94
        6
 95
        1
302
GRIDFORMAT
  1
GRIDFORMAT_BEGIN
 90
        0
 91
        1
 62
     0
 92
       -2
340
0
 93
        0
 40
0.045
309
GRIDFORMAT_END
 95
        2
302
GRIDFORMAT
  1
GRIDFORMAT_BEGIN
 90
        0
 91
        1
 62
     0
 92
       -2
340
0
 93
        0
 40
0.045
309
GRIDFORMAT_END
 95
        4
302
GRIDFORMAT
  1
GRIDFORMAT_BEGIN
 90
        0
 91
        1
 62
     0
 92
       -2
340
0
 93
        0
 40
0.045
309
GRIDFORMAT_END
 95
        8
302
GRIDFORMAT
  1
GRIDFORMAT_BEGIN
 90
        0
 91
        1
 62
     0
 92
       -2
340
0
 93
        0
 40
0.045
309
GRIDFORMAT_END
 95
       16
302
GRIDFORMAT
  1
GRIDFORMAT_BEGIN
 90
        0
 91
        1
 62
     0
 92
       -2
340
0
 93
        0
 40
0.045
309
GRIDFORMAT_END
 95
       32
302
GRIDFORMAT
  1
GRIDFORMAT_BEGIN
 90
        0
 91
        1
 62
     0
 92
       -2
340
0
 93
        0
 40
0.045
309
GRIDFORMAT_END
309
TABLEFORMAT_END
  1
CELLSTYLE_BEGIN
 90
        2
 91
        1
300
_HEADER
309
CELLSTYLE_END
300
CELLSTYLE
  1
TABLEFORMAT_BEGIN
 90
        5
170
     1
 91
        0
 92
        0
 62
   257
 93
        1
300
CONTENTFORMAT
  1
CONTENTFORMAT_BEGIN
 90
        0
 91
        0
 92
        4
 93
        0
300

 40
0.0
140
1.0
 94
        2
 62
     0
340
36AA
144
0.18
309
CONTENTFORMAT_END
171
     0
 94
        6
 95
        1
302
GRIDFORMAT
  1
GRIDFORMAT_BEGIN
 90
        0
 91
        1
 62
     0
 92
       -2
340
0
 93
        0
 40
0.045
309
GRIDFORMAT_END
 95
        2
302
GRIDFORMAT
  1
GRIDFORMAT_BEGIN
 90
        0
 91
        1
 62
     0
 92
       -2
340
0
 93
        0
 40
0.045
309
GRIDFORMAT_END
 95
        4
302
GRIDFORMAT
  1
GRIDFORMAT_BEGIN
 90
        0
 91
        1
 62
     0
 92
       -2
340
0
 93
        0
 40
0.045
309
GRIDFORMAT_END
 95
        8
302
GRIDFORMAT
  1
GRIDFORMAT_BEGIN
 90
        0
 91
        1
 62
     0
 92
       -2
340
0
 93
        0
 40
0.045
309
GRIDFORMAT_END
 95
       16
302
GRIDFORMAT
  1
GRIDFORMAT_BEGIN
 90
        0
 91
        1
 62
     0
 92
       -2
340
0
 93
        0
 40
0.045
309
GRIDFORMAT_END
 95
       32
302
GRIDFORMAT
  1
GRIDFORMAT_BEGIN
 90
        0
 91
        1
 62
     0
 92
       -2
340
0
 93
        0
 40
0.045
309
GRIDFORMAT_END
309
TABLEFORMAT_END
  1
CELLSTYLE_BEGIN
 90
        3
 91
        2
300
_DATA
309
CELLSTYLE_END
  0
CELLSTYLEMAP
  5
194D9
102
{ACAD_REACTORS
330
175C1
102
}
330
175C1
100
AcDbCellStyleMap
 90
        3
300
CELLSTYLE
  1
TABLEFORMAT_BEGIN
 90
        5
170
     1
 91
        0
 92
    32768
 62
   254
420
 14079702
 93
        1
300
CONTENTFORMAT
  1
CONTENTFORMAT_BEGIN
 90
        0
 91
        0
 92
        4
 93
        0
300

 40
0.0
140
1.0
 94
        5
 62
     1
340
36AA
144
6.0
309
CONTENTFORMAT_END
171
     1
301
MARGIN
  1
CELLMARGIN_BEGIN
 40
1.5
 40
1.5
 40
1.5
 40
1.5
 40
0.18
 40
0.18
309
CELLMARGIN_END
 94
        6
 95
        1
302
GRIDFORMAT
  1
GRIDFORMAT_BEGIN
 90
        0
 91
        1
 62
     0
 92
       -2
340
0
 93
        0
 40
0.045
309
GRIDFORMAT_END
 95
        2
302
GRIDFORMAT
  1
GRIDFORMAT_BEGIN
 90
        0
 91
        1
 62
     0
 92
       -2
340
0
 93
        0
 40
0.045
309
GRIDFORMAT_END
 95
        4
302
GRIDFORMAT
  1
GRIDFORMAT_BEGIN
 90
        0
 91
        1
 62
     0
 92
       -2
340
0
 93
        0
 40
0.045
309
GRIDFORMAT_END
 95
        8
302
GRIDFORMAT
  1
GRIDFORMAT_BEGIN
 90
        0
 91
        1
 62
     0
 92
       -2
340
0
 93
        0
 40
0.045
309
GRIDFORMAT_END
 95
       16
302
GRIDFORMAT
  1
GRIDFORMAT_BEGIN
 90
        0
 91
        1
 62
     0
 92
       -2
340
0
 93
        0
 40
0.045
309
GRIDFORMAT_END
 95
       32
302
GRIDFORMAT
  1
GRIDFORMAT_BEGIN
 90
        0
 91
        1
 62
     0
 92
       -2
340
0
 93
        0
 40
0.045
309
GRIDFORMAT_END
309
TABLEFORMAT_END
  1
CELLSTYLE_BEGIN
 90
        1
 91
        1
300
_TITLE
309
CELLSTYLE_END
300
CELLSTYLE
  1
TABLEFORMAT_BEGIN
 90
        5
170
     1
 91
        0
 92
        0
 62
   257
 93
        1
300
CONTENTFORMAT
  1
CONTENTFORMAT_BEGIN
 90
        0
 91
        0
 92
        4
 93
        0
300

 40
0.0
140
1.0
 94
        5
 62
     5
340
36AA
144
4.5
309
CONTENTFORMAT_END
171
     1
301
MARGIN
  1
CELLMARGIN_BEGIN
 40
1.5
 40
1.5
 40
1.5
 40
1.5
 40
0.18
 40
0.18
309
CELLMARGIN_END
 94
        6
 95
        1
302
GRIDFORMAT
  1
GRIDFORMAT_BEGIN
 90
        0
 91
        1
 62
     0
 92
       -2
340
0
 93
        0
 40
0.045
309
GRIDFORMAT_END
 95
        2
302
GRIDFORMAT
  1
GRIDFORMAT_BEGIN
 90
        0
 91
        1
 62
     0
 92
       -2
340
0
 93
        0
 40
0.045
309
GRIDFORMAT_END
 95
        4
302
GRIDFORMAT
  1
GRIDFORMAT_BEGIN
 90
        0
 91
        1
 62
     0
 92
       -2
340
0
 93
        0
 40
0.045
309
GRIDFORMAT_END
 95
        8
302
GRIDFORMAT
  1
GRIDFORMAT_BEGIN
 90
        0
 91
        1
 62
     0
 92
       -2
340
0
 93
        0
 40
0.045
309
GRIDFORMAT_END
 95
       16
302
GRIDFORMAT
  1
GRIDFORMAT_BEGIN
 90
        0
 91
        1
 62
     0
 92
       -2
340
0
 93
        0
 40
0.045
309
GRIDFORMAT_END
 95
       32
302
GRIDFORMAT
  1
GRIDFORMAT_BEGIN
 90
        0
 91
        1
 62
     0
 92
       -2
340
0
 93
        0
 40
0.045
309
GRIDFORMAT_END
309
TABLEFORMAT_END
  1
CELLSTYLE_BEGIN
 90
        2
 91
        1
300
_HEADER
309
CELLSTYLE_END
300
CELLSTYLE
  1
TABLEFORMAT_BEGIN
 90
        5
170
     1
 91
        0
 92
        0
 62
   257
 93
        1
300
CONTENTFORMAT
  1
CONTENTFORMAT_BEGIN
 90
        0
 91
        0
 92
        4
 93
        0
300

 40
0.0
140
1.0
 94
        2
 62
     0
340
36AA
144
4.5
309
CONTENTFORMAT_END
171
     1
301
MARGIN
  1
CELLMARGIN_BEGIN
 40
1.5
 40
1.5
 40
1.5
 40
1.5
 40
0.18
 40
0.18
309
CELLMARGIN_END
 94
        6
 95
        1
302
GRIDFORMAT
  1
GRIDFORMAT_BEGIN
 90
        0
 91
        1
 62
     0
 92
       -2
340
0
 93
        0
 40
0.045
309
GRIDFORMAT_END
 95
        2
302
GRIDFORMAT
  1
GRIDFORMAT_BEGIN
 90
        0
 91
        1
 62
     0
 92
       -2
340
0
 93
        0
 40
0.045
309
GRIDFORMAT_END
 95
        4
302
GRIDFORMAT
  1
GRIDFORMAT_BEGIN
 90
        0
 91
        1
 62
     0
 92
       -2
340
0
 93
        0
 40
0.045
309
GRIDFORMAT_END
 95
        8
302
GRIDFORMAT
  1
GRIDFORMAT_BEGIN
 90
        0
 91
        1
 62
     0
 92
       -2
340
0
 93
        0
 40
0.045
309
GRIDFORMAT_END
 95
       16
302
GRIDFORMAT
  1
GRIDFORMAT_BEGIN
 90
        0
 91
        1
 62
     0
 92
       -2
340
0
 93
        0
 40
0.045
309
GRIDFORMAT_END
 95
       32
302
GRIDFORMAT
  1
GRIDFORMAT_BEGIN
 90
        0
 91
        1
 62
     0
 92
       -2
340
0
 93
        0
 40
0.045
309
GRIDFORMAT_END
309
TABLEFORMAT_END
  1
CELLSTYLE_BEGIN
 90
        3
 91
        2
300
_DATA
309
CELLSTYLE_END
  0
CELLSTYLEMAP
  5
194D8
102
{ACAD_REACTORS
330
175BF
102
}
330
175BF
100
AcDbCellStyleMap
 90
        3
300
CELLSTYLE
  1
TABLEFORMAT_BEGIN
 90
        5
170
     1
 91
        0
 92
    32768
 62
   257
 93
        1
300
CONTENTFORMAT
  1
CONTENTFORMAT_BEGIN
 90
        0
 91
        0
 92
        4
 93
        0
300

 40
0.0
140
1.0
 94
        5
 62
     0
340
11
144
0.25
309
CONTENTFORMAT_END
171
     0
 94
        6
 95
        1
302
GRIDFORMAT
  1
GRIDFORMAT_BEGIN
 90
        0
 91
        1
 62
     0
 92
       -2
340
0
 93
        0
 40
0.045
309
GRIDFORMAT_END
 95
        2
302
GRIDFORMAT
  1
GRIDFORMAT_BEGIN
 90
        0
 91
        1
 62
     0
 92
       -2
340
0
 93
        0
 40
0.045
309
GRIDFORMAT_END
 95
        4
302
GRIDFORMAT
  1
GRIDFORMAT_BEGIN
 90
        0
 91
        1
 62
     0
 92
       -2
340
0
 93
        0
 40
0.045
309
GRIDFORMAT_END
 95
        8
302
GRIDFORMAT
  1
GRIDFORMAT_BEGIN
 90
        0
 91
        1
 62
     0
 92
       -2
340
0
 93
        0
 40
0.045
309
GRIDFORMAT_END
 95
       16
302
GRIDFORMAT
  1
GRIDFORMAT_BEGIN
 90
        0
 91
        1
 62
     0
 92
       -2
340
0
 93
        0
 40
0.045
309
GRIDFORMAT_END
 95
       32
302
GRIDFORMAT
  1
GRIDFORMAT_BEGIN
 90
        0
 91
        1
 62
     0
 92
       -2
340
0
 93
        0
 40
0.045
309
GRIDFORMAT_END
309
TABLEFORMAT_END
  1
CELLSTYLE_BEGIN
 90
        1
 91
        1
300
_TITLE
309
CELLSTYLE_END
300
CELLSTYLE
  1
TABLEFORMAT_BEGIN
 90
        5
170
     1
 91
        0
 92
        0
 62
   257
 93
        1
300
CONTENTFORMAT
  1
CONTENTFORMAT_BEGIN
 90
        0
 91
        0
 92
        4
 93
        0
300

 40
0.0
140
1.0
 94
        5
 62
     0
340
11
144
0.18
309
CONTENTFORMAT_END
171
     0
 94
        6
 95
        1
302
GRIDFORMAT
  1
GRIDFORMAT_BEGIN
 90
        0
 91
        1
 62
     0
 92
       -2
340
0
 93
        0
 40
0.045
309
GRIDFORMAT_END
 95
        2
302
GRIDFORMAT
  1
GRIDFORMAT_BEGIN
 90
        0
 91
        1
 62
     0
 92
       -2
340
0
 93
        0
 40
0.045
309
GRIDFORMAT_END
 95
        4
302
GRIDFORMAT
  1
GRIDFORMAT_BEGIN
 90
        0
 91
        1
 62
     0
 92
       -2
340
0
 93
        0
 40
0.045
309
GRIDFORMAT_END
 95
        8
302
GRIDFORMAT
  1
GRIDFORMAT_BEGIN
 90
        0
 91
        1
 62
     0
 92
       -2
340
0
 93
        0
 40
0.045
309
GRIDFORMAT_END
 95
       16
302
GRIDFORMAT
  1
GRIDFORMAT_BEGIN
 90
        0
 91
        1
 62
     0
 92
       -2
340
0
 93
        0
 40
0.045
309
GRIDFORMAT_END
 95
       32
302
GRIDFORMAT
  1
GRIDFORMAT_BEGIN
 90
        0
 91
        1
 62
     0
 92
       -2
340
0
 93
        0
 40
0.045
309
GRIDFORMAT_END
309
TABLEFORMAT_END
  1
CELLSTYLE_BEGIN
 90
        2
 91
        1
300
_HEADER
309
CELLSTYLE_END
300
CELLSTYLE
  1
TABLEFORMAT_BEGIN
 90
        5
170
     1
 91
        0
 92
        0
 62
   257
 93
        1
300
CONTENTFORMAT
  1
CONTENTFORMAT_BEGIN
 90
        0
 91
        0
 92
        4
 93
        0
300

 40
0.0
140
1.0
 94
        2
 62
     0
340
11
144
0.18
309
CONTENTFORMAT_END
171
     0
 94
        6
 95
        1
302
GRIDFORMAT
  1
GRIDFORMAT_BEGIN
 90
        0
 91
        1
 62
     0
 92
       -2
340
0
 93
        0
 40
0.045
309
GRIDFORMAT_END
 95
        2
302
GRIDFORMAT
  1
GRIDFORMAT_BEGIN
 90
        0
 91
        1
 62
     0
 92
       -2
340
0
 93
        0
 40
0.045
309
GRIDFORMAT_END
 95
        4
302
GRIDFORMAT
  1
GRIDFORMAT_BEGIN
 90
        0
 91
        1
 62
     0
 92
       -2
340
0
 93
        0
 40
0.045
309
GRIDFORMAT_END
 95
        8
302
GRIDFORMAT
  1
GRIDFORMAT_BEGIN
 90
        0
 91
        1
 62
     0
 92
       -2
340
0
 93
        0
 40
0.045
309
GRIDFORMAT_END
 95
       16
302
GRIDFORMAT
  1
GRIDFORMAT_BEGIN
 90
        0
 91
        1
 62
     0
 92
       -2
340
0
 93
        0
 40
0.045
309
GRIDFORMAT_END
 95
       32
302
GRIDFORMAT
  1
GRIDFORMAT_BEGIN
 90
        0
 91
        1
 62
     0
 92
       -2
340
0
 93
        0
 40
0.045
309
GRIDFORMAT_END
309
TABLEFORMAT_END
  1
CELLSTYLE_BEGIN
 90
        3
 91
        2
300
_DATA
309
CELLSTYLE_END
  0
XRECORD
  5
194F2
102
{ACAD_REACTORS
330
194F1
102
}
330
194F1
100
AcDbXrecord
280
     1
102
RTVSPost2010Prop28
280
     1
102
RTVSPost2010PropOp28
 70
     1
102
RTVSPost2010Prop29
280
     1
102
RTVSPost2010PropOp29
 70
     1
102
RTVSPost2010Prop30
280
     0
102
RTVSPost2010PropOp30
 70
     1
102
RTVSPost2010Prop31
280
     0
102
RTVSPost2010PropOp31
 70
     1
102
RTVSPost2010Prop32
280
     0
102
RTVSPost2010PropOp32
 70
     1
102
RTVSPost2010Prop33
280
     0
102
RTVSPost2010PropOp33
 70
     1
102
RTVSPost2010Prop34
280
     0
102
RTVSPost2010PropOp34
 70
     1
102
RTVSPost2010Prop35
280
     0
102
RTVSPost2010PropOp35
 70
     1
102
RTVSPost2010Prop36
280
     0
102
RTVSPost2010PropOp36
 70
     1
102
RTVSPost2010Prop37
 90
       50
102
RTVSPost2010PropOp37
 70
     1
102
RTVSPost2010Prop38
140
0.0
102
RTVSPost2010PropOp38
 70
     1
102
RTVSPost2010Prop39
140
1.0
102
RTVSPost2010PropOp39
 70
     1
102
RTVSPost2010Prop40
 90
        0
102
RTVSPost2010PropOp40
 70
     1
102
RTVSPost2010Prop41ColorIndex
 90
       18
102
RTVSPost2010Prop41ColorRGB
 90
        0
102
RTVSPost2010PropOp41
 70
     1
102
RTVSPost2010Prop42
 90
       50
102
RTVSPost2010PropOp42
 70
     1
102
RTVSPost2010Prop43
 90
        3
102
RTVSPost2010PropOp43
 70
     1
102
RTVSPost2010Prop44ColorIndex
 90
        5
102
RTVSPost2010Prop44ColorRGB
 90
      255
102
RTVSPost2010PropOp44
 70
     1
102
RTVSPost2010Prop45
280
     0
102
RTVSPost2010PropOp45
 70
     1
102
RTVSPost2010Prop46
 90
       50
102
RTVSPost2010PropOp46
 70
     1
102
RTVSPost2010Prop47
 90
       50
102
RTVSPost2010PropOp47
 70
     1
102
RTVSPost2010Prop48
 90
       50
102
RTVSPost2010PropOp48
 70
     1
102
RTVSPost2010Prop49
280
     0
102
RTVSPost2010PropOp49
 70
     1
102
RTVSPost2010Prop50
 90
       50
102
RTVSPost2010PropOp50
 70
     1
102
RTVSPost2010Prop51ColorIndex
 90
      256
102
RTVSPost2010Prop51ColorRGB
 90
-16777216
102
RTVSPost2010PropOp51
 70
     0
102
RTVSPost2010Prop52
140
1.0
102
RTVSPost2010PropOp52
 70
     0
102
RTVSPost2010Prop53
 90
        2
102
RTVSPost2010PropOp53
 70
     1
102
RTVSPost2010Prop54
  1
strokes_ogs.tif
102
RTVSPost2010PropOp54
 70
     1
102
RTVSPost2010Prop55
280
     0
102
RTVSPost2010PropOp55
 70
     1
102
RTVSPost2010Prop56
140
1.0
102
RTVSPost2010PropOp56
 70
     1
102
RTVSPost2010Prop57
140
1.0
102
RTVSPost2010PropOp57
 70
     1
  0
XRECORD
  5
194F6
102
{ACAD_REACTORS
330
194F5
102
}
330
194F5
100
AcDbXrecord
280
     1
102
RTVSPost2010Prop28
280
     0
102
RTVSPost2010PropOp28
 70
     1
102
RTVSPost2010Prop29
280
     1
102
RTVSPost2010PropOp29
 70
     1
102
RTVSPost2010Prop30
280
     1
102
RTVSPost2010PropOp30
 70
     1
102
RTVSPost2010Prop31
280
     0
102
RTVSPost2010PropOp31
 70
     1
102
RTVSPost2010Prop32
280
     0
102
RTVSPost2010PropOp32
 70
     1
102
RTVSPost2010Prop33
280
     0
102
RTVSPost2010PropOp33
 70
     1
102
RTVSPost2010Prop34
280
     0
102
RTVSPost2010PropOp34
 70
     1
102
RTVSPost2010Prop35
280
     0
102
RTVSPost2010PropOp35
 70
     1
102
RTVSPost2010Prop36
280
     0
102
RTVSPost2010PropOp36
 70
     1
102
RTVSPost2010Prop37
 90
       50
102
RTVSPost2010PropOp37
 70
     1
102
RTVSPost2010Prop38
140
0.0
102
RTVSPost2010PropOp38
 70
     1
102
RTVSPost2010Prop39
140
1.0
102
RTVSPost2010PropOp39
 70
     1
102
RTVSPost2010Prop40
 90
        0
102
RTVSPost2010PropOp40
 70
     1
102
RTVSPost2010Prop41ColorIndex
 90
       18
102
RTVSPost2010Prop41ColorRGB
 90
        0
102
RTVSPost2010PropOp41
 70
     1
102
RTVSPost2010Prop42
 90
       50
102
RTVSPost2010PropOp42
 70
     1
102
RTVSPost2010Prop43
 90
        3
102
RTVSPost2010PropOp43
 70
     1
102
RTVSPost2010Prop44ColorIndex
 90
        5
102
RTVSPost2010Prop44ColorRGB
 90
      255
102
RTVSPost2010PropOp44
 70
     1
102
RTVSPost2010Prop45
280
     0
102
RTVSPost2010PropOp45
 70
     1
102
RTVSPost2010Prop46
 90
       50
102
RTVSPost2010PropOp46
 70
     1
102
RTVSPost2010Prop47
 90
       50
102
RTVSPost2010PropOp47
 70
     1
102
RTVSPost2010Prop48
 90
       50
102
RTVSPost2010PropOp48
 70
     1
102
RTVSPost2010Prop49
280
     0
102
RTVSPost2010PropOp49
 70
     1
102
RTVSPost2010Prop50
 90
       50
102
RTVSPost2010PropOp50
 70
     1
102
RTVSPost2010Prop51ColorIndex
 90
      256
102
RTVSPost2010Prop51ColorRGB
 90
-16777216
102
RTVSPost2010PropOp51
 70
     0
102
RTVSPost2010Prop52
140
1.0
102
RTVSPost2010PropOp52
 70
     0
102
RTVSPost2010Prop53
 90
        2
102
RTVSPost2010PropOp53
 70
     1
102
RTVSPost2010Prop54
  1
strokes_ogs.tif
102
RTVSPost2010PropOp54
 70
     1
102
RTVSPost2010Prop55
280
     0
102
RTVSPost2010PropOp55
 70
     1
102
RTVSPost2010Prop56
140
1.0
102
RTVSPost2010PropOp56
 70
     1
102
RTVSPost2010Prop57
140
1.0
102
RTVSPost2010PropOp57
 70
     1
  0
XRECORD
  5
194F4
102
{ACAD_REACTORS
330
194F3
102
}
330
194F3
100
AcDbXrecord
280
     1
102
RTVSPost2010Prop28
280
     0
102
RTVSPost2010PropOp28
 70
     1
102
RTVSPost2010Prop29
280
     1
102
RTVSPost2010PropOp29
 70
     1
102
RTVSPost2010Prop30
280
     1
102
RTVSPost2010PropOp30
 70
     1
102
RTVSPost2010Prop31
280
     0
102
RTVSPost2010PropOp31
 70
     1
102
RTVSPost2010Prop32
280
     0
102
RTVSPost2010PropOp32
 70
     1
102
RTVSPost2010Prop33
280
     0
102
RTVSPost2010PropOp33
 70
     1
102
RTVSPost2010Prop34
280
     0
102
RTVSPost2010PropOp34
 70
     1
102
RTVSPost2010Prop35
280
     0
102
RTVSPost2010PropOp35
 70
     1
102
RTVSPost2010Prop36
280
     0
102
RTVSPost2010PropOp36
 70
     1
102
RTVSPost2010Prop37
 90
       50
102
RTVSPost2010PropOp37
 70
     1
102
RTVSPost2010Prop38
140
0.0
102
RTVSPost2010PropOp38
 70
     1
102
RTVSPost2010Prop39
140
1.0
102
RTVSPost2010PropOp39
 70
     1
102
RTVSPost2010Prop40
 90
        0
102
RTVSPost2010PropOp40
 70
     1
102
RTVSPost2010Prop41ColorIndex
 90
       18
102
RTVSPost2010Prop41ColorRGB
 90
        0
102
RTVSPost2010PropOp41
 70
     1
102
RTVSPost2010Prop42
 90
       50
102
RTVSPost2010PropOp42
 70
     1
102
RTVSPost2010Prop43
 90
        3
102
RTVSPost2010PropOp43
 70
     1
102
RTVSPost2010Prop44ColorIndex
 90
        5
102
RTVSPost2010Prop44ColorRGB
 90
      255
102
RTVSPost2010PropOp44
 70
     1
102
RTVSPost2010Prop45
280
     0
102
RTVSPost2010PropOp45
 70
     1
102
RTVSPost2010Prop46
 90
       50
102
RTVSPost2010PropOp46
 70
     1
102
RTVSPost2010Prop47
 90
       50
102
RTVSPost2010PropOp47
 70
     1
102
RTVSPost2010Prop48
 90
       50
102
RTVSPost2010PropOp48
 70
     1
102
RTVSPost2010Prop49
280
     0
102
RTVSPost2010PropOp49
 70
     1
102
RTVSPost2010Prop50
 90
       50
102
RTVSPost2010PropOp50
 70
     1
102
RTVSPost2010Prop51ColorIndex
 90
      256
102
RTVSPost2010Prop51ColorRGB
 90
-16777216
102
RTVSPost2010PropOp51
 70
     0
102
RTVSPost2010Prop52
140
1.0
102
RTVSPost2010PropOp52
 70
     0
102
RTVSPost2010Prop53
 90
        2
102
RTVSPost2010PropOp53
 70
     1
102
RTVSPost2010Prop54
  1
strokes_ogs.tif
102
RTVSPost2010PropOp54
 70
     1
102
RTVSPost2010Prop55
280
     0
102
RTVSPost2010PropOp55
 70
     1
102
RTVSPost2010Prop56
140
1.0
102
RTVSPost2010PropOp56
 70
     1
102
RTVSPost2010Prop57
140
1.0
102
RTVSPost2010PropOp57
 70
     1
  0
XRECORD
  5
194F0
102
{ACAD_REACTORS
330
194EF
102
}
330
194EF
100
AcDbXrecord
280
     1
102
RTVSPost2010Prop28
280
     0
102
RTVSPost2010PropOp28
 70
     1
102
RTVSPost2010Prop29
280
     1
102
RTVSPost2010PropOp29
 70
     1
102
RTVSPost2010Prop30
280
     1
102
RTVSPost2010PropOp30
 70
     1
102
RTVSPost2010Prop31
280
     0
102
RTVSPost2010PropOp31
 70
     1
102
RTVSPost2010Prop32
280
     0
102
RTVSPost2010PropOp32
 70
     1
102
RTVSPost2010Prop33
280
     0
102
RTVSPost2010PropOp33
 70
     1
102
RTVSPost2010Prop34
280
     0
102
RTVSPost2010PropOp34
 70
     1
102
RTVSPost2010Prop35
280
     0
102
RTVSPost2010PropOp35
 70
     1
102
RTVSPost2010Prop36
280
     0
102
RTVSPost2010PropOp36
 70
     1
102
RTVSPost2010Prop37
 90
       50
102
RTVSPost2010PropOp37
 70
     1
102
RTVSPost2010Prop38
140
0.0
102
RTVSPost2010PropOp38
 70
     1
102
RTVSPost2010Prop39
140
1.0
102
RTVSPost2010PropOp39
 70
     1
102
RTVSPost2010Prop40
 90
        0
102
RTVSPost2010PropOp40
 70
     1
102
RTVSPost2010Prop41ColorIndex
 90
       18
102
RTVSPost2010Prop41ColorRGB
 90
        0
102
RTVSPost2010PropOp41
 70
     1
102
RTVSPost2010Prop42
 90
       50
102
RTVSPost2010PropOp42
 70
     1
102
RTVSPost2010Prop43
 90
        3
102
RTVSPost2010PropOp43
 70
     1
102
RTVSPost2010Prop44ColorIndex
 90
        5
102
RTVSPost2010Prop44ColorRGB
 90
      255
102
RTVSPost2010PropOp44
 70
     1
102
RTVSPost2010Prop45
280
     0
102
RTVSPost2010PropOp45
 70
     1
102
RTVSPost2010Prop46
 90
       50
102
RTVSPost2010PropOp46
 70
     1
102
RTVSPost2010Prop47
 90
       50
102
RTVSPost2010PropOp47
 70
     1
102
RTVSPost2010Prop48
 90
       50
102
RTVSPost2010PropOp48
 70
     1
102
RTVSPost2010Prop49
280
     0
102
RTVSPost2010PropOp49
 70
     1
102
RTVSPost2010Prop50
 90
       50
102
RTVSPost2010PropOp50
 70
     1
102
RTVSPost2010Prop51ColorIndex
 90
      256
102
RTVSPost2010Prop51ColorRGB
 90
-16777216
102
RTVSPost2010PropOp51
 70
     0
102
RTVSPost2010Prop52
140
1.0
102
RTVSPost2010PropOp52
 70
     0
102
RTVSPost2010Prop53
 90
        2
102
RTVSPost2010PropOp53
 70
     1
102
RTVSPost2010Prop54
  1
strokes_ogs.tif
102
RTVSPost2010PropOp54
 70
     1
102
RTVSPost2010Prop55
280
     0
102
RTVSPost2010PropOp55
 70
     1
102
RTVSPost2010Prop56
140
1.0
102
RTVSPost2010PropOp56
 70
     1
102
RTVSPost2010Prop57
140
1.0
102
RTVSPost2010PropOp57
 70
     1
  0
XRECORD
  5
194FE
102
{ACAD_REACTORS
330
194FD
102
}
330
194FD
100
AcDbXrecord
280
     1
102
RTVSPost2010Prop28
280
     0
102
RTVSPost2010PropOp28
 70
     1
102
RTVSPost2010Prop29
280
     1
102
RTVSPost2010PropOp29
 70
     1
102
RTVSPost2010Prop30
280
     1
102
RTVSPost2010PropOp30
 70
     1
102
RTVSPost2010Prop31
280
     0
102
RTVSPost2010PropOp31
 70
     1
102
RTVSPost2010Prop32
280
     0
102
RTVSPost2010PropOp32
 70
     1
102
RTVSPost2010Prop33
280
     0
102
RTVSPost2010PropOp33
 70
     1
102
RTVSPost2010Prop34
280
     0
102
RTVSPost2010PropOp34
 70
     1
102
RTVSPost2010Prop35
280
     0
102
RTVSPost2010PropOp35
 70
     1
102
RTVSPost2010Prop36
280
     0
102
RTVSPost2010PropOp36
 70
     1
102
RTVSPost2010Prop37
 90
       50
102
RTVSPost2010PropOp37
 70
     1
102
RTVSPost2010Prop38
140
0.0
102
RTVSPost2010PropOp38
 70
     1
102
RTVSPost2010Prop39
140
1.0
102
RTVSPost2010PropOp39
 70
     1
102
RTVSPost2010Prop40
 90
        0
102
RTVSPost2010PropOp40
 70
     1
102
RTVSPost2010Prop41ColorIndex
 90
       18
102
RTVSPost2010Prop41ColorRGB
 90
        0
102
RTVSPost2010PropOp41
 70
     1
102
RTVSPost2010Prop42
 90
       50
102
RTVSPost2010PropOp42
 70
     1
102
RTVSPost2010Prop43
 90
        3
102
RTVSPost2010PropOp43
 70
     1
102
RTVSPost2010Prop44ColorIndex
 90
        5
102
RTVSPost2010Prop44ColorRGB
 90
      255
102
RTVSPost2010PropOp44
 70
     1
102
RTVSPost2010Prop45
280
     0
102
RTVSPost2010PropOp45
 70
     1
102
RTVSPost2010Prop46
 90
       50
102
RTVSPost2010PropOp46
 70
     1
102
RTVSPost2010Prop47
 90
       50
102
RTVSPost2010PropOp47
 70
     1
102
RTVSPost2010Prop48
 90
       50
102
RTVSPost2010PropOp48
 70
     1
102
RTVSPost2010Prop49
280
     0
102
RTVSPost2010PropOp49
 70
     1
102
RTVSPost2010Prop50
 90
       50
102
RTVSPost2010PropOp50
 70
     1
102
RTVSPost2010Prop51ColorIndex
 90
      256
102
RTVSPost2010Prop51ColorRGB
 90
-16777216
102
RTVSPost2010PropOp51
 70
     0
102
RTVSPost2010Prop52
140
1.0
102
RTVSPost2010PropOp52
 70
     0
102
RTVSPost2010Prop53
 90
        2
102
RTVSPost2010PropOp53
 70
     1
102
RTVSPost2010Prop54
  1
strokes_ogs.tif
102
RTVSPost2010PropOp54
 70
     1
102
RTVSPost2010Prop55
280
     0
102
RTVSPost2010PropOp55
 70
     1
102
RTVSPost2010Prop56
140
1.0
102
RTVSPost2010PropOp56
 70
     1
102
RTVSPost2010Prop57
140
1.0
102
RTVSPost2010PropOp57
 70
     1
  0
XRECORD
  5
19506
102
{ACAD_REACTORS
330
19505
102
}
330
19505
100
AcDbXrecord
280
     1
102
RTVSPost2010Prop28
280
     0
102
RTVSPost2010PropOp28
 70
     1
102
RTVSPost2010Prop29
280
     1
102
RTVSPost2010PropOp29
 70
     1
102
RTVSPost2010Prop30
280
     1
102
RTVSPost2010PropOp30
 70
     1
102
RTVSPost2010Prop31
280
     0
102
RTVSPost2010PropOp31
 70
     1
102
RTVSPost2010Prop32
280
     0
102
RTVSPost2010PropOp32
 70
     1
102
RTVSPost2010Prop33
280
     0
102
RTVSPost2010PropOp33
 70
     1
102
RTVSPost2010Prop34
280
     0
102
RTVSPost2010PropOp34
 70
     1
102
RTVSPost2010Prop35
280
     0
102
RTVSPost2010PropOp35
 70
     1
102
RTVSPost2010Prop36
280
     0
102
RTVSPost2010PropOp36
 70
     1
102
RTVSPost2010Prop37
 90
       50
102
RTVSPost2010PropOp37
 70
     1
102
RTVSPost2010Prop38
140
0.0
102
RTVSPost2010PropOp38
 70
     1
102
RTVSPost2010Prop39
140
1.0
102
RTVSPost2010PropOp39
 70
     1
102
RTVSPost2010Prop40
 90
        0
102
RTVSPost2010PropOp40
 70
     1
102
RTVSPost2010Prop41ColorIndex
 90
       18
102
RTVSPost2010Prop41ColorRGB
 90
        0
102
RTVSPost2010PropOp41
 70
     1
102
RTVSPost2010Prop42
 90
       50
102
RTVSPost2010PropOp42
 70
     1
102
RTVSPost2010Prop43
 90
        3
102
RTVSPost2010PropOp43
 70
     1
102
RTVSPost2010Prop44ColorIndex
 90
        5
102
RTVSPost2010Prop44ColorRGB
 90
      255
102
RTVSPost2010PropOp44
 70
     1
102
RTVSPost2010Prop45
280
     0
102
RTVSPost2010PropOp45
 70
     1
102
RTVSPost2010Prop46
 90
       50
102
RTVSPost2010PropOp46
 70
     1
102
RTVSPost2010Prop47
 90
       50
102
RTVSPost2010PropOp47
 70
     1
102
RTVSPost2010Prop48
 90
       50
102
RTVSPost2010PropOp48
 70
     1
102
RTVSPost2010Prop49
280
     0
102
RTVSPost2010PropOp49
 70
     1
102
RTVSPost2010Prop50
 90
       50
102
RTVSPost2010PropOp50
 70
     1
102
RTVSPost2010Prop51ColorIndex
 90
      256
102
RTVSPost2010Prop51ColorRGB
 90
-16777216
102
RTVSPost2010PropOp51
 70
     0
102
RTVSPost2010Prop52
140
1.0
102
RTVSPost2010PropOp52
 70
     0
102
RTVSPost2010Prop53
 90
        2
102
RTVSPost2010PropOp53
 70
     1
102
RTVSPost2010Prop54
  1
strokes_ogs.tif
102
RTVSPost2010PropOp54
 70
     1
102
RTVSPost2010Prop55
280
     0
102
RTVSPost2010PropOp55
 70
     1
102
RTVSPost2010Prop56
140
1.0
102
RTVSPost2010PropOp56
 70
     1
102
RTVSPost2010Prop57
140
1.0
102
RTVSPost2010PropOp57
 70
     1
  0
XRECORD
  5
194F8
102
{ACAD_REACTORS
330
194F7
102
}
330
194F7
100
AcDbXrecord
280
     1
102
RTVSPost2010Prop28
280
     0
102
RTVSPost2010PropOp28
 70
     1
102
RTVSPost2010Prop29
280
     1
102
RTVSPost2010PropOp29
 70
     1
102
RTVSPost2010Prop30
280
     1
102
RTVSPost2010PropOp30
 70
     1
102
RTVSPost2010Prop31
280
     0
102
RTVSPost2010PropOp31
 70
     1
102
RTVSPost2010Prop32
280
     0
102
RTVSPost2010PropOp32
 70
     1
102
RTVSPost2010Prop33
280
     0
102
RTVSPost2010PropOp33
 70
     1
102
RTVSPost2010Prop34
280
     0
102
RTVSPost2010PropOp34
 70
     1
102
RTVSPost2010Prop35
280
     0
102
RTVSPost2010PropOp35
 70
     1
102
RTVSPost2010Prop36
280
     0
102
RTVSPost2010PropOp36
 70
     1
102
RTVSPost2010Prop37
 90
       50
102
RTVSPost2010PropOp37
 70
     1
102
RTVSPost2010Prop38
140
0.0
102
RTVSPost2010PropOp38
 70
     1
102
RTVSPost2010Prop39
140
1.0
102
RTVSPost2010PropOp39
 70
     1
102
RTVSPost2010Prop40
 90
        0
102
RTVSPost2010PropOp40
 70
     1
102
RTVSPost2010Prop41ColorIndex
 90
       18
102
RTVSPost2010Prop41ColorRGB
 90
        0
102
RTVSPost2010PropOp41
 70
     1
102
RTVSPost2010Prop42
 90
       50
102
RTVSPost2010PropOp42
 70
     1
102
RTVSPost2010Prop43
 90
        3
102
RTVSPost2010PropOp43
 70
     1
102
RTVSPost2010Prop44ColorIndex
 90
        5
102
RTVSPost2010Prop44ColorRGB
 90
      255
102
RTVSPost2010PropOp44
 70
     1
102
RTVSPost2010Prop45
280
     0
102
RTVSPost2010PropOp45
 70
     1
102
RTVSPost2010Prop46
 90
       50
102
RTVSPost2010PropOp46
 70
     1
102
RTVSPost2010Prop47
 90
       50
102
RTVSPost2010PropOp47
 70
     1
102
RTVSPost2010Prop48
 90
       50
102
RTVSPost2010PropOp48
 70
     1
102
RTVSPost2010Prop49
280
     0
102
RTVSPost2010PropOp49
 70
     1
102
RTVSPost2010Prop50
 90
       50
102
RTVSPost2010PropOp50
 70
     1
102
RTVSPost2010Prop51ColorIndex
 90
      256
102
RTVSPost2010Prop51ColorRGB
 90
-16777216
102
RTVSPost2010PropOp51
 70
     0
102
RTVSPost2010Prop52
140
1.0
102
RTVSPost2010PropOp52
 70
     0
102
RTVSPost2010Prop53
 90
        2
102
RTVSPost2010PropOp53
 70
     1
102
RTVSPost2010Prop54
  1
strokes_ogs.tif
102
RTVSPost2010PropOp54
 70
     1
102
RTVSPost2010Prop55
280
     0
102
RTVSPost2010PropOp55
 70
     1
102
RTVSPost2010Prop56
140
1.0
102
RTVSPost2010PropOp56
 70
     1
102
RTVSPost2010Prop57
140
1.0
102
RTVSPost2010PropOp57
 70
     1
  0
XRECORD
  5
194FC
102
{ACAD_REACTORS
330
194FB
102
}
330
194FB
100
AcDbXrecord
280
     1
102
RTVSPost2010Prop28
280
     0
102
RTVSPost2010PropOp28
 70
     1
102
RTVSPost2010Prop29
280
     1
102
RTVSPost2010PropOp29
 70
     1
102
RTVSPost2010Prop30
280
     1
102
RTVSPost2010PropOp30
 70
     1
102
RTVSPost2010Prop31
280
     0
102
RTVSPost2010PropOp31
 70
     1
102
RTVSPost2010Prop32
280
     0
102
RTVSPost2010PropOp32
 70
     1
102
RTVSPost2010Prop33
280
     0
102
RTVSPost2010PropOp33
 70
     1
102
RTVSPost2010Prop34
280
     0
102
RTVSPost2010PropOp34
 70
     1
102
RTVSPost2010Prop35
280
     0
102
RTVSPost2010PropOp35
 70
     1
102
RTVSPost2010Prop36
280
     0
102
RTVSPost2010PropOp36
 70
     1
102
RTVSPost2010Prop37
 90
       50
102
RTVSPost2010PropOp37
 70
     1
102
RTVSPost2010Prop38
140
0.0
102
RTVSPost2010PropOp38
 70
     1
102
RTVSPost2010Prop39
140
1.0
102
RTVSPost2010PropOp39
 70
     1
102
RTVSPost2010Prop40
 90
        0
102
RTVSPost2010PropOp40
 70
     1
102
RTVSPost2010Prop41ColorIndex
 90
       18
102
RTVSPost2010Prop41ColorRGB
 90
        0
102
RTVSPost2010PropOp41
 70
     1
102
RTVSPost2010Prop42
 90
       50
102
RTVSPost2010PropOp42
 70
     1
102
RTVSPost2010Prop43
 90
        3
102
RTVSPost2010PropOp43
 70
     1
102
RTVSPost2010Prop44ColorIndex
 90
        5
102
RTVSPost2010Prop44ColorRGB
 90
      255
102
RTVSPost2010PropOp44
 70
     1
102
RTVSPost2010Prop45
280
     0
102
RTVSPost2010PropOp45
 70
     1
102
RTVSPost2010Prop46
 90
       50
102
RTVSPost2010PropOp46
 70
     1
102
RTVSPost2010Prop47
 90
       50
102
RTVSPost2010PropOp47
 70
     1
102
RTVSPost2010Prop48
 90
       50
102
RTVSPost2010PropOp48
 70
     1
102
RTVSPost2010Prop49
280
     0
102
RTVSPost2010PropOp49
 70
     1
102
RTVSPost2010Prop50
 90
       50
102
RTVSPost2010PropOp50
 70
     1
102
RTVSPost2010Prop51ColorIndex
 90
      256
102
RTVSPost2010Prop51ColorRGB
 90
-16777216
102
RTVSPost2010PropOp51
 70
     0
102
RTVSPost2010Prop52
140
1.0
102
RTVSPost2010PropOp52
 70
     0
102
RTVSPost2010Prop53
 90
        2
102
RTVSPost2010PropOp53
 70
     1
102
RTVSPost2010Prop54
  1
strokes_ogs.tif
102
RTVSPost2010PropOp54
 70
     1
102
RTVSPost2010Prop55
280
     0
102
RTVSPost2010PropOp55
 70
     1
102
RTVSPost2010Prop56
140
1.0
102
RTVSPost2010PropOp56
 70
     1
102
RTVSPost2010Prop57
140
1.0
102
RTVSPost2010PropOp57
 70
     1
  0
XRECORD
  5
1950C
102
{ACAD_REACTORS
330
1950B
102
}
330
1950B
100
AcDbXrecord
280
     1
102
RTVSPost2010Prop28
280
     0
102
RTVSPost2010PropOp28
 70
     1
102
RTVSPost2010Prop29
280
     1
102
RTVSPost2010PropOp29
 70
     1
102
RTVSPost2010Prop30
280
     1
102
RTVSPost2010PropOp30
 70
     1
102
RTVSPost2010Prop31
280
     0
102
RTVSPost2010PropOp31
 70
     1
102
RTVSPost2010Prop32
280
     0
102
RTVSPost2010PropOp32
 70
     1
102
RTVSPost2010Prop33
280
     0
102
RTVSPost2010PropOp33
 70
     1
102
RTVSPost2010Prop34
280
     0
102
RTVSPost2010PropOp34
 70
     1
102
RTVSPost2010Prop35
280
     0
102
RTVSPost2010PropOp35
 70
     1
102
RTVSPost2010Prop36
280
     0
102
RTVSPost2010PropOp36
 70
     1
102
RTVSPost2010Prop37
 90
       50
102
RTVSPost2010PropOp37
 70
     1
102
RTVSPost2010Prop38
140
0.0
102
RTVSPost2010PropOp38
 70
     1
102
RTVSPost2010Prop39
140
1.0
102
RTVSPost2010PropOp39
 70
     1
102
RTVSPost2010Prop40
 90
        0
102
RTVSPost2010PropOp40
 70
     1
102
RTVSPost2010Prop41ColorIndex
 90
       18
102
RTVSPost2010Prop41ColorRGB
 90
        0
102
RTVSPost2010PropOp41
 70
     1
102
RTVSPost2010Prop42
 90
       50
102
RTVSPost2010PropOp42
 70
     1
102
RTVSPost2010Prop43
 90
        3
102
RTVSPost2010PropOp43
 70
     1
102
RTVSPost2010Prop44ColorIndex
 90
        5
102
RTVSPost2010Prop44ColorRGB
 90
      255
102
RTVSPost2010PropOp44
 70
     1
102
RTVSPost2010Prop45
280
     0
102
RTVSPost2010PropOp45
 70
     1
102
RTVSPost2010Prop46
 90
       50
102
RTVSPost2010PropOp46
 70
     1
102
RTVSPost2010Prop47
 90
       50
102
RTVSPost2010PropOp47
 70
     1
102
RTVSPost2010Prop48
 90
       50
102
RTVSPost2010PropOp48
 70
     1
102
RTVSPost2010Prop49
280
     0
102
RTVSPost2010PropOp49
 70
     1
102
RTVSPost2010Prop50
 90
       50
102
RTVSPost2010PropOp50
 70
     1
102
RTVSPost2010Prop51ColorIndex
 90
      256
102
RTVSPost2010Prop51ColorRGB
 90
-16777216
102
RTVSPost2010PropOp51
 70
     0
102
RTVSPost2010Prop52
140
1.0
102
RTVSPost2010PropOp52
 70
     0
102
RTVSPost2010Prop53
 90
        2
102
RTVSPost2010PropOp53
 70
     1
102
RTVSPost2010Prop54
  1
strokes_ogs.tif
102
RTVSPost2010PropOp54
 70
     1
102
RTVSPost2010Prop55
280
     0
102
RTVSPost2010PropOp55
 70
     1
102
RTVSPost2010Prop56
140
1.0
102
RTVSPost2010PropOp56
 70
     1
102
RTVSPost2010Prop57
140
1.0
102
RTVSPost2010PropOp57
 70
     1
  0
XRECORD
  5
19504
102
{ACAD_REACTORS
330
19503
102
}
330
19503
100
AcDbXrecord
280
     1
102
RTVSPost2010Prop28
280
     0
102
RTVSPost2010PropOp28
 70
     1
102
RTVSPost2010Prop29
280
     1
102
RTVSPost2010PropOp29
 70
     1
102
RTVSPost2010Prop30
280
     1
102
RTVSPost2010PropOp30
 70
     1
102
RTVSPost2010Prop31
280
     0
102
RTVSPost2010PropOp31
 70
     1
102
RTVSPost2010Prop32
280
     0
102
RTVSPost2010PropOp32
 70
     1
102
RTVSPost2010Prop33
280
     0
102
RTVSPost2010PropOp33
 70
     1
102
RTVSPost2010Prop34
280
     0
102
RTVSPost2010PropOp34
 70
     1
102
RTVSPost2010Prop35
280
     0
102
RTVSPost2010PropOp35
 70
     1
102
RTVSPost2010Prop36
280
     0
102
RTVSPost2010PropOp36
 70
     1
102
RTVSPost2010Prop37
 90
       50
102
RTVSPost2010PropOp37
 70
     1
102
RTVSPost2010Prop38
140
0.0
102
RTVSPost2010PropOp38
 70
     1
102
RTVSPost2010Prop39
140
1.0
102
RTVSPost2010PropOp39
 70
     1
102
RTVSPost2010Prop40
 90
        0
102
RTVSPost2010PropOp40
 70
     1
102
RTVSPost2010Prop41ColorIndex
 90
       18
102
RTVSPost2010Prop41ColorRGB
 90
        0
102
RTVSPost2010PropOp41
 70
     1
102
RTVSPost2010Prop42
 90
       50
102
RTVSPost2010PropOp42
 70
     1
102
RTVSPost2010Prop43
 90
        3
102
RTVSPost2010PropOp43
 70
     1
102
RTVSPost2010Prop44ColorIndex
 90
        5
102
RTVSPost2010Prop44ColorRGB
 90
      255
102
RTVSPost2010PropOp44
 70
     1
102
RTVSPost2010Prop45
280
     0
102
RTVSPost2010PropOp45
 70
     1
102
RTVSPost2010Prop46
 90
       50
102
RTVSPost2010PropOp46
 70
     1
102
RTVSPost2010Prop47
 90
       50
102
RTVSPost2010PropOp47
 70
     1
102
RTVSPost2010Prop48
 90
       50
102
RTVSPost2010PropOp48
 70
     1
102
RTVSPost2010Prop49
280
     0
102
RTVSPost2010PropOp49
 70
     1
102
RTVSPost2010Prop50
 90
       50
102
RTVSPost2010PropOp50
 70
     1
102
RTVSPost2010Prop51ColorIndex
 90
      256
102
RTVSPost2010Prop51ColorRGB
 90
-16777216
102
RTVSPost2010PropOp51
 70
     0
102
RTVSPost2010Prop52
140
1.0
102
RTVSPost2010PropOp52
 70
     0
102
RTVSPost2010Prop53
 90
        2
102
RTVSPost2010PropOp53
 70
     1
102
RTVSPost2010Prop54
  1
strokes_ogs.tif
102
RTVSPost2010PropOp54
 70
     1
102
RTVSPost2010Prop55
280
     0
102
RTVSPost2010PropOp55
 70
     1
102
RTVSPost2010Prop56
140
1.0
102
RTVSPost2010PropOp56
 70
     1
102
RTVSPost2010Prop57
140
1.0
102
RTVSPost2010PropOp57
 70
     1
  0
XRECORD
  5
194E8
102
{ACAD_REACTORS
330
194E7
102
}
330
194E7
100
AcDbXrecord
280
     1
102
RTVSPost2010Prop28
280
     0
102
RTVSPost2010PropOp28
 70
     1
102
RTVSPost2010Prop29
280
     1
102
RTVSPost2010PropOp29
 70
     1
102
RTVSPost2010Prop30
280
     1
102
RTVSPost2010PropOp30
 70
     1
102
RTVSPost2010Prop31
280
     0
102
RTVSPost2010PropOp31
 70
     1
102
RTVSPost2010Prop32
280
     0
102
RTVSPost2010PropOp32
 70
     1
102
RTVSPost2010Prop33
280
     0
102
RTVSPost2010PropOp33
 70
     1
102
RTVSPost2010Prop34
280
     0
102
RTVSPost2010PropOp34
 70
     1
102
RTVSPost2010Prop35
280
     0
102
RTVSPost2010PropOp35
 70
     1
102
RTVSPost2010Prop36
280
     0
102
RTVSPost2010PropOp36
 70
     1
102
RTVSPost2010Prop37
 90
       50
102
RTVSPost2010PropOp37
 70
     1
102
RTVSPost2010Prop38
140
0.0
102
RTVSPost2010PropOp38
 70
     1
102
RTVSPost2010Prop39
140
1.0
102
RTVSPost2010PropOp39
 70
     1
102
RTVSPost2010Prop40
 90
        0
102
RTVSPost2010PropOp40
 70
     1
102
RTVSPost2010Prop41ColorIndex
 90
       18
102
RTVSPost2010Prop41ColorRGB
 90
        0
102
RTVSPost2010PropOp41
 70
     1
102
RTVSPost2010Prop42
 90
       50
102
RTVSPost2010PropOp42
 70
     1
102
RTVSPost2010Prop43
 90
        3
102
RTVSPost2010PropOp43
 70
     1
102
RTVSPost2010Prop44ColorIndex
 90
        5
102
RTVSPost2010Prop44ColorRGB
 90
      255
102
RTVSPost2010PropOp44
 70
     1
102
RTVSPost2010Prop45
280
     0
102
RTVSPost2010PropOp45
 70
     1
102
RTVSPost2010Prop46
 90
       50
102
RTVSPost2010PropOp46
 70
     1
102
RTVSPost2010Prop47
 90
       50
102
RTVSPost2010PropOp47
 70
     1
102
RTVSPost2010Prop48
 90
       50
102
RTVSPost2010PropOp48
 70
     1
102
RTVSPost2010Prop49
280
     0
102
RTVSPost2010PropOp49
 70
     1
102
RTVSPost2010Prop50
 90
       50
102
RTVSPost2010PropOp50
 70
     1
102
RTVSPost2010Prop51ColorIndex
 90
      256
102
RTVSPost2010Prop51ColorRGB
 90
-16777216
102
RTVSPost2010PropOp51
 70
     0
102
RTVSPost2010Prop52
140
1.0
102
RTVSPost2010PropOp52
 70
     0
102
RTVSPost2010Prop53
 90
        2
102
RTVSPost2010PropOp53
 70
     1
102
RTVSPost2010Prop54
  1
strokes_ogs.tif
102
RTVSPost2010PropOp54
 70
     1
102
RTVSPost2010Prop55
280
     0
102
RTVSPost2010PropOp55
 70
     1
102
RTVSPost2010Prop56
140
1.0
102
RTVSPost2010PropOp56
 70
     1
102
RTVSPost2010Prop57
140
1.0
102
RTVSPost2010PropOp57
 70
     1
  0
XRECORD
  5
194EA
102
{ACAD_REACTORS
330
194E9
102
}
330
194E9
100
AcDbXrecord
280
     1
102
RTVSPost2010Prop28
280
     0
102
RTVSPost2010PropOp28
 70
     1
102
RTVSPost2010Prop29
280
     1
102
RTVSPost2010PropOp29
 70
     1
102
RTVSPost2010Prop30
280
     1
102
RTVSPost2010PropOp30
 70
     1
102
RTVSPost2010Prop31
280
     0
102
RTVSPost2010PropOp31
 70
     1
102
RTVSPost2010Prop32
280
     0
102
RTVSPost2010PropOp32
 70
     1
102
RTVSPost2010Prop33
280
     0
102
RTVSPost2010PropOp33
 70
     1
102
RTVSPost2010Prop34
280
     0
102
RTVSPost2010PropOp34
 70
     1
102
RTVSPost2010Prop35
280
     0
102
RTVSPost2010PropOp35
 70
     1
102
RTVSPost2010Prop36
280
     0
102
RTVSPost2010PropOp36
 70
     1
102
RTVSPost2010Prop37
 90
       50
102
RTVSPost2010PropOp37
 70
     1
102
RTVSPost2010Prop38
140
0.0
102
RTVSPost2010PropOp38
 70
     1
102
RTVSPost2010Prop39
140
1.0
102
RTVSPost2010PropOp39
 70
     1
102
RTVSPost2010Prop40
 90
        0
102
RTVSPost2010PropOp40
 70
     1
102
RTVSPost2010Prop41ColorIndex
 90
       18
102
RTVSPost2010Prop41ColorRGB
 90
        0
102
RTVSPost2010PropOp41
 70
     1
102
RTVSPost2010Prop42
 90
       50
102
RTVSPost2010PropOp42
 70
     1
102
RTVSPost2010Prop43
 90
        3
102
RTVSPost2010PropOp43
 70
     1
102
RTVSPost2010Prop44ColorIndex
 90
        5
102
RTVSPost2010Prop44ColorRGB
 90
      255
102
RTVSPost2010PropOp44
 70
     1
102
RTVSPost2010Prop45
280
     0
102
RTVSPost2010PropOp45
 70
     1
102
RTVSPost2010Prop46
 90
       50
102
RTVSPost2010PropOp46
 70
     1
102
RTVSPost2010Prop47
 90
       50
102
RTVSPost2010PropOp47
 70
     1
102
RTVSPost2010Prop48
 90
       50
102
RTVSPost2010PropOp48
 70
     1
102
RTVSPost2010Prop49
280
     0
102
RTVSPost2010PropOp49
 70
     1
102
RTVSPost2010Prop50
 90
       50
102
RTVSPost2010PropOp50
 70
     1
102
RTVSPost2010Prop51ColorIndex
 90
      256
102
RTVSPost2010Prop51ColorRGB
 90
-16777216
102
RTVSPost2010PropOp51
 70
     0
102
RTVSPost2010Prop52
140
1.0
102
RTVSPost2010PropOp52
 70
     0
102
RTVSPost2010Prop53
 90
        2
102
RTVSPost2010PropOp53
 70
     1
102
RTVSPost2010Prop54
  1
strokes_ogs.tif
102
RTVSPost2010PropOp54
 70
     1
102
RTVSPost2010Prop55
280
     0
102
RTVSPost2010PropOp55
 70
     1
102
RTVSPost2010Prop56
140
1.0
102
RTVSPost2010PropOp56
 70
     1
102
RTVSPost2010Prop57
140
1.0
102
RTVSPost2010PropOp57
 70
     1
  0
XRECORD
  5
194EC
102
{ACAD_REACTORS
330
194EB
102
}
330
194EB
100
AcDbXrecord
280
     1
102
RTVSPost2010Prop28
280
     0
102
RTVSPost2010PropOp28
 70
     1
102
RTVSPost2010Prop29
280
     1
102
RTVSPost2010PropOp29
 70
     1
102
RTVSPost2010Prop30
280
     1
102
RTVSPost2010PropOp30
 70
     1
102
RTVSPost2010Prop31
280
     0
102
RTVSPost2010PropOp31
 70
     1
102
RTVSPost2010Prop32
280
     0
102
RTVSPost2010PropOp32
 70
     1
102
RTVSPost2010Prop33
280
     0
102
RTVSPost2010PropOp33
 70
     1
102
RTVSPost2010Prop34
280
     0
102
RTVSPost2010PropOp34
 70
     1
102
RTVSPost2010Prop35
280
     0
102
RTVSPost2010PropOp35
 70
     1
102
RTVSPost2010Prop36
280
     0
102
RTVSPost2010PropOp36
 70
     1
102
RTVSPost2010Prop37
 90
       50
102
RTVSPost2010PropOp37
 70
     1
102
RTVSPost2010Prop38
140
0.0
102
RTVSPost2010PropOp38
 70
     1
102
RTVSPost2010Prop39
140
1.0
102
RTVSPost2010PropOp39
 70
     1
102
RTVSPost2010Prop40
 90
        0
102
RTVSPost2010PropOp40
 70
     1
102
RTVSPost2010Prop41ColorIndex
 90
       18
102
RTVSPost2010Prop41ColorRGB
 90
        0
102
RTVSPost2010PropOp41
 70
     1
102
RTVSPost2010Prop42
 90
       50
102
RTVSPost2010PropOp42
 70
     1
102
RTVSPost2010Prop43
 90
        3
102
RTVSPost2010PropOp43
 70
     1
102
RTVSPost2010Prop44ColorIndex
 90
        5
102
RTVSPost2010Prop44ColorRGB
 90
      255
102
RTVSPost2010PropOp44
 70
     1
102
RTVSPost2010Prop45
280
     0
102
RTVSPost2010PropOp45
 70
     1
102
RTVSPost2010Prop46
 90
       50
102
RTVSPost2010PropOp46
 70
     1
102
RTVSPost2010Prop47
 90
       50
102
RTVSPost2010PropOp47
 70
     1
102
RTVSPost2010Prop48
 90
       50
102
RTVSPost2010PropOp48
 70
     1
102
RTVSPost2010Prop49
280
     0
102
RTVSPost2010PropOp49
 70
     1
102
RTVSPost2010Prop50
 90
       50
102
RTVSPost2010PropOp50
 70
     1
102
RTVSPost2010Prop51ColorIndex
 90
      256
102
RTVSPost2010Prop51ColorRGB
 90
-16777216
102
RTVSPost2010PropOp51
 70
     0
102
RTVSPost2010Prop52
140
1.0
102
RTVSPost2010PropOp52
 70
     0
102
RTVSPost2010Prop53
 90
        2
102
RTVSPost2010PropOp53
 70
     1
102
RTVSPost2010Prop54
  1
strokes_ogs.tif
102
RTVSPost2010PropOp54
 70
     1
102
RTVSPost2010Prop55
280
     0
102
RTVSPost2010PropOp55
 70
     1
102
RTVSPost2010Prop56
140
1.0
102
RTVSPost2010PropOp56
 70
     1
102
RTVSPost2010Prop57
140
1.0
102
RTVSPost2010PropOp57
 70
     1
  0
XRECORD
  5
194EE
102
{ACAD_REACTORS
330
194ED
102
}
330
194ED
100
AcDbXrecord
280
     1
102
RTVSPost2010Prop28
280
     0
102
RTVSPost2010PropOp28
 70
     1
102
RTVSPost2010Prop29
280
     1
102
RTVSPost2010PropOp29
 70
     1
102
RTVSPost2010Prop30
280
     1
102
RTVSPost2010PropOp30
 70
     1
102
RTVSPost2010Prop31
280
     0
102
RTVSPost2010PropOp31
 70
     1
102
RTVSPost2010Prop32
280
     0
102
RTVSPost2010PropOp32
 70
     1
102
RTVSPost2010Prop33
280
     0
102
RTVSPost2010PropOp33
 70
     1
102
RTVSPost2010Prop34
280
     0
102
RTVSPost2010PropOp34
 70
     1
102
RTVSPost2010Prop35
280
     0
102
RTVSPost2010PropOp35
 70
     1
102
RTVSPost2010Prop36
280
     0
102
RTVSPost2010PropOp36
 70
     1
102
RTVSPost2010Prop37
 90
       50
102
RTVSPost2010PropOp37
 70
     1
102
RTVSPost2010Prop38
140
0.0
102
RTVSPost2010PropOp38
 70
     1
102
RTVSPost2010Prop39
140
1.0
102
RTVSPost2010PropOp39
 70
     1
102
RTVSPost2010Prop40
 90
        0
102
RTVSPost2010PropOp40
 70
     1
102
RTVSPost2010Prop41ColorIndex
 90
       18
102
RTVSPost2010Prop41ColorRGB
 90
        0
102
RTVSPost2010PropOp41
 70
     1
102
RTVSPost2010Prop42
 90
       50
102
RTVSPost2010PropOp42
 70
     1
102
RTVSPost2010Prop43
 90
        3
102
RTVSPost2010PropOp43
 70
     1
102
RTVSPost2010Prop44ColorIndex
 90
        5
102
RTVSPost2010Prop44ColorRGB
 90
      255
102
RTVSPost2010PropOp44
 70
     1
102
RTVSPost2010Prop45
280
     0
102
RTVSPost2010PropOp45
 70
     1
102
RTVSPost2010Prop46
 90
       50
102
RTVSPost2010PropOp46
 70
     1
102
RTVSPost2010Prop47
 90
       50
102
RTVSPost2010PropOp47
 70
     1
102
RTVSPost2010Prop48
 90
       50
102
RTVSPost2010PropOp48
 70
     1
102
RTVSPost2010Prop49
280
     0
102
RTVSPost2010PropOp49
 70
     1
102
RTVSPost2010Prop50
 90
       50
102
RTVSPost2010PropOp50
 70
     1
102
RTVSPost2010Prop51ColorIndex
 90
      256
102
RTVSPost2010Prop51ColorRGB
 90
-16777216
102
RTVSPost2010PropOp51
 70
     0
102
RTVSPost2010Prop52
140
1.0
102
RTVSPost2010PropOp52
 70
     0
102
RTVSPost2010Prop53
 90
        2
102
RTVSPost2010PropOp53
 70
     1
102
RTVSPost2010Prop54
  1
strokes_ogs.tif
102
RTVSPost2010PropOp54
 70
     1
102
RTVSPost2010Prop55
280
     0
102
RTVSPost2010PropOp55
 70
     1
102
RTVSPost2010Prop56
140
1.0
102
RTVSPost2010PropOp56
 70
     1
102
RTVSPost2010Prop57
140
1.0
102
RTVSPost2010PropOp57
 70
     1
  0
XRECORD
  5
19510
102
{ACAD_REACTORS
330
1950F
102
}
330
1950F
100
AcDbXrecord
280
     1
102
RTVSPost2010Prop28
280
     0
102
RTVSPost2010PropOp28
 70
     1
102
RTVSPost2010Prop29
280
     1
102
RTVSPost2010PropOp29
 70
     1
102
RTVSPost2010Prop30
280
     1
102
RTVSPost2010PropOp30
 70
     1
102
RTVSPost2010Prop31
280
     0
102
RTVSPost2010PropOp31
 70
     1
102
RTVSPost2010Prop32
280
     0
102
RTVSPost2010PropOp32
 70
     1
102
RTVSPost2010Prop33
280
     0
102
RTVSPost2010PropOp33
 70
     1
102
RTVSPost2010Prop34
280
     0
102
RTVSPost2010PropOp34
 70
     1
102
RTVSPost2010Prop35
280
     0
102
RTVSPost2010PropOp35
 70
     1
102
RTVSPost2010Prop36
280
     0
102
RTVSPost2010PropOp36
 70
     1
102
RTVSPost2010Prop37
 90
       50
102
RTVSPost2010PropOp37
 70
     1
102
RTVSPost2010Prop38
140
0.0
102
RTVSPost2010PropOp38
 70
     1
102
RTVSPost2010Prop39
140
1.0
102
RTVSPost2010PropOp39
 70
     1
102
RTVSPost2010Prop40
 90
        0
102
RTVSPost2010PropOp40
 70
     1
102
RTVSPost2010Prop41ColorIndex
 90
       18
102
RTVSPost2010Prop41ColorRGB
 90
        0
102
RTVSPost2010PropOp41
 70
     1
102
RTVSPost2010Prop42
 90
       50
102
RTVSPost2010PropOp42
 70
     1
102
RTVSPost2010Prop43
 90
        3
102
RTVSPost2010PropOp43
 70
     1
102
RTVSPost2010Prop44ColorIndex
 90
        5
102
RTVSPost2010Prop44ColorRGB
 90
      255
102
RTVSPost2010PropOp44
 70
     1
102
RTVSPost2010Prop45
280
     0
102
RTVSPost2010PropOp45
 70
     1
102
RTVSPost2010Prop46
 90
       50
102
RTVSPost2010PropOp46
 70
     1
102
RTVSPost2010Prop47
 90
       50
102
RTVSPost2010PropOp47
 70
     1
102
RTVSPost2010Prop48
 90
       50
102
RTVSPost2010PropOp48
 70
     1
102
RTVSPost2010Prop49
280
     0
102
RTVSPost2010PropOp49
 70
     1
102
RTVSPost2010Prop50
 90
       50
102
RTVSPost2010PropOp50
 70
     1
102
RTVSPost2010Prop51ColorIndex
 90
      256
102
RTVSPost2010Prop51ColorRGB
 90
-16777216
102
RTVSPost2010PropOp51
 70
     0
102
RTVSPost2010Prop52
140
1.0
102
RTVSPost2010PropOp52
 70
     0
102
RTVSPost2010Prop53
 90
        2
102
RTVSPost2010PropOp53
 70
     1
102
RTVSPost2010Prop54
  1
strokes_ogs.tif
102
RTVSPost2010PropOp54
 70
     1
102
RTVSPost2010Prop55
280
     0
102
RTVSPost2010PropOp55
 70
     1
102
RTVSPost2010Prop56
140
1.0
102
RTVSPost2010PropOp56
 70
     1
102
RTVSPost2010Prop57
140
1.0
102
RTVSPost2010PropOp57
 70
     1
  0
XRECORD
  5
19508
102
{ACAD_REACTORS
330
19507
102
}
330
19507
100
AcDbXrecord
280
     1
102
RTVSPost2010Prop28
280
     0
102
RTVSPost2010PropOp28
 70
     1
102
RTVSPost2010Prop29
280
     1
102
RTVSPost2010PropOp29
 70
     1
102
RTVSPost2010Prop30
280
     1
102
RTVSPost2010PropOp30
 70
     1
102
RTVSPost2010Prop31
280
     0
102
RTVSPost2010PropOp31
 70
     1
102
RTVSPost2010Prop32
280
     0
102
RTVSPost2010PropOp32
 70
     1
102
RTVSPost2010Prop33
280
     0
102
RTVSPost2010PropOp33
 70
     1
102
RTVSPost2010Prop34
280
     0
102
RTVSPost2010PropOp34
 70
     1
102
RTVSPost2010Prop35
280
     0
102
RTVSPost2010PropOp35
 70
     1
102
RTVSPost2010Prop36
280
     0
102
RTVSPost2010PropOp36
 70
     1
102
RTVSPost2010Prop37
 90
       50
102
RTVSPost2010PropOp37
 70
     1
102
RTVSPost2010Prop38
140
0.0
102
RTVSPost2010PropOp38
 70
     1
102
RTVSPost2010Prop39
140
1.0
102
RTVSPost2010PropOp39
 70
     1
102
RTVSPost2010Prop40
 90
        0
102
RTVSPost2010PropOp40
 70
     1
102
RTVSPost2010Prop41ColorIndex
 90
       18
102
RTVSPost2010Prop41ColorRGB
 90
        0
102
RTVSPost2010PropOp41
 70
     1
102
RTVSPost2010Prop42
 90
       50
102
RTVSPost2010PropOp42
 70
     1
102
RTVSPost2010Prop43
 90
        3
102
RTVSPost2010PropOp43
 70
     1
102
RTVSPost2010Prop44ColorIndex
 90
        5
102
RTVSPost2010Prop44ColorRGB
 90
      255
102
RTVSPost2010PropOp44
 70
     1
102
RTVSPost2010Prop45
280
     0
102
RTVSPost2010PropOp45
 70
     1
102
RTVSPost2010Prop46
 90
       50
102
RTVSPost2010PropOp46
 70
     1
102
RTVSPost2010Prop47
 90
       50
102
RTVSPost2010PropOp47
 70
     1
102
RTVSPost2010Prop48
 90
       50
102
RTVSPost2010PropOp48
 70
     1
102
RTVSPost2010Prop49
280
     0
102
RTVSPost2010PropOp49
 70
     1
102
RTVSPost2010Prop50
 90
       50
102
RTVSPost2010PropOp50
 70
     1
102
RTVSPost2010Prop51ColorIndex
 90
      256
102
RTVSPost2010Prop51ColorRGB
 90
-16777216
102
RTVSPost2010PropOp51
 70
     0
102
RTVSPost2010Prop52
140
1.0
102
RTVSPost2010PropOp52
 70
     0
102
RTVSPost2010Prop53
 90
        2
102
RTVSPost2010PropOp53
 70
     1
102
RTVSPost2010Prop54
  1
strokes_ogs.tif
102
RTVSPost2010PropOp54
 70
     1
102
RTVSPost2010Prop55
280
     0
102
RTVSPost2010PropOp55
 70
     1
102
RTVSPost2010Prop56
140
1.0
102
RTVSPost2010PropOp56
 70
     1
102
RTVSPost2010Prop57
140
1.0
102
RTVSPost2010PropOp57
 70
     1
  0
XRECORD
  5
19502
102
{ACAD_REACTORS
330
19501
102
}
330
19501
100
AcDbXrecord
280
     1
102
RTVSPost2010Prop28
280
     0
102
RTVSPost2010PropOp28
 70
     1
102
RTVSPost2010Prop29
280
     1
102
RTVSPost2010PropOp29
 70
     1
102
RTVSPost2010Prop30
280
     1
102
RTVSPost2010PropOp30
 70
     1
102
RTVSPost2010Prop31
280
     0
102
RTVSPost2010PropOp31
 70
     1
102
RTVSPost2010Prop32
280
     0
102
RTVSPost2010PropOp32
 70
     1
102
RTVSPost2010Prop33
280
     0
102
RTVSPost2010PropOp33
 70
     1
102
RTVSPost2010Prop34
280
     0
102
RTVSPost2010PropOp34
 70
     1
102
RTVSPost2010Prop35
280
     0
102
RTVSPost2010PropOp35
 70
     1
102
RTVSPost2010Prop36
280
     0
102
RTVSPost2010PropOp36
 70
     1
102
RTVSPost2010Prop37
 90
       50
102
RTVSPost2010PropOp37
 70
     1
102
RTVSPost2010Prop38
140
0.0
102
RTVSPost2010PropOp38
 70
     1
102
RTVSPost2010Prop39
140
1.0
102
RTVSPost2010PropOp39
 70
     1
102
RTVSPost2010Prop40
 90
        0
102
RTVSPost2010PropOp40
 70
     1
102
RTVSPost2010Prop41ColorIndex
 90
       18
102
RTVSPost2010Prop41ColorRGB
 90
        0
102
RTVSPost2010PropOp41
 70
     1
102
RTVSPost2010Prop42
 90
       50
102
RTVSPost2010PropOp42
 70
     1
102
RTVSPost2010Prop43
 90
        3
102
RTVSPost2010PropOp43
 70
     1
102
RTVSPost2010Prop44ColorIndex
 90
        5
102
RTVSPost2010Prop44ColorRGB
 90
      255
102
RTVSPost2010PropOp44
 70
     1
102
RTVSPost2010Prop45
280
     0
102
RTVSPost2010PropOp45
 70
     1
102
RTVSPost2010Prop46
 90
       50
102
RTVSPost2010PropOp46
 70
     1
102
RTVSPost2010Prop47
 90
       50
102
RTVSPost2010PropOp47
 70
     1
102
RTVSPost2010Prop48
 90
       50
102
RTVSPost2010PropOp48
 70
     1
102
RTVSPost2010Prop49
280
     0
102
RTVSPost2010PropOp49
 70
     1
102
RTVSPost2010Prop50
 90
       50
102
RTVSPost2010PropOp50
 70
     1
102
RTVSPost2010Prop51ColorIndex
 90
      256
102
RTVSPost2010Prop51ColorRGB
 90
-16777216
102
RTVSPost2010PropOp51
 70
     0
102
RTVSPost2010Prop52
140
1.0
102
RTVSPost2010PropOp52
 70
     0
102
RTVSPost2010Prop53
 90
        2
102
RTVSPost2010PropOp53
 70
     1
102
RTVSPost2010Prop54
  1
strokes_ogs.tif
102
RTVSPost2010PropOp54
 70
     1
102
RTVSPost2010Prop55
280
     0
102
RTVSPost2010PropOp55
 70
     1
102
RTVSPost2010Prop56
140
1.0
102
RTVSPost2010PropOp56
 70
     1
102
RTVSPost2010Prop57
140
1.0
102
RTVSPost2010PropOp57
 70
     1
  0
XRECORD
  5
1950A
102
{ACAD_REACTORS
330
19509
102
}
330
19509
100
AcDbXrecord
280
     1
102
RTVSPost2010Prop28
280
     0
102
RTVSPost2010PropOp28
 70
     1
102
RTVSPost2010Prop29
280
     1
102
RTVSPost2010PropOp29
 70
     1
102
RTVSPost2010Prop30
280
     1
102
RTVSPost2010PropOp30
 70
     1
102
RTVSPost2010Prop31
280
     0
102
RTVSPost2010PropOp31
 70
     1
102
RTVSPost2010Prop32
280
     0
102
RTVSPost2010PropOp32
 70
     1
102
RTVSPost2010Prop33
280
     0
102
RTVSPost2010PropOp33
 70
     1
102
RTVSPost2010Prop34
280
     0
102
RTVSPost2010PropOp34
 70
     1
102
RTVSPost2010Prop35
280
     0
102
RTVSPost2010PropOp35
 70
     1
102
RTVSPost2010Prop36
280
     0
102
RTVSPost2010PropOp36
 70
     1
102
RTVSPost2010Prop37
 90
       50
102
RTVSPost2010PropOp37
 70
     1
102
RTVSPost2010Prop38
140
0.0
102
RTVSPost2010PropOp38
 70
     1
102
RTVSPost2010Prop39
140
1.0
102
RTVSPost2010PropOp39
 70
     1
102
RTVSPost2010Prop40
 90
        0
102
RTVSPost2010PropOp40
 70
     1
102
RTVSPost2010Prop41ColorIndex
 90
       18
102
RTVSPost2010Prop41ColorRGB
 90
        0
102
RTVSPost2010PropOp41
 70
     1
102
RTVSPost2010Prop42
 90
       50
102
RTVSPost2010PropOp42
 70
     1
102
RTVSPost2010Prop43
 90
        3
102
RTVSPost2010PropOp43
 70
     1
102
RTVSPost2010Prop44ColorIndex
 90
        5
102
RTVSPost2010Prop44ColorRGB
 90
      255
102
RTVSPost2010PropOp44
 70
     1
102
RTVSPost2010Prop45
280
     0
102
RTVSPost2010PropOp45
 70
     1
102
RTVSPost2010Prop46
 90
       50
102
RTVSPost2010PropOp46
 70
     1
102
RTVSPost2010Prop47
 90
       50
102
RTVSPost2010PropOp47
 70
     1
102
RTVSPost2010Prop48
 90
       50
102
RTVSPost2010PropOp48
 70
     1
102
RTVSPost2010Prop49
280
     0
102
RTVSPost2010PropOp49
 70
     1
102
RTVSPost2010Prop50
 90
       50
102
RTVSPost2010PropOp50
 70
     1
102
RTVSPost2010Prop51ColorIndex
 90
      256
102
RTVSPost2010Prop51ColorRGB
 90
-16777216
102
RTVSPost2010PropOp51
 70
     0
102
RTVSPost2010Prop52
140
1.0
102
RTVSPost2010PropOp52
 70
     0
102
RTVSPost2010Prop53
 90
        2
102
RTVSPost2010PropOp53
 70
     1
102
RTVSPost2010Prop54
  1
strokes_ogs.tif
102
RTVSPost2010PropOp54
 70
     1
102
RTVSPost2010Prop55
280
     0
102
RTVSPost2010PropOp55
 70
     1
102
RTVSPost2010Prop56
140
1.0
102
RTVSPost2010PropOp56
 70
     1
102
RTVSPost2010Prop57
140
1.0
102
RTVSPost2010PropOp57
 70
     1
  0
XRECORD
  5
194FA
102
{ACAD_REACTORS
330
194F9
102
}
330
194F9
100
AcDbXrecord
280
     1
102
RTVSPost2010Prop28
280
     0
102
RTVSPost2010PropOp28
 70
     1
102
RTVSPost2010Prop29
280
     1
102
RTVSPost2010PropOp29
 70
     1
102
RTVSPost2010Prop30
280
     1
102
RTVSPost2010PropOp30
 70
     1
102
RTVSPost2010Prop31
280
     0
102
RTVSPost2010PropOp31
 70
     1
102
RTVSPost2010Prop32
280
     0
102
RTVSPost2010PropOp32
 70
     1
102
RTVSPost2010Prop33
280
     0
102
RTVSPost2010PropOp33
 70
     1
102
RTVSPost2010Prop34
280
     0
102
RTVSPost2010PropOp34
 70
     1
102
RTVSPost2010Prop35
280
     0
102
RTVSPost2010PropOp35
 70
     1
102
RTVSPost2010Prop36
280
     0
102
RTVSPost2010PropOp36
 70
     1
102
RTVSPost2010Prop37
 90
       50
102
RTVSPost2010PropOp37
 70
     1
102
RTVSPost2010Prop38
140
0.0
102
RTVSPost2010PropOp38
 70
     1
102
RTVSPost2010Prop39
140
1.0
102
RTVSPost2010PropOp39
 70
     1
102
RTVSPost2010Prop40
 90
        0
102
RTVSPost2010PropOp40
 70
     1
102
RTVSPost2010Prop41ColorIndex
 90
       18
102
RTVSPost2010Prop41ColorRGB
 90
        0
102
RTVSPost2010PropOp41
 70
     1
102
RTVSPost2010Prop42
 90
       50
102
RTVSPost2010PropOp42
 70
     1
102
RTVSPost2010Prop43
 90
        3
102
RTVSPost2010PropOp43
 70
     1
102
RTVSPost2010Prop44ColorIndex
 90
        5
102
RTVSPost2010Prop44ColorRGB
 90
      255
102
RTVSPost2010PropOp44
 70
     1
102
RTVSPost2010Prop45
280
     0
102
RTVSPost2010PropOp45
 70
     1
102
RTVSPost2010Prop46
 90
       50
102
RTVSPost2010PropOp46
 70
     1
102
RTVSPost2010Prop47
 90
       50
102
RTVSPost2010PropOp47
 70
     1
102
RTVSPost2010Prop48
 90
       50
102
RTVSPost2010PropOp48
 70
     1
102
RTVSPost2010Prop49
280
     0
102
RTVSPost2010PropOp49
 70
     1
102
RTVSPost2010Prop50
 90
       50
102
RTVSPost2010PropOp50
 70
     1
102
RTVSPost2010Prop51ColorIndex
 90
      256
102
RTVSPost2010Prop51ColorRGB
 90
-16777216
102
RTVSPost2010PropOp51
 70
     0
102
RTVSPost2010Prop52
140
1.0
102
RTVSPost2010PropOp52
 70
     0
102
RTVSPost2010Prop53
 90
        2
102
RTVSPost2010PropOp53
 70
     1
102
RTVSPost2010Prop54
  1
strokes_ogs.tif
102
RTVSPost2010PropOp54
 70
     1
102
RTVSPost2010Prop55
280
     0
102
RTVSPost2010PropOp55
 70
     1
102
RTVSPost2010Prop56
140
1.0
102
RTVSPost2010PropOp56
 70
     1
102
RTVSPost2010Prop57
140
1.0
102
RTVSPost2010PropOp57
 70
     1
  0
XRECORD
  5
1951A
102
{ACAD_REACTORS
330
19519
102
}
330
19519
100
AcDbXrecord
280
     1
102
RTVSPost2010Prop28
280
     0
102
RTVSPost2010PropOp28
 70
     1
102
RTVSPost2010Prop29
280
     1
102
RTVSPost2010PropOp29
 70
     1
102
RTVSPost2010Prop30
280
     1
102
RTVSPost2010PropOp30
 70
     1
102
RTVSPost2010Prop31
280
     0
102
RTVSPost2010PropOp31
 70
     1
102
RTVSPost2010Prop32
280
     0
102
RTVSPost2010PropOp32
 70
     1
102
RTVSPost2010Prop33
280
     0
102
RTVSPost2010PropOp33
 70
     1
102
RTVSPost2010Prop34
280
     0
102
RTVSPost2010PropOp34
 70
     1
102
RTVSPost2010Prop35
280
     0
102
RTVSPost2010PropOp35
 70
     1
102
RTVSPost2010Prop36
280
     0
102
RTVSPost2010PropOp36
 70
     1
102
RTVSPost2010Prop37
 90
       50
102
RTVSPost2010PropOp37
 70
     1
102
RTVSPost2010Prop38
140
0.0
102
RTVSPost2010PropOp38
 70
     1
102
RTVSPost2010Prop39
140
1.0
102
RTVSPost2010PropOp39
 70
     1
102
RTVSPost2010Prop40
 90
        0
102
RTVSPost2010PropOp40
 70
     1
102
RTVSPost2010Prop41ColorIndex
 90
       18
102
RTVSPost2010Prop41ColorRGB
 90
        0
102
RTVSPost2010PropOp41
 70
     1
102
RTVSPost2010Prop42
 90
       50
102
RTVSPost2010PropOp42
 70
     1
102
RTVSPost2010Prop43
 90
        3
102
RTVSPost2010PropOp43
 70
     1
102
RTVSPost2010Prop44ColorIndex
 90
        5
102
RTVSPost2010Prop44ColorRGB
 90
      255
102
RTVSPost2010PropOp44
 70
     1
102
RTVSPost2010Prop45
280
     0
102
RTVSPost2010PropOp45
 70
     1
102
RTVSPost2010Prop46
 90
       50
102
RTVSPost2010PropOp46
 70
     1
102
RTVSPost2010Prop47
 90
       50
102
RTVSPost2010PropOp47
 70
     1
102
RTVSPost2010Prop48
 90
       50
102
RTVSPost2010PropOp48
 70
     1
102
RTVSPost2010Prop49
280
     0
102
RTVSPost2010PropOp49
 70
     1
102
RTVSPost2010Prop50
 90
       50
102
RTVSPost2010PropOp50
 70
     1
102
RTVSPost2010Prop51ColorIndex
 90
      256
102
RTVSPost2010Prop51ColorRGB
 90
-16777216
102
RTVSPost2010PropOp51
 70
     0
102
RTVSPost2010Prop52
140
1.0
102
RTVSPost2010PropOp52
 70
     0
102
RTVSPost2010Prop53
 90
        2
102
RTVSPost2010PropOp53
 70
     1
102
RTVSPost2010Prop54
  1
strokes_ogs.tif
102
RTVSPost2010PropOp54
 70
     1
102
RTVSPost2010Prop55
280
     0
102
RTVSPost2010PropOp55
 70
     1
102
RTVSPost2010Prop56
140
1.0
102
RTVSPost2010PropOp56
 70
     1
102
RTVSPost2010Prop57
140
1.0
102
RTVSPost2010PropOp57
 70
     1
  0
XRECORD
  5
19518
102
{ACAD_REACTORS
330
19517
102
}
330
19517
100
AcDbXrecord
280
     1
102
RTVSPost2010Prop28
280
     0
102
RTVSPost2010PropOp28
 70
     1
102
RTVSPost2010Prop29
280
     1
102
RTVSPost2010PropOp29
 70
     1
102
RTVSPost2010Prop30
280
     1
102
RTVSPost2010PropOp30
 70
     1
102
RTVSPost2010Prop31
280
     0
102
RTVSPost2010PropOp31
 70
     1
102
RTVSPost2010Prop32
280
     0
102
RTVSPost2010PropOp32
 70
     1
102
RTVSPost2010Prop33
280
     0
102
RTVSPost2010PropOp33
 70
     1
102
RTVSPost2010Prop34
280
     0
102
RTVSPost2010PropOp34
 70
     1
102
RTVSPost2010Prop35
280
     0
102
RTVSPost2010PropOp35
 70
     1
102
RTVSPost2010Prop36
280
     0
102
RTVSPost2010PropOp36
 70
     1
102
RTVSPost2010Prop37
 90
       50
102
RTVSPost2010PropOp37
 70
     1
102
RTVSPost2010Prop38
140
0.0
102
RTVSPost2010PropOp38
 70
     1
102
RTVSPost2010Prop39
140
1.0
102
RTVSPost2010PropOp39
 70
     1
102
RTVSPost2010Prop40
 90
        0
102
RTVSPost2010PropOp40
 70
     1
102
RTVSPost2010Prop41ColorIndex
 90
       18
102
RTVSPost2010Prop41ColorRGB
 90
        0
102
RTVSPost2010PropOp41
 70
     1
102
RTVSPost2010Prop42
 90
       50
102
RTVSPost2010PropOp42
 70
     1
102
RTVSPost2010Prop43
 90
        3
102
RTVSPost2010PropOp43
 70
     1
102
RTVSPost2010Prop44ColorIndex
 90
        5
102
RTVSPost2010Prop44ColorRGB
 90
      255
102
RTVSPost2010PropOp44
 70
     1
102
RTVSPost2010Prop45
280
     0
102
RTVSPost2010PropOp45
 70
     1
102
RTVSPost2010Prop46
 90
       50
102
RTVSPost2010PropOp46
 70
     1
102
RTVSPost2010Prop47
 90
       50
102
RTVSPost2010PropOp47
 70
     1
102
RTVSPost2010Prop48
 90
       50
102
RTVSPost2010PropOp48
 70
     1
102
RTVSPost2010Prop49
280
     0
102
RTVSPost2010PropOp49
 70
     1
102
RTVSPost2010Prop50
 90
       50
102
RTVSPost2010PropOp50
 70
     1
102
RTVSPost2010Prop51ColorIndex
 90
      256
102
RTVSPost2010Prop51ColorRGB
 90
-16777216
102
RTVSPost2010PropOp51
 70
     0
102
RTVSPost2010Prop52
140
1.0
102
RTVSPost2010PropOp52
 70
     0
102
RTVSPost2010Prop53
 90
        2
102
RTVSPost2010PropOp53
 70
     1
102
RTVSPost2010Prop54
  1
strokes_ogs.tif
102
RTVSPost2010PropOp54
 70
     1
102
RTVSPost2010Prop55
280
     0
102
RTVSPost2010PropOp55
 70
     1
102
RTVSPost2010Prop56
140
1.0
102
RTVSPost2010PropOp56
 70
     1
102
RTVSPost2010Prop57
140
1.0
102
RTVSPost2010PropOp57
 70
     1
  0
XRECORD
  5
19512
102
{ACAD_REACTORS
330
19511
102
}
330
19511
100
AcDbXrecord
280
     1
102
RTVSPost2010Prop28
280
     0
102
RTVSPost2010PropOp28
 70
     1
102
RTVSPost2010Prop29
280
     1
102
RTVSPost2010PropOp29
 70
     1
102
RTVSPost2010Prop30
280
     1
102
RTVSPost2010PropOp30
 70
     1
102
RTVSPost2010Prop31
280
     0
102
RTVSPost2010PropOp31
 70
     1
102
RTVSPost2010Prop32
280
     0
102
RTVSPost2010PropOp32
 70
     1
102
RTVSPost2010Prop33
280
     0
102
RTVSPost2010PropOp33
 70
     1
102
RTVSPost2010Prop34
280
     0
102
RTVSPost2010PropOp34
 70
     1
102
RTVSPost2010Prop35
280
     0
102
RTVSPost2010PropOp35
 70
     1
102
RTVSPost2010Prop36
280
     0
102
RTVSPost2010PropOp36
 70
     1
102
RTVSPost2010Prop37
 90
       50
102
RTVSPost2010PropOp37
 70
     1
102
RTVSPost2010Prop38
140
0.0
102
RTVSPost2010PropOp38
 70
     1
102
RTVSPost2010Prop39
140
1.0
102
RTVSPost2010PropOp39
 70
     1
102
RTVSPost2010Prop40
 90
        0
102
RTVSPost2010PropOp40
 70
     1
102
RTVSPost2010Prop41ColorIndex
 90
       18
102
RTVSPost2010Prop41ColorRGB
 90
        0
102
RTVSPost2010PropOp41
 70
     1
102
RTVSPost2010Prop42
 90
       50
102
RTVSPost2010PropOp42
 70
     1
102
RTVSPost2010Prop43
 90
        3
102
RTVSPost2010PropOp43
 70
     1
102
RTVSPost2010Prop44ColorIndex
 90
        5
102
RTVSPost2010Prop44ColorRGB
 90
      255
102
RTVSPost2010PropOp44
 70
     1
102
RTVSPost2010Prop45
280
     0
102
RTVSPost2010PropOp45
 70
     1
102
RTVSPost2010Prop46
 90
       50
102
RTVSPost2010PropOp46
 70
     1
102
RTVSPost2010Prop47
 90
       50
102
RTVSPost2010PropOp47
 70
     1
102
RTVSPost2010Prop48
 90
       50
102
RTVSPost2010PropOp48
 70
     1
102
RTVSPost2010Prop49
280
     0
102
RTVSPost2010PropOp49
 70
     1
102
RTVSPost2010Prop50
 90
       50
102
RTVSPost2010PropOp50
 70
     1
102
RTVSPost2010Prop51ColorIndex
 90
      256
102
RTVSPost2010Prop51ColorRGB
 90
-16777216
102
RTVSPost2010PropOp51
 70
     0
102
RTVSPost2010Prop52
140
1.0
102
RTVSPost2010PropOp52
 70
     0
102
RTVSPost2010Prop53
 90
        2
102
RTVSPost2010PropOp53
 70
     1
102
RTVSPost2010Prop54
  1
strokes_ogs.tif
102
RTVSPost2010PropOp54
 70
     1
102
RTVSPost2010Prop55
280
     0
102
RTVSPost2010PropOp55
 70
     1
102
RTVSPost2010Prop56
140
1.0
102
RTVSPost2010PropOp56
 70
     1
102
RTVSPost2010Prop57
140
1.0
102
RTVSPost2010PropOp57
 70
     1
  0
XRECORD
  5
19514
102
{ACAD_REACTORS
330
19513
102
}
330
19513
100
AcDbXrecord
280
     1
102
RTVSPost2010Prop28
280
     0
102
RTVSPost2010PropOp28
 70
     1
102
RTVSPost2010Prop29
280
     1
102
RTVSPost2010PropOp29
 70
     1
102
RTVSPost2010Prop30
280
     1
102
RTVSPost2010PropOp30
 70
     1
102
RTVSPost2010Prop31
280
     0
102
RTVSPost2010PropOp31
 70
     1
102
RTVSPost2010Prop32
280
     0
102
RTVSPost2010PropOp32
 70
     1
102
RTVSPost2010Prop33
280
     0
102
RTVSPost2010PropOp33
 70
     1
102
RTVSPost2010Prop34
280
     0
102
RTVSPost2010PropOp34
 70
     1
102
RTVSPost2010Prop35
280
     0
102
RTVSPost2010PropOp35
 70
     1
102
RTVSPost2010Prop36
280
     0
102
RTVSPost2010PropOp36
 70
     1
102
RTVSPost2010Prop37
 90
       50
102
RTVSPost2010PropOp37
 70
     1
102
RTVSPost2010Prop38
140
0.0
102
RTVSPost2010PropOp38
 70
     1
102
RTVSPost2010Prop39
140
1.0
102
RTVSPost2010PropOp39
 70
     1
102
RTVSPost2010Prop40
 90
        0
102
RTVSPost2010PropOp40
 70
     1
102
RTVSPost2010Prop41ColorIndex
 90
       18
102
RTVSPost2010Prop41ColorRGB
 90
        0
102
RTVSPost2010PropOp41
 70
     1
102
RTVSPost2010Prop42
 90
       50
102
RTVSPost2010PropOp42
 70
     1
102
RTVSPost2010Prop43
 90
        3
102
RTVSPost2010PropOp43
 70
     1
102
RTVSPost2010Prop44ColorIndex
 90
        5
102
RTVSPost2010Prop44ColorRGB
 90
      255
102
RTVSPost2010PropOp44
 70
     1
102
RTVSPost2010Prop45
280
     0
102
RTVSPost2010PropOp45
 70
     1
102
RTVSPost2010Prop46
 90
       50
102
RTVSPost2010PropOp46
 70
     1
102
RTVSPost2010Prop47
 90
       50
102
RTVSPost2010PropOp47
 70
     1
102
RTVSPost2010Prop48
 90
       50
102
RTVSPost2010PropOp48
 70
     1
102
RTVSPost2010Prop49
280
     0
102
RTVSPost2010PropOp49
 70
     1
102
RTVSPost2010Prop50
 90
       50
102
RTVSPost2010PropOp50
 70
     1
102
RTVSPost2010Prop51ColorIndex
 90
      256
102
RTVSPost2010Prop51ColorRGB
 90
-16777216
102
RTVSPost2010PropOp51
 70
     0
102
RTVSPost2010Prop52
140
1.0
102
RTVSPost2010PropOp52
 70
     0
102
RTVSPost2010Prop53
 90
        2
102
RTVSPost2010PropOp53
 70
     1
102
RTVSPost2010Prop54
  1
strokes_ogs.tif
102
RTVSPost2010PropOp54
 70
     1
102
RTVSPost2010Prop55
280
     0
102
RTVSPost2010PropOp55
 70
     1
102
RTVSPost2010Prop56
140
1.0
102
RTVSPost2010PropOp56
 70
     1
102
RTVSPost2010Prop57
140
1.0
102
RTVSPost2010PropOp57
 70
     1
  0
XRECORD
  5
19500
102
{ACAD_REACTORS
330
194FF
102
}
330
194FF
100
AcDbXrecord
280
     1
102
RTVSPost2010Prop28
280
     0
102
RTVSPost2010PropOp28
 70
     1
102
RTVSPost2010Prop29
280
     1
102
RTVSPost2010PropOp29
 70
     1
102
RTVSPost2010Prop30
280
     1
102
RTVSPost2010PropOp30
 70
     1
102
RTVSPost2010Prop31
280
     0
102
RTVSPost2010PropOp31
 70
     1
102
RTVSPost2010Prop32
280
     0
102
RTVSPost2010PropOp32
 70
     1
102
RTVSPost2010Prop33
280
     0
102
RTVSPost2010PropOp33
 70
     1
102
RTVSPost2010Prop34
280
     0
102
RTVSPost2010PropOp34
 70
     1
102
RTVSPost2010Prop35
280
     0
102
RTVSPost2010PropOp35
 70
     1
102
RTVSPost2010Prop36
280
     0
102
RTVSPost2010PropOp36
 70
     1
102
RTVSPost2010Prop37
 90
       50
102
RTVSPost2010PropOp37
 70
     1
102
RTVSPost2010Prop38
140
0.0
102
RTVSPost2010PropOp38
 70
     1
102
RTVSPost2010Prop39
140
1.0
102
RTVSPost2010PropOp39
 70
     1
102
RTVSPost2010Prop40
 90
        0
102
RTVSPost2010PropOp40
 70
     1
102
RTVSPost2010Prop41ColorIndex
 90
       18
102
RTVSPost2010Prop41ColorRGB
 90
        0
102
RTVSPost2010PropOp41
 70
     1
102
RTVSPost2010Prop42
 90
       50
102
RTVSPost2010PropOp42
 70
     1
102
RTVSPost2010Prop43
 90
        3
102
RTVSPost2010PropOp43
 70
     1
102
RTVSPost2010Prop44ColorIndex
 90
        5
102
RTVSPost2010Prop44ColorRGB
 90
      255
102
RTVSPost2010PropOp44
 70
     1
102
RTVSPost2010Prop45
280
     0
102
RTVSPost2010PropOp45
 70
     1
102
RTVSPost2010Prop46
 90
       50
102
RTVSPost2010PropOp46
 70
     1
102
RTVSPost2010Prop47
 90
       50
102
RTVSPost2010PropOp47
 70
     1
102
RTVSPost2010Prop48
 90
       50
102
RTVSPost2010PropOp48
 70
     1
102
RTVSPost2010Prop49
280
     0
102
RTVSPost2010PropOp49
 70
     1
102
RTVSPost2010Prop50
 90
       50
102
RTVSPost2010PropOp50
 70
     1
102
RTVSPost2010Prop51ColorIndex
 90
      256
102
RTVSPost2010Prop51ColorRGB
 90
-16777216
102
RTVSPost2010PropOp51
 70
     0
102
RTVSPost2010Prop52
140
1.0
102
RTVSPost2010PropOp52
 70
     0
102
RTVSPost2010Prop53
 90
        2
102
RTVSPost2010PropOp53
 70
     1
102
RTVSPost2010Prop54
  1
strokes_ogs.tif
102
RTVSPost2010PropOp54
 70
     1
102
RTVSPost2010Prop55
280
     0
102
RTVSPost2010PropOp55
 70
     1
102
RTVSPost2010Prop56
140
1.0
102
RTVSPost2010PropOp56
 70
     1
102
RTVSPost2010Prop57
140
1.0
102
RTVSPost2010PropOp57
 70
     1
  0
XRECORD
  5
1950E
102
{ACAD_REACTORS
330
1950D
102
}
330
1950D
100
AcDbXrecord
280
     1
102
RTVSPost2010Prop28
280
     0
102
RTVSPost2010PropOp28
 70
     1
102
RTVSPost2010Prop29
280
     1
102
RTVSPost2010PropOp29
 70
     1
102
RTVSPost2010Prop30
280
     1
102
RTVSPost2010PropOp30
 70
     1
102
RTVSPost2010Prop31
280
     0
102
RTVSPost2010PropOp31
 70
     1
102
RTVSPost2010Prop32
280
     0
102
RTVSPost2010PropOp32
 70
     1
102
RTVSPost2010Prop33
280
     0
102
RTVSPost2010PropOp33
 70
     1
102
RTVSPost2010Prop34
280
     0
102
RTVSPost2010PropOp34
 70
     1
102
RTVSPost2010Prop35
280
     0
102
RTVSPost2010PropOp35
 70
     1
102
RTVSPost2010Prop36
280
     0
102
RTVSPost2010PropOp36
 70
     1
102
RTVSPost2010Prop37
 90
       50
102
RTVSPost2010PropOp37
 70
     1
102
RTVSPost2010Prop38
140
0.0
102
RTVSPost2010PropOp38
 70
     1
102
RTVSPost2010Prop39
140
1.0
102
RTVSPost2010PropOp39
 70
     1
102
RTVSPost2010Prop40
 90
        0
102
RTVSPost2010PropOp40
 70
     1
102
RTVSPost2010Prop41ColorIndex
 90
       18
102
RTVSPost2010Prop41ColorRGB
 90
        0
102
RTVSPost2010PropOp41
 70
     1
102
RTVSPost2010Prop42
 90
       50
102
RTVSPost2010PropOp42
 70
     1
102
RTVSPost2010Prop43
 90
        3
102
RTVSPost2010PropOp43
 70
     1
102
RTVSPost2010Prop44ColorIndex
 90
        5
102
RTVSPost2010Prop44ColorRGB
 90
      255
102
RTVSPost2010PropOp44
 70
     1
102
RTVSPost2010Prop45
280
     0
102
RTVSPost2010PropOp45
 70
     1
102
RTVSPost2010Prop46
 90
       50
102
RTVSPost2010PropOp46
 70
     1
102
RTVSPost2010Prop47
 90
       50
102
RTVSPost2010PropOp47
 70
     1
102
RTVSPost2010Prop48
 90
       50
102
RTVSPost2010PropOp48
 70
     1
102
RTVSPost2010Prop49
280
     0
102
RTVSPost2010PropOp49
 70
     1
102
RTVSPost2010Prop50
 90
       50
102
RTVSPost2010PropOp50
 70
     1
102
RTVSPost2010Prop51ColorIndex
 90
      256
102
RTVSPost2010Prop51ColorRGB
 90
-16777216
102
RTVSPost2010PropOp51
 70
     0
102
RTVSPost2010Prop52
140
1.0
102
RTVSPost2010PropOp52
 70
     0
102
RTVSPost2010Prop53
 90
        2
102
RTVSPost2010PropOp53
 70
     1
102
RTVSPost2010Prop54
  1
strokes_ogs.tif
102
RTVSPost2010PropOp54
 70
     1
102
RTVSPost2010Prop55
280
     0
102
RTVSPost2010PropOp55
 70
     1
102
RTVSPost2010Prop56
140
1.0
102
RTVSPost2010PropOp56
 70
     1
102
RTVSPost2010Prop57
140
1.0
102
RTVSPost2010PropOp57
 70
     1
  0
XRECORD
  5
19516
102
{ACAD_REACTORS
330
19515
102
}
330
19515
100
AcDbXrecord
280
     1
102
RTVSPost2010Prop28
280
     0
102
RTVSPost2010PropOp28
 70
     1
102
RTVSPost2010Prop29
280
     1
102
RTVSPost2010PropOp29
 70
     1
102
RTVSPost2010Prop30
280
     1
102
RTVSPost2010PropOp30
 70
     1
102
RTVSPost2010Prop31
280
     0
102
RTVSPost2010PropOp31
 70
     1
102
RTVSPost2010Prop32
280
     0
102
RTVSPost2010PropOp32
 70
     1
102
RTVSPost2010Prop33
280
     0
102
RTVSPost2010PropOp33
 70
     1
102
RTVSPost2010Prop34
280
     0
102
RTVSPost2010PropOp34
 70
     1
102
RTVSPost2010Prop35
280
     0
102
RTVSPost2010PropOp35
 70
     1
102
RTVSPost2010Prop36
280
     0
102
RTVSPost2010PropOp36
 70
     1
102
RTVSPost2010Prop37
 90
       50
102
RTVSPost2010PropOp37
 70
     1
102
RTVSPost2010Prop38
140
0.0
102
RTVSPost2010PropOp38
 70
     1
102
RTVSPost2010Prop39
140
1.0
102
RTVSPost2010PropOp39
 70
     1
102
RTVSPost2010Prop40
 90
        0
102
RTVSPost2010PropOp40
 70
     1
102
RTVSPost2010Prop41ColorIndex
 90
       18
102
RTVSPost2010Prop41ColorRGB
 90
        0
102
RTVSPost2010PropOp41
 70
     1
102
RTVSPost2010Prop42
 90
       50
102
RTVSPost2010PropOp42
 70
     1
102
RTVSPost2010Prop43
 90
        3
102
RTVSPost2010PropOp43
 70
     1
102
RTVSPost2010Prop44ColorIndex
 90
        5
102
RTVSPost2010Prop44ColorRGB
 90
      255
102
RTVSPost2010PropOp44
 70
     1
102
RTVSPost2010Prop45
280
     0
102
RTVSPost2010PropOp45
 70
     1
102
RTVSPost2010Prop46
 90
       50
102
RTVSPost2010PropOp46
 70
     1
102
RTVSPost2010Prop47
 90
       50
102
RTVSPost2010PropOp47
 70
     1
102
RTVSPost2010Prop48
 90
       50
102
RTVSPost2010PropOp48
 70
     1
102
RTVSPost2010Prop49
280
     0
102
RTVSPost2010PropOp49
 70
     1
102
RTVSPost2010Prop50
 90
       50
102
RTVSPost2010PropOp50
 70
     1
102
RTVSPost2010Prop51ColorIndex
 90
      256
102
RTVSPost2010Prop51ColorRGB
 90
-16777216
102
RTVSPost2010PropOp51
 70
     0
102
RTVSPost2010Prop52
140
1.0
102
RTVSPost2010PropOp52
 70
     0
102
RTVSPost2010Prop53
 90
        2
102
RTVSPost2010PropOp53
 70
     1
102
RTVSPost2010Prop54
  1
strokes_ogs.tif
102
RTVSPost2010PropOp54
 70
     1
102
RTVSPost2010Prop55
280
     0
102
RTVSPost2010PropOp55
 70
     1
102
RTVSPost2010Prop56
140
1.0
102
RTVSPost2010PropOp56
 70
     1
102
RTVSPost2010Prop57
140
1.0
102
RTVSPost2010PropOp57
 70
     1
  0
ENDSEC
  0
EOF
