  0
SECTION
  2
HEADER
  9
$ACADVER
  1
AC1024
  9
$ACADMAINTVER
 70
   226
  9
$DWGCODEPAGE
  3
ANSI_1252
  9
$LASTSAVEDBY
  1
User
  9
$INSBASE
 10
0.0
 20
0.0
 30
0.0
  9
$EXTMIN
 10
390.9045999397293
 20
12.62068185103246
 30
-0.0017274568831155
  9
$EXTMAX
 10
468.5622654466479
 20
113.0430977877707
 30
0.0000572817115425
  9
$LIMMIN
 10
-4.44220704448719
 20
-5.360222120439658
  9
$LIMMAX
 10
91.39604570949506
 20
115.4637810443593
  9
$ORTHOMODE
 70
     1
  9
$REGENMODE
 70
     1
  9
$FILLMODE
 70
     1
  9
$QTEXTMODE
 70
     0
  9
$MIRRTEXT
 70
     0
  9
$LTSCALE
 40
1.0
  9
$ATTMODE
 70
     1
  9
$TEXTSIZE
 40
1.0
  9
$TRACEWID
 40
0.05
  9
$TEXTSTYLE
  7
Logix
  9
$CLAYER
  8
Sills
  9
$CELTYPE
  6
ByLayer
  9
$CECOLOR
 62
   256
  9
$CELTSCALE
 40
1.0
  9
$DISPSILH
 70
     0
  9
$DIMSCALE
 40
1.0
  9
$DIMASZ
 40
0.75
  9
$DIMEXO
 40
0.5
  9
$DIMDLI
 40
0.38
  9
$DIMRND
 40
0.0
  9
$DIMDLE
 40
0.0
  9
$DIMEXE
 40
0.5
  9
$DIMTP
 40
0.0
  9
$DIMTM
 40
0.0
  9
$DIMTXT
 40
0.75
  9
$DIMCEN
 40
0.5
  9
$DIMTSZ
 40
0.0
  9
$DIMTOL
 70
     0
  9
$DIMLIM
 70
     0
  9
$DIMTIH
 70
     0
  9
$DIMTOH
 70
     1
  9
$DIMSE1
 70
     0
  9
$DIMSE2
 70
     0
  9
$DIMTAD
 70
     0
  9
$DIMZIN
 70
     0
  9
$DIMBLK
  1
ArchTick
  9
$DIMASO
 70
     1
  9
$DIMSHO
 70
     1
  9
$DIMPOST
  1
"\X
  9
$DIMAPOST
  1
mm
  9
$DIMALT
 70
     1
  9
$DIMALTD
 70
     0
  9
$DIMALTF
 40
25.4
  9
$DIMLFAC
 40
1.0
  9
$DIMTOFL
 70
     0
  9
$DIMTVP
 40
0.0
  9
$DIMTIX
 70
     0
  9
$DIMSOXD
 70
     0
  9
$DIMSAH
 70
     0
  9
$DIMBLK1
  1

  9
$DIMBLK2
  1

  9
$DIMSTYLE
  2
FBR
  9
$DIMCLRD
 70
     0
  9
$DIMCLRE
 70
     0
  9
$DIMCLRT
 70
     0
  9
$DIMTFAC
 40
1.0
  9
$DIMGAP
 40
0.09
  9
$DIMJUST
 70
     0
  9
$DIMSD1
 70
     0
  9
$DIMSD2
 70
     0
  9
$DIMTOLJ
 70
     1
  9
$DIMTZIN
 70
     0
  9
$DIMALTZ
 70
     0
  9
$DIMALTTZ
 70
     0
  9
$DIMUPT
 70
     0
  9
$DIMDEC
 70
     4
  9
$DIMTDEC
 70
     4
  9
$DIMALTU
 70
     2
  9
$DIMALTTD
 70
     0
  9
$DIMTXSTY
  7
Logix
  9
$DIMAUNIT
 70
     0
  9
$DIMADEC
 70
     0
  9
$DIMALTRND
 40
0.0
  9
$DIMAZIN
 70
     0
  9
$DIMDSEP
 70
    46
  9
$DIMATFIT
 70
     3
  9
$DIMFRAC
 70
     0
  9
$DIMLDRBLK
  1

  9
$DIMLUNIT
 70
     5
  9
$DIMLWD
 70
    -2
  9
$DIMLWE
 70
    -2
  9
$DIMTMOVE
 70
     0
  9
$DIMFXL
 40
0.5
  9
$DIMFXLON
 70
     0
  9
$DIMJOGANG
 40
0.7853981633974483
  9
$DIMTFILL
 70
     0
  9
$DIMTFILLCLR
 70
     0
  9
$DIMARCSYM
 70
     0
  9
$DIMLTYPE
  6

  9
$DIMLTEX1
  6

  9
$DIMLTEX2
  6

  9
$DIMTXTDIRECTION
 70
     0
  9
$LUNITS
 70
     2
  9
$LUPREC
 70
     4
  9
$SKETCHINC
 40
0.1
  9
$FILLETRAD
 40
0.0
  9
$AUNITS
 70
     0
  9
$AUPREC
 70
     0
  9
$MENU
  1
.
  9
$ELEVATION
 40
0.0
  9
$PELEVATION
 40
0.0
  9
$THICKNESS
 40
0.0
  9
$LIMCHECK
 70
     0
  9
$CHAMFERA
 40
0.0
  9
$CHAMFERB
 40
0.0
  9
$CHAMFERC
 40
0.0
  9
$CHAMFERD
 40
0.0
  9
$SKPOLY
 70
     0
  9
$TDCREATE
 40
2453607.697627315
  9
$TDUCREATE
 40
2453607.989301563
  9
$TDUPDATE
 40
2459662.959085648
  9
$TDUUPDATE
 40
2459663.250752315
  9
$TDINDWG
 40
1.4348653241
  9
$TDUSRTIMER
 40
1.4348653241
  9
$USRTIMER
 70
     1
  9
$ANGBASE
 50
0.0
  9
$ANGDIR
 70
     0
  9
$PDMODE
 70
     0
  9
$PDSIZE
 40
0.0
  9
$PLINEWID
 40
0.0
  9
$SPLFRAME
 70
     0
  9
$SPLINETYPE
 70
     6
  9
$SPLINESEGS
 70
     8
  9
$HANDSEED
  5
44BC0
  9
$SURFTAB1
 70
     6
  9
$SURFTAB2
 70
     6
  9
$SURFTYPE
 70
     6
  9
$SURFU
 70
     6
  9
$SURFV
 70
     6
  9
$UCSBASE
  2

  9
$UCSNAME
  2

  9
$UCSORG
 10
0.0
 20
0.0
 30
0.0
  9
$UCSXDIR
 10
1.0
 20
0.0
 30
0.0
  9
$UCSYDIR
 10
0.0
 20
1.0
 30
0.0
  9
$UCSORTHOREF
  2

  9
$UCSORTHOVIEW
 70
     0
  9
$UCSORGTOP
 10
0.0
 20
0.0
 30
0.0
  9
$UCSORGBOTTOM
 10
0.0
 20
0.0
 30
0.0
  9
$UCSORGLEFT
 10
0.0
 20
0.0
 30
0.0
  9
$UCSORGRIGHT
 10
0.0
 20
0.0
 30
0.0
  9
$UCSORGFRONT
 10
0.0
 20
0.0
 30
0.0
  9
$UCSORGBACK
 10
0.0
 20
0.0
 30
0.0
  9
$PUCSBASE
  2

  9
$PUCSNAME
  2

  9
$PUCSORG
 10
0.0
 20
0.0
 30
0.0
  9
$PUCSXDIR
 10
1.0
 20
0.0
 30
0.0
  9
$PUCSYDIR
 10
0.0
 20
1.0
 30
0.0
  9
$PUCSORTHOREF
  2

  9
$PUCSORTHOVIEW
 70
     0
  9
$PUCSORGTOP
 10
0.0
 20
0.0
 30
0.0
  9
$PUCSORGBOTTOM
 10
0.0
 20
0.0
 30
0.0
  9
$PUCSORGLEFT
 10
0.0
 20
0.0
 30
0.0
  9
$PUCSORGRIGHT
 10
0.0
 20
0.0
 30
0.0
  9
$PUCSORGFRONT
 10
0.0
 20
0.0
 30
0.0
  9
$PUCSORGBACK
 10
0.0
 20
0.0
 30
0.0
  9
$USERI1
 70
     0
  9
$USERI2
 70
     0
  9
$USERI3
 70
     0
  9
$USERI4
 70
     0
  9
$USERI5
 70
     0
  9
$USERR1
 40
0.0
  9
$USERR2
 40
0.0
  9
$USERR3
 40
0.0
  9
$USERR4
 40
0.0
  9
$USERR5
 40
0.0
  9
$WORLDVIEW
 70
     1
  9
$SHADEDGE
 70
     3
  9
$SHADEDIF
 70
    70
  9
$TILEMODE
 70
     1
  9
$MAXACTVP
 70
    64
  9
$PINSBASE
 10
0.0
 20
0.0
 30
0.0
  9
$PLIMCHECK
 70
     0
  9
$PEXTMIN
 10
1.049999952316284
 20
0.7999999523162842
 30
0.0
  9
$PEXTMAX
 10
9.449999570846555
 20
7.199999570846556
 30
0.0
  9
$PLIMMIN
 10
-0.2500002402958907
 20
-0.2499999962453767
  9
$PLIMMAX
 10
10.74999951940821
 20
8.249999763458731
  9
$UNITMODE
 70
     0
  9
$VISRETAIN
 70
     1
  9
$PLINEGEN
 70
     0
  9
$PSLTSCALE
 70
     1
  9
$TREEDEPTH
 70
  3020
  9
$CMLSTYLE
  2
Standard
  9
$CMLJUST
 70
     0
  9
$CMLSCALE
 40
1.0
  9
$PROXYGRAPHICS
 70
     1
  9
$MEASUREMENT
 70
     0
  9
$CELWEIGHT
370
    -1
  9
$ENDCAPS
280
     0
  9
$JOINSTYLE
280
     0
  9
$LWDISPLAY
290
     0
  9
$INSUNITS
 70
     1
  9
$HYPERLINKBASE
  1

  9
$STYLESHEET
  1
acad.ctb
  9
$XEDIT
290
     1
  9
$CEPSNTYPE
380
     0
  9
$PSTYLEMODE
290
     1
  9
$FINGERPRINTGUID
  2
{C454CA31-2497-4A48-9A62-B3C3862ED870}
  9
$VERSIONGUID
  2
{7F9568FD-63EF-8F49-9828-1F2111BD31FA}
  9
$EXTNAMES
290
     1
  9
$PSVPSCALE
 40
0.0
  9
$OLESTARTUP
290
     0
  9
$SORTENTS
280
   127
  9
$INDEXCTL
280
     0
  9
$HIDETEXT
280
     1
  9
$XCLIPFRAME
280
     2
  9
$HALOGAP
280
     0
  9
$OBSCOLOR
 70
   257
  9
$OBSLTYPE
280
     0
  9
$INTERSECTIONDISPLAY
280
     0
  9
$INTERSECTIONCOLOR
 70
   257
  9
$DIMASSOC
280
     2
  9
$PROJECTNAME
  1

  9
$CAMERADISPLAY
290
     0
  9
$LENSLENGTH
 40
50.0
  9
$CAMERAHEIGHT
 40
0.0
  9
$STEPSPERSEC
 40
2.0
  9
$STEPSIZE
 40
6.0
  9
$3DDWFPREC
 40
2.0
  9
$PSOLWIDTH
 40
0.25
  9
$PSOLHEIGHT
 40
4.0
  9
$LOFTANG1
 40
1.570796326794896
  9
$LOFTANG2
 40
1.570796326794896
  9
$LOFTMAG1
 40
0.0
  9
$LOFTMAG2
 40
0.0
  9
$LOFTPARAM
 70
     7
  9
$LOFTNORMALS
280
     1
  9
$LATITUDE
 40
37.795
  9
$LONGITUDE
 40
-122.394
  9
$NORTHDIRECTION
 40
0.0
  9
$TIMEZONE
 70
 -8000
  9
$LIGHTGLYPHDISPLAY
280
     1
  9
$TILEMODELIGHTSYNCH
280
     1
  9
$CMATERIAL
347
12C11
  9
$SOLIDHIST
280
     1
  9
$SHOWHIST
280
     1
  9
$DWFFRAME
280
     2
  9
$DGNFRAME
280
     0
  9
$REALWORLDSCALE
290
     1
  9
$INTERFERECOLOR
 62
     1
  9
$INTERFEREOBJVS
345
12C33
  9
$INTERFEREVPVS
346
44AF0
  9
$CSHADOW
280
     0
  9
$SHADOWPLANELOCATION
 40
0.0
  0
ENDSEC
  0
SECTION
  2
CLASSES
  0
CLASS
  1
ACDBDICTIONARYWDFLT
  2
AcDbDictionaryWithDefault
  3
ObjectDBX Classes
 90
        0
 91
        1
280
     0
281
     0
  0
CLASS
  1
DICTIONARYVAR
  2
AcDbDictionaryVar
  3
ObjectDBX Classes
 90
        0
 91
       14
280
     0
281
     0
  0
CLASS
  1
TABLESTYLE
  2
AcDbTableStyle
  3
ObjectDBX Classes
 90
     4095
 91
        3
280
     0
281
     0
  0
CLASS
  1
DIMASSOC
  2
AcDbDimAssoc
  3
"AcDbDimAssoc|Product Desc:     AcDim ARX App For Dimension|Company:          Autodesk, Inc.|WEB Address:      www.autodesk.com"
 90
        0
 91
        1
280
     0
281
     0
  0
CLASS
  1
SORTENTSTABLE
  2
AcDbSortentsTable
  3
ObjectDBX Classes
 90
        0
 91
        1
280
     0
281
     0
  0
CLASS
  1
ACAD_TABLE
  2
AcDbTable
  3
ObjectDBX Classes
 90
     1025
 91
        0
280
     0
281
     1
  0
CLASS
  1
FIELD
  2
AcDbField
  3
ObjectDBX Classes
 90
     1152
 91
        0
280
     0
281
     0
  0
CLASS
  1
FIELDLIST
  2
AcDbFieldList
  3
ObjectDBX Classes
 90
     1152
 91
        1
280
     0
281
     0
  0
CLASS
  1
MATERIAL
  2
AcDbMaterial
  3
ObjectDBX Classes
 90
     1153
 91
        3
280
     0
281
     0
  0
CLASS
  1
VISUALSTYLE
  2
AcDbVisualStyle
  3
ObjectDBX Classes
 90
     4095
 91
       26
280
     0
281
     0
  0
CLASS
  1
SCALE
  2
AcDbScale
  3
ObjectDBX Classes
 90
     1153
 91
       33
280
     0
281
     0
  0
CLASS
  1
MLEADERSTYLE
  2
AcDbMLeaderStyle
  3
ACDB_MLEADERSTYLE_CLASS
 90
     4095
 91
        1
280
     0
281
     0
  0
CLASS
  1
ACAD_EVALUATION_GRAPH
  2
AcDbEvalGraph
  3
ObjectDBX Classes
 90
     1153
 91
        0
280
     0
281
     0
  0
CLASS
  1
ACAECUSTOBJ
  2
AcAeEditorObj
  3
AcAeEditorObj
 90
     1024
 91
        0
280
     0
281
     0
  0
CLASS
  1
ACDB_DYNAMICBLOCKPURGEPREVENTER_VERSION
  2
AcDbDynamicBlockPurgePreventer
  3
ObjectDBX Classes
 90
     1153
 91
        0
280
     0
281
     0
  0
CLASS
  1
CELLSTYLEMAP
  2
AcDbCellStyleMap
  3
ObjectDBX Classes
 90
     1152
 91
        3
280
     0
281
     0
  0
CLASS
  1
DATATABLE
  2
AcDbDataTable
  3
ObjectDBX Classes
 90
        0
 91
        0
280
     0
281
     0
  0
CLASS
  1
MENTALRAYRENDERSETTINGS
  2
AcDbMentalRayRenderSettings
  3
SCENEOE
 90
     1024
 91
        1
280
     0
281
     0
  0
CLASS
  1
ACDBSECTIONVIEWSTYLE
  2
AcDbSectionViewStyle
  3
ObjectDBX Classes
 90
     1025
 91
        1
280
     0
281
     0
  0
CLASS
  1
ACDBDETAILVIEWSTYLE
  2
AcDbDetailViewStyle
  3
ObjectDBX Classes
 90
     1025
 91
        1
280
     0
281
     0
  0
CLASS
  1
ACDB_MTEXTOBJECTCONTEXTDATA_CLASS
  2
AcDbMTextObjectContextData
  3
ObjectDBX Classes
 90
     1153
 91
        1
280
     0
281
     0
  0
ENDSEC
  0
SECTION
  2
TABLES
  0
TABLE
  2
VPORT
  5
8
102
{ACAD_XDICTIONARY
360
12C98
102
}
330
0
100
AcDbSymbolTable
 70
     1
  0
VPORT
  5
12C00
330
8
100
AcDbSymbolTableRecord
100
AcDbViewportTableRecord
  2
*Active
 70
     0
 10
0.0
 20
0.0
 11
1.0
 21
1.0
 12
429.7334326931887
 22
62.83188981940159
 13
0.0
 23
0.0
 14
0.5
 24
0.5
 15
0.5
 25
0.5
 16
0.0
 26
0.0
 36
1.0
 17
0.0
 27
0.0
 37
0.0
 40
63.3417846219608
 41
3.21272365805169
 42
50.0
 43
0.0
 44
0.0
 50
0.0
 51
0.0
 71
     0
 72
  1000
 73
     1
 74
     3
 75
     0
 76
     0
 77
     0
 78
     0
281
     0
 65
     1
110
0.0
120
0.0
130
0.0
111
1.0
121
0.0
131
0.0
112
0.0
122
1.0
132
0.0
 79
     0
146
0.0
348
12C2F
 60
     3
 61
     5
292
     1
282
     1
141
0.0
142
0.0
 63
   250
421
  3355443
1001
ACAD_NAV_VCDISPLAY
1070
     3
  0
ENDTAB
  0
TABLE
  2
LTYPE
  5
5
330
0
100
AcDbSymbolTable
 70
     4
  0
LTYPE
  5
14
330
5
100
AcDbSymbolTableRecord
100
AcDbLinetypeTableRecord
  2
ByBlock
 70
     0
  3

 72
    65
 73
     0
 40
0.0
  0
LTYPE
  5
15
330
5
100
AcDbSymbolTableRecord
100
AcDbLinetypeTableRecord
  2
ByLayer
 70
     0
  3

 72
    65
 73
     0
 40
0.0
  0
LTYPE
  5
16
330
5
100
AcDbSymbolTableRecord
100
AcDbLinetypeTableRecord
  2
Continuous
 70
     0
  3
Solid line
 72
    65
 73
     0
 40
0.0
  0
LTYPE
  5
7BE
330
5
100
AcDbSymbolTableRecord
100
AcDbLinetypeTableRecord
  2
HIDDEN2
 70
     0
  3
Hidden (.5x) _ _ _ _ _ _ _ _ _ _ _ _ _ _ _ _ _
 72
    65
 73
     2
 40
0.1875
 49
0.125
 74
     0
 49
-0.0625
 74
     0
  0
LTYPE
  5
144B
330
5
100
AcDbSymbolTableRecord
100
AcDbLinetypeTableRecord
  2
HIDDEN
 70
     0
  3
Hidden __ __ __ __ __ __ __ __ __ __ __ __ __ _
 72
    65
 73
     2
 40
0.375
 49
0.25
 74
     0
 49
-0.125
 74
     0
  0
LTYPE
  5
129E7
330
5
100
AcDbSymbolTableRecord
100
AcDbLinetypeTableRecord
  2
CENTER2
 70
     0
  3
Center (.5x) ___ _ ___ _ ___ _ ___ _ ___ _ ___
 72
    65
 73
     4
 40
1.125
 49
0.75
 74
     0
 49
-0.125
 74
     0
 49
0.125
 74
     0
 49
-0.125
 74
     0
  0
ENDTAB
  0
TABLE
  2
LAYER
  5
2
102
{ACAD_XDICTIONARY
360
8D
102
}
330
0
100
AcDbSymbolTable
 70
    22
  0
LAYER
  5
10
102
{ACAD_XDICTIONARY
360
12C78
102
}
330
2
100
AcDbSymbolTableRecord
100
AcDbLayerTableRecord
  2
0
 70
     0
 62
     7
  6
Continuous
370
    -3
390
F
347
12C21
  0
LAYER
  5
8B
102
{ACAD_XDICTIONARY
360
12C7A
102
}
330
2
100
AcDbSymbolTableRecord
100
AcDbLayerTableRecord
  2
Block
 70
     0
 62
     1
  6
Continuous
370
    25
390
F
347
12C21
1001
AcAecLayerStandard
1000

1000

  0
LAYER
  5
413
102
{ACAD_XDICTIONARY
360
12C7C
102
}
330
2
100
AcDbSymbolTableRecord
100
AcDbLayerTableRecord
  2
Knobs
 70
     0
 62
     1
  6
Continuous
370
    -3
390
F
347
12C21
1001
AcAecLayerStandard
1000

1000

  0
LAYER
  5
770
102
{ACAD_XDICTIONARY
360
12C7E
102
}
330
2
100
AcDbSymbolTableRecord
100
AcDbLayerTableRecord
  2
Web
 70
     0
 62
     6
  6
Continuous
370
    -3
390
F
347
12C21
1001
AcAecLayerStandard
1000

1000

  0
LAYER
  5
E05
102
{ACAD_XDICTIONARY
360
12C80
102
}
330
2
100
AcDbSymbolTableRecord
100
AcDbLayerTableRecord
  2
Markers
 70
     0
 62
     1
  6
Continuous
370
    -3
390
F
347
12C21
1001
AcAecLayerStandard
1000

1000

  0
LAYER
  5
13AF
102
{ACAD_XDICTIONARY
360
12C82
102
}
330
2
100
AcDbSymbolTableRecord
100
AcDbLayerTableRecord
  2
Dim
 70
     0
 62
     7
  6
Continuous
370
    -3
390
F
347
12C21
1001
AcAecLayerStandard
1000

1000

  0
LAYER
  5
13CA
330
2
100
AcDbSymbolTableRecord
100
AcDbLayerTableRecord
  2
DEFPOINTS
 70
     0
 62
     7
  6
Continuous
290
     0
370
    -3
390
F
347
12C21
  0
LAYER
  5
32CE
102
{ACAD_XDICTIONARY
360
12C84
102
}
330
2
100
AcDbSymbolTableRecord
100
AcDbLayerTableRecord
  2
Text
 70
     0
 62
     7
  6
Continuous
370
    -3
390
F
347
12C21
1001
AcAecLayerStandard
1000

1000

  0
LAYER
  5
7B7D
102
{ACAD_XDICTIONARY
360
12C86
102
}
330
2
100
AcDbSymbolTableRecord
100
AcDbLayerTableRecord
  2
RIBS
 70
     0
 62
     6
  6
Continuous
370
    -3
390
F
347
12C21
  0
LAYER
  5
12725
102
{ACAD_XDICTIONARY
360
12C88
102
}
330
2
100
AcDbSymbolTableRecord
100
AcDbLayerTableRecord
  2
wood
 70
     0
 62
    40
  6
Continuous
370
    -3
390
F
347
12C21
1001
AcAecLayerStandard
1000

1000

  0
LAYER
  5
12726
102
{ACAD_XDICTIONARY
360
12C8A
102
}
330
2
100
AcDbSymbolTableRecord
100
AcDbLayerTableRecord
  2
drywall
 70
     0
 62
     7
  6
Continuous
370
    -3
390
F
347
12C21
1001
AcAecLayerStandard
1000

1000

  0
LAYER
  5
1274D
102
{ACAD_XDICTIONARY
360
12C8C
102
}
330
2
100
AcDbSymbolTableRecord
100
AcDbLayerTableRecord
  2
steel
 70
     0
 62
     5
  6
Continuous
370
    -3
390
F
347
12C21
1001
AcAecLayerStandard
1000

1000

  0
LAYER
  5
43B1A
330
2
100
AcDbSymbolTableRecord
100
AcDbLayerTableRecord
  2
Conc
 70
     0
 62
   251
  6
Continuous
370
    -3
390
F
347
12C21
1001
AcAecLayerStandard
1000

1000

  0
LAYER
  5
43B1B
330
2
100
AcDbSymbolTableRecord
100
AcDbLayerTableRecord
  2
Sills
 70
     0
 62
    40
  6
Continuous
370
    -3
390
F
347
12C21
1001
AcAecLayerStandard
1000

1000

  0
LAYER
  5
43B1C
330
2
100
AcDbSymbolTableRecord
100
AcDbLayerTableRecord
  2
WoodJoistStud
 70
     0
 62
    46
  6
Continuous
370
    25
390
F
347
12C21
1001
AcAecLayerStandard
1000

1000

  0
LAYER
  5
43B1D
330
2
100
AcDbSymbolTableRecord
100
AcDbLayerTableRecord
  2
Siding
 70
     0
 62
     5
  6
Continuous
370
    -3
390
F
347
12C21
1001
AcAecLayerStandard
1000

1000

  0
LAYER
  5
43B1E
330
2
100
AcDbSymbolTableRecord
100
AcDbLayerTableRecord
  2
SteelBars
 70
     0
 62
     5
  6
Continuous
370
    -3
390
F
347
12C21
1001
AcAecLayerStandard
1000

1000

  0
LAYER
  5
43B1F
330
2
100
AcDbSymbolTableRecord
100
AcDbLayerTableRecord
  2
SOIL
 70
     0
 62
     3
  6
Continuous
370
    -3
390
F
347
12C21
  0
LAYER
  5
43B20
330
2
100
AcDbSymbolTableRecord
100
AcDbLayerTableRecord
  2
Membranes
 70
     0
 62
     1
  6
Continuous
370
    -3
390
F
347
12C21
1001
AcAecLayerStandard
1000

1000

  0
LAYER
  5
43B21
330
2
100
AcDbSymbolTableRecord
100
AcDbLayerTableRecord
  2
Hatch
 70
     0
 62
     1
  6
Continuous
370
    -3
390
F
347
12C21
1001
AcAecLayerStandard
1000

1000

  0
LAYER
  5
44165
102
{ACAD_XDICTIONARY
360
44166
102
}
330
2
100
AcDbSymbolTableRecord
100
AcDbLayerTableRecord
  2
Webs
 70
     0
 62
     6
  6
HIDDEN
370
    -3
390
F
347
12C21
  0
LAYER
  5
44B09
102
{ACAD_XDICTIONARY
360
44B0A
102
}
330
2
100
AcDbSymbolTableRecord
100
AcDbLayerTableRecord
  2
Title Block
 70
     0
 62
     7
  6
Continuous
370
    -3
390
F
347
12C21
1001
AcAecLayerStandard
1000

1000
Use for the title block on the layout tab (paper space)
  0
ENDTAB
  0
TABLE
  2
STYLE
  5
3
330
0
100
AcDbSymbolTable
 70
     6
  0
STYLE
  5
11
330
3
100
AcDbSymbolTableRecord
100
AcDbTextStyleTableRecord
  2
Standard
 70
     0
 40
0.0
 41
1.0
 50
0.0
 71
     0
 42
0.2
  3
sanss___.ttf
  4

1001
ACAD
1000
SansSerif
1071
      514
  0
STYLE
  5
7BD
330
3
100
AcDbSymbolTableRecord
100
AcDbTextStyleTableRecord
  2

 70
     1
 40
0.0
 41
1.0
 50
0.0
 71
     0
 42
0.2
  3
ltypeshp.shx
  4

  0
STYLE
  5
1A22
330
3
100
AcDbSymbolTableRecord
100
AcDbTextStyleTableRecord
  2
Logix
 70
     0
 40
0.0
 41
1.0
 50
0.0
 71
     0
 42
1.0
  3
romans.shx
  4

  0
STYLE
  5
36AA
330
3
100
AcDbSymbolTableRecord
100
AcDbTextStyleTableRecord
  2
Arial
 70
     0
 40
0.0
 41
1.0
 50
0.0
 71
     0
 42
0.2
  3
arial.ttf
  4

1001
ACAD
1000
Arial
1071
       34
  0
STYLE
  5
7B7E
330
3
100
AcDbSymbolTableRecord
100
AcDbTextStyleTableRecord
  2
TITLE
 70
     0
 40
0.0
 41
1.0
 50
0.0
 71
     0
 42
1.25
  3
arial.ttf
  4

1001
ACAD
1000
Arial
1071
       34
  0
STYLE
  5
43B22
330
3
100
AcDbSymbolTableRecord
100
AcDbTextStyleTableRecord
  2
ATTR
 70
     0
 40
0.008825683324628
 41
0.8
 50
0.0
 71
     0
 42
0.008825683324628
  3
romans.shx
  4

  0
ENDTAB
  0
TABLE
  2
VIEW
  5
6
330
0
100
AcDbSymbolTable
 70
     0
  0
ENDTAB
  0
TABLE
  2
UCS
  5
7
330
0
100
AcDbSymbolTable
 70
     0
  0
ENDTAB
  0
TABLE
  2
APPID
  5
9
330
0
100
AcDbSymbolTable
 70
    19
  0
APPID
  5
12
330
9
100
AcDbSymbolTableRecord
100
AcDbRegAppTableRecord
  2
ACAD
 70
     0
  0
APPID
  5
8C
330
9
100
AcDbSymbolTableRecord
100
AcDbRegAppTableRecord
  2
AcAecLayerStandard
 70
     0
  0
APPID
  5
93
330
9
100
AcDbSymbolTableRecord
100
AcDbRegAppTableRecord
  2
ACAD_EXEMPT_FROM_CAD_STANDARDS
 70
     0
  0
APPID
  5
B8
330
9
100
AcDbSymbolTableRecord
100
AcDbRegAppTableRecord
  2
ACAD_DSTYLE_DIMTEXT_FILL
 70
     0
  0
APPID
  5
B9
330
9
100
AcDbSymbolTableRecord
100
AcDbRegAppTableRecord
  2
ACAD_DSTYLE_DIMEXT_LENGTH
 70
     0
  0
APPID
  5
BA
330
9
100
AcDbSymbolTableRecord
100
AcDbRegAppTableRecord
  2
ACAD_DSTYLE_DIMEXT_ENABLED
 70
     0
  0
APPID
  5
BB
330
9
100
AcDbSymbolTableRecord
100
AcDbRegAppTableRecord
  2
ACAD_DSTYLE_DIM_LINETYPE
 70
     0
  0
APPID
  5
BC
330
9
100
AcDbSymbolTableRecord
100
AcDbRegAppTableRecord
  2
ACAD_DSTYLE_DIM_EXT1_LINETYPE
 70
     0
  0
APPID
  5
BD
330
9
100
AcDbSymbolTableRecord
100
AcDbRegAppTableRecord
  2
ACAD_DSTYLE_DIM_EXT2_LINETYPE
 70
     0
  0
APPID
  5
1D9
330
9
100
AcDbSymbolTableRecord
100
AcDbRegAppTableRecord
  2
ACAD_DSTYLE_DIMJOGGED_JOGANGLE_SYMBOL
 70
     0
  0
APPID
  5
26D
330
9
100
AcDbSymbolTableRecord
100
AcDbRegAppTableRecord
  2
ACAD_DSTYLE_DIMARC_LENGTH_SYMBOL
 70
     0
  0
APPID
  5
11EF9
330
9
100
AcDbSymbolTableRecord
100
AcDbRegAppTableRecord
  2
ACAD_PSEXT
 70
     0
  0
APPID
  5
12C5E
330
9
100
AcDbSymbolTableRecord
100
AcDbRegAppTableRecord
  2
ACAD_MLEADERVER
 70
     0
  0
APPID
  5
12C70
330
9
100
AcDbSymbolTableRecord
100
AcDbRegAppTableRecord
  2
ACAUTHENVIRON
 70
     0
  0
APPID
  5
12C74
330
9
100
AcDbSymbolTableRecord
100
AcDbRegAppTableRecord
  2
AcDbDynamicBlockTrueName
 70
     0
  0
APPID
  5
12C75
330
9
100
AcDbSymbolTableRecord
100
AcDbRegAppTableRecord
  2
AcDbDynamicBlockGUID
 70
     0
  0
APPID
  5
12C77
330
9
100
AcDbSymbolTableRecord
100
AcDbRegAppTableRecord
  2
AcDbBlockRepETag
 70
     0
  0
APPID
  5
44B0B
330
9
100
AcDbSymbolTableRecord
100
AcDbRegAppTableRecord
  2
ACAD_NAV_VCDISPLAY
 70
     0
  0
APPID
  5
44B0C
330
9
100
AcDbSymbolTableRecord
100
AcDbRegAppTableRecord
  2
AcadAnnotative
 70
     0
  0
ENDTAB
  0
TABLE
  2
DIMSTYLE
  5
A
330
0
100
AcDbSymbolTable
 70
     5
100
AcDbDimStyleTable
 71
     3
340
8CB7
340
272
340
27
  0
DIMSTYLE
105
27
330
A
100
AcDbSymbolTableRecord
100
AcDbDimStyleTableRecord
  2
Standard
 70
     0
340
11
  0
DIMSTYLE
105
272
330
A
100
AcDbSymbolTableRecord
100
AcDbDimStyleTableRecord
  2
$RECOVER_050824232520-0
 70
     0
  3
"
  4
mm
 41
0.75
 42
0.5
 44
0.5
 49
0.18
 73
     0
140
0.75
141
0.5
170
     1
277
     5
340
1A22
342
1723
1001
ACAD_DSTYLE_DIMJOGGED_JOGANGLE_SYMBOL
1070
   384
1040
0.7853981633974483
  0
DIMSTYLE
105
7B7F
330
A
100
AcDbSymbolTableRecord
100
AcDbDimStyleTableRecord
  2
neil
 70
     0
  3
"\X
  4
mm
 40
7.0
 41
0.15
 42
0.06
 44
0.0599999999999999
 45
0.0005
 73
     0
 74
     0
 77
     1
 78
     4
 79
     1
140
0.15
141
0.0
144
0.666666666666667
147
0.06
170
     1
171
     0
271
     3
272
     3
274
     0
276
     1
277
     5
340
11
341
1723
342
1723
  0
DIMSTYLE
105
8CB7
102
{ACAD_REACTORS
330
4486F
102
}
330
A
100
AcDbSymbolTableRecord
100
AcDbDimStyleTableRecord
  2
FBR
 70
     0
  3
"\X
  4
mm
 41
0.75
 42
0.5
 44
0.5
 49
0.18
 73
     0
140
0.75
141
0.5
170
     1
171
     0
274
     0
277
     5
340
1A22
342
1723
1001
ACAD_DSTYLE_DIMJOGGED_JOGANGLE_SYMBOL
1070
   384
1040
0.7853981633974483
  0
DIMSTYLE
105
12A62
330
A
100
AcDbSymbolTableRecord
100
AcDbDimStyleTableRecord
  2
FBR 2storey
 70
     0
  3
"\X
  4
mm
 41
3.0
 42
0.5
 43
1.0
 44
0.5
 48
0.000000001
 49
0.5
 73
     0
 74
     0
140
2.5
141
0.5
147
0.3
170
     1
171
     0
274
     0
277
     5
279
     2
340
1A22
342
1723
1001
ACAD_DSTYLE_DIMJOGGED_JOGANGLE_SYMBOL
1070
   384
1040
0.7853981633974483
  0
ENDTAB
  0
TABLE
  2
BLOCK_RECORD
  5
1
330
0
100
AcDbSymbolTable
 70
     7
  0
BLOCK_RECORD
  5
1F
102
{ACAD_XDICTIONARY
360
39A
102
}
330
1
100
AcDbSymbolTableRecord
100
AcDbBlockTableRecord
  2
*Model_Space
340
22
 70
     0
280
     1
281
     0
  0
BLOCK_RECORD
  5
5D
330
1
100
AcDbSymbolTableRecord
100
AcDbBlockTableRecord
  2
*Paper_Space
340
5E
 70
     0
280
     1
281
     0
  0
BLOCK_RECORD
  5
58
330
1
100
AcDbSymbolTableRecord
100
AcDbBlockTableRecord
  2
*Paper_Space0
340
59
 70
     0
280
     1
281
     0
  0
BLOCK_RECORD
  5
13CB
330
1
100
AcDbSymbolTableRecord
100
AcDbBlockTableRecord
  2
BRKLINE
340
0
 70
     0
280
     1
281
     0
  0
BLOCK_RECORD
  5
1723
330
1
100
AcDbSymbolTableRecord
100
AcDbBlockTableRecord
  2
_ArchTick
340
0
102
{BLKREFS
331
448FC
331
448FD
102
}
 70
     0
280
     1
281
     0
  0
BLOCK_RECORD
  5
7B6B
330
1
100
AcDbSymbolTableRecord
100
AcDbBlockTableRecord
  2
logo
340
0
310
2800000020000000200000000100080000000000000400000000000000000000000000000000000000000000000080000080000000808000800000008000800080800000C0C0C000C0DCC000F0CAA6000020400000206000002080000020A0000020C0000020E00000400000004020000040400000406000004080000040A0
310
000040C0000040E00000600000006020000060400000606000006080000060A0000060C0000060E00000800000008020000080400000806000008080000080A0000080C0000080E00000A0000000A0200000A0400000A0600000A0800000A0A00000A0C00000A0E00000C0000000C0200000C0400000C0600000C0800000C0
310
A00000C0C00000C0E00000E0000000E0200000E0400000E0600000E0800000E0A00000E0C00000E0E00040000000400020004000400040006000400080004000A0004000C0004000E00040200000402020004020400040206000402080004020A0004020C0004020E000404000004040200040404000404060004040800040
310
40A0004040C0004040E00040600000406020004060400040606000406080004060A0004060C0004060E00040800000408020004080400040806000408080004080A0004080C0004080E00040A0000040A0200040A0400040A0600040A0800040A0A00040A0C00040A0E00040C0000040C0200040C0400040C0600040C08000
310
40C0A00040C0C00040C0E00040E0000040E0200040E0400040E0600040E0800040E0A00040E0C00040E0E00080000000800020008000400080006000800080008000A0008000C0008000E00080200000802020008020400080206000802080008020A0008020C0008020E00080400000804020008040400080406000804080
310
008040A0008040C0008040E00080600000806020008060400080606000806080008060A0008060C0008060E00080800000808020008080400080806000808080008080A0008080C0008080E00080A0000080A0200080A0400080A0600080A0800080A0A00080A0C00080A0E00080C0000080C0200080C0400080C0600080C0
310
800080C0A00080C0C00080C0E00080E0000080E0200080E0400080E0600080E0800080E0A00080E0C00080E0E000C0000000C0002000C0004000C0006000C0008000C000A000C000C000C000E000C0200000C0202000C0204000C0206000C0208000C020A000C020C000C020E000C0400000C0402000C0404000C0406000C0
310
408000C040A000C040C000C040E000C0600000C0602000C0604000C0606000C0608000C060A000C060C000C060E000C0800000C0802000C0804000C0806000C0808000C080A000C080C000C080E000C0A00000C0A02000C0A04000C0A06000C0A08000C0A0A000C0A0C000C0A0E000C0C00000C0C02000C0C04000C0C06000
310
C0C08000C0C0A000F0FBFF00A4A0A000808080000000FF0000FF000000FFFF00FF000000FF00FF00FFFF0000FFFFFF0000000000000000000000000000000000000000000000000000000000000000000000000000000000000000000000000000000000000000000000000000000000000000000000000000000000000000
310
00000000000000000000000000000000000000000000000000000000000000000000000000000000000000000000000000000000000000000000000000000000000000000000000000000000000000000000000000000000000000000000000000000000000000000000000000000000000000000000000000000000000000
310
00000000000000000000000000000000000000000000000000000000000000000000000000000000000000000000000000000000000000000000000000000000000000000000000000000000000000000000000000000000000000000000000000000000000000000000000000000000000000000000000000000000000000
310
000000000000000000000000000000000000000000FFFFFFFFFFFFFFFFFFFFFFFFFFFFFFFFFFFFFFFFFFFFFFFFFFFFFF0000000000FFF9F9FFFFFFFFFFFFFFFFFFFFFFFFFFFFFFFFFFFFFFFFFFFFFFFF0000000000FFF9F9FFFFFFFFFFFFFFFFFF0000FFFFFFFFFFFFFFFF0000FFFF000000000000FFFFFFFFFFFFFFFFFFFF
310
FF00FFFFFFFFFFFFFFFF00FFFFFFFF000000000000000000FFFF0000FFFF000000FFFFFF00FFFFFFFFFF00FFFF00FF000000000000000000FFFF000000FFFF0000FFFFFFFFFFFFFFFFFF0000FFFF00000000000000000000FFFF000000FFFFFFFFFF00FFFFFFFFFFFFFF00FFFFFFFFFFFFFF000000000000FFFF00000000FF
310
FFFF000000FFFFFFFFFFFFFFFF00FFFFFFFFFF00000000000000000000000000000000000000000000F9F9000000000000000000000000000000000000000000000000000000000000F9F900000000000000000000000000000000000000000000000000000000000000000000000000000000000000000000000000000000
310
00000000000000000000000000000000000000000000000000000000000000000000000000000000000000000000000000000000000000000000000000000000000000000000000000000000000000000000000000000000000000000000000000000000000000000000000000000000000000000000000000000000000000
310
00000000000000000000000000000000000000000000000000000000000000000000000000000000000000000000000000000000000000000000000000000000000000000000000000000000000000000000000000000000000000000000000000000000000000000000000000000000000000000000000000000000000000
310
0000000000000000000000000000000000000000000000000000000000000000000000000000000000000000000000000000000000000000
102
{BLKREFS
331
12C6C
102
}
 70
     1
280
     1
281
     0
  0
BLOCK_RECORD
  5
7B76
102
{ACAD_XDICTIONARY
360
12C71
102
}
330
1
100
AcDbSymbolTableRecord
100
AcDbBlockTableRecord
  2
logo1
340
0
310
2800000020000000200000000100080000000000000400000000000000000000000000000000000000000000000080000080000000808000800000008000800080800000C0C0C000C0DCC000F0CAA6000020400000206000002080000020A0000020C0000020E00000400000004020000040400000406000004080000040A0
310
000040C0000040E00000600000006020000060400000606000006080000060A0000060C0000060E00000800000008020000080400000806000008080000080A0000080C0000080E00000A0000000A0200000A0400000A0600000A0800000A0A00000A0C00000A0E00000C0000000C0200000C0400000C0600000C0800000C0
310
A00000C0C00000C0E00000E0000000E0200000E0400000E0600000E0800000E0A00000E0C00000E0E00040000000400020004000400040006000400080004000A0004000C0004000E00040200000402020004020400040206000402080004020A0004020C0004020E000404000004040200040404000404060004040800040
310
40A0004040C0004040E00040600000406020004060400040606000406080004060A0004060C0004060E00040800000408020004080400040806000408080004080A0004080C0004080E00040A0000040A0200040A0400040A0600040A0800040A0A00040A0C00040A0E00040C0000040C0200040C0400040C0600040C08000
310
40C0A00040C0C00040C0E00040E0000040E0200040E0400040E0600040E0800040E0A00040E0C00040E0E00080000000800020008000400080006000800080008000A0008000C0008000E00080200000802020008020400080206000802080008020A0008020C0008020E00080400000804020008040400080406000804080
310
008040A0008040C0008040E00080600000806020008060400080606000806080008060A0008060C0008060E00080800000808020008080400080806000808080008080A0008080C0008080E00080A0000080A0200080A0400080A0600080A0800080A0A00080A0C00080A0E00080C0000080C0200080C0400080C0600080C0
310
800080C0A00080C0C00080C0E00080E0000080E0200080E0400080E0600080E0800080E0A00080E0C00080E0E000C0000000C0002000C0004000C0006000C0008000C000A000C000C000C000E000C0200000C0202000C0204000C0206000C0208000C020A000C020C000C020E000C0400000C0402000C0404000C0406000C0
310
408000C040A000C040C000C040E000C0600000C0602000C0604000C0606000C0608000C060A000C060C000C060E000C0800000C0802000C0804000C0806000C0808000C080A000C080C000C080E000C0A00000C0A02000C0A04000C0A06000C0A08000C0A0A000C0A0C000C0A0E000C0C00000C0C02000C0C04000C0C06000
310
C0C08000C0C0A000F0FBFF00A4A0A000808080000000FF0000FF000000FFFF00FF000000FF00FF00FFFF0000FFFFFF0000000000000000000000000000000000000000000000000000000000000000000000000000000000000000000000000000000000000000000000000000000000000000000000000000000000000000
310
00000000000000000000000000000000000000000000000000000000000000000000000000000000000000000000000000000000000000000000000000000000000000000000000000000000000000000000000000000000000000000000000000000000000000000000000000000000000000000000000000000000000000
310
00000000000000000000000000000000000000000000000000000000000000000000000000000000000000000000000000000000000000000000000000000000000000000000000000000000000000000000000000000000000000000000000000000000000000000000000000000000000000000000000000000000000000
310
0000000000000000000000000000000000000000000000000000000000000000000000000000000000FFFFFFFFFFFFFFFF0000000000000000FFFFFFFFFFFFFFFFFFFFFFFFFFFFFFFFFFFFFFFFFFFFFFFF0000000000000000FFFFFFFFFF00FFFFFFFFFF00FFFFFFFFFFFFFFFF000000000000000000000000FFFFFFFFFFFF
310
FFFFFFFFFFFFFFFFFFFFFFFF0000000000000000000000000000F9F9FFFFFFFFFFFFFFFFFFFFFFFFFFFFFFFF0000000000000000000000000000FFFFFFFFFFFFFFFFFFFFFFFFFFFF00FFFFFF000000000000000000000000000000FFFF00FFFF00FFFFFFFFFFFFFF00FFFF00000000000000000000000000000000FFFF00FF
310
FFFF00FFFFFFFFFFFF00FF00FFFF0000000000000000000000000000FFFF00FFFFFFFF00FFFFFFF9F9FFFFFFFFFF00000000000000000000000000000000000000000000000000F9F9000000000000000000000000000000000000000000000000000000000000000000000000000000000000000000000000000000000000
310
00000000000000000000000000000000000000000000000000000000000000000000000000000000000000000000000000000000000000000000000000000000000000000000000000000000000000000000000000000000000000000000000000000000000000000000000000000000000000000000000000000000000000
310
00000000000000000000000000000000000000000000000000000000000000000000000000000000000000000000000000000000000000000000000000000000000000000000000000000000000000000000000000000000000000000000000000000000000000000000000000000000000000000000000000000000000000
310
0000000000000000000000000000000000000000000000000000000000000000000000000000000000000000000000000000000000000000
 70
     1
280
     1
281
     0
1001
AcDbDynamicBlockGUID
1000
{99C1F1DA-9B33-4247-816E-F4F7CB7E97FE}
1001
AcDbBlockRepETag
1070
     1
1071
        4
  0
BLOCK_RECORD
  5
43AF0
330
1
100
AcDbSymbolTableRecord
100
AcDbBlockTableRecord
  2
NUT_HEX_0D5_SV
340
0
310
2800000020000000200000000100040000000000000200000000000000000000000000000000000000000000000080000080000000808000800000008000800080800000C0C0C000808080000000FF0000FF000000FFFF00FF000000FF00FF00FFFF0000FFFFFF00FFFFFFFFF00000000000000FFFFFFFFFFFFFFFFF0FFFFF
310
FFFFFFFF0FFFFFFFFFFFFFFFFF0FFFFFFFFFFFFF0FFFFFFFFFFFFFFFFF0FFFFFFFFFFFFF0FFFFFFFFFFFFFFFF00FFFFFFFFFFFFF0FFFFFFFFFFFFFFFF00FFFFFFFFFFFFF00FFFFFFFFFFFFFFF00FFFFFFFFFFFFF00FFFFFFFFFFFFFFF00FFFFFFFFFFFFF00FFFFFFFFFFFFFFF00000000000000000FFFFFFFFFFFFFFF00FFF
310
FFFFFFFFFF00FFFFFFFFFFFFFFF00FFFFFFFFFFFFF00FFFFFFFFFFFFFFF00FFFFFFFFFFFFF00FFFFFFFFFFFFFFF00FFFFFFFFFFFFF00FFFFFFFFFFFFFFF00FFFFFFFFFFFFF00FFFFFFFFFFFFFFF00FFFFFFFFFFFFF00FFFFFFFFFFFFFFF00FFFFFFFFFFFFF00FFFFFFFFFFFFFFF00FFFFFFFFFFFFF00FFFFFFFFFFFFFFF00F
310
FFFFFFFFFFFF00FFFFFFFFFFFFFFF00FFFFFFFFFFFFF00FFFFFFFFFFFFFFF00FFFFFFFFFFFFF00FFFFFFFFFFFFFFF00FFFFFFFFFFFFF00FFFFFFFFFFFFFFF00FFFFFFFFFFFFF00FFFFFFFFFFFFFFF00FFFFFFFFFFFFF00FFFFFFFFFFFFFFF00000000000000000FFFFFFFFFFFFFFF00FFFFFFFFFFFFF00FFFFFFFFFFFFFFF0
310
0FFFFFFFFFFFFF00FFFFFFFFFFFFFFF00FFFFFFFFFFFFF00FFFFFFFFFFFFFFFF0FFFFFFFFFFFFF00FFFFFFFFFFFFFFFF0FFFFFFFFFFFFF0FFFFFFFFFFFFFFFFF0FFFFFFFFFFFFF0FFFFFFFFFFFFFFFFF0FFFFFFFFFFFFF0FFFFFFFFFFFFFFFFF00000000000000FFFFFFFFFF
 70
     0
280
     1
281
     0
  0
BLOCK_RECORD
  5
44870
330
1
100
AcDbSymbolTableRecord
100
AcDbBlockTableRecord
  2
*D6
340
0
 70
     0
280
     1
281
     0
  0
ENDTAB
  0
ENDSEC
  0
SECTION
  2
BLOCKS
  0
BLOCK
  5
20
330
1F
100
AcDbEntity
  8
0
100
AcDbBlockBegin
  2
*Model_Space
 70
     0
 10
0.0
 20
0.0
 30
0.0
  3
*Model_Space
  1

  0
ENDBLK
  5
21
330
1F
100
AcDbEntity
  8
0
100
AcDbBlockEnd
  0
BLOCK
  5
5F
330
5D
100
AcDbEntity
 67
     1
  8
0
100
AcDbBlockBegin
  2
*Paper_Space
 70
     0
 10
0.0
 20
0.0
 30
0.0
  3
*Paper_Space
  1

  0
ENDBLK
  5
60
330
5D
100
AcDbEntity
 67
     1
  8
0
100
AcDbBlockEnd
  0
BLOCK
  5
5A
330
58
100
AcDbEntity
 67
     1
  8
0
100
AcDbBlockBegin
  2
*Paper_Space0
 70
     0
 10
0.0
 20
0.0
 30
0.0
  3
*Paper_Space0
  1

  0
VIEWPORT
  5
11EF8
330
58
100
AcDbEntity
 67
     1
  8
0
100
AcDbViewport
 10
5.249999639556163
 20
3.999999883606677
 30
0.0
 40
21.60469660038833
 41
8.992999745766947
 68
     0
 69
     0
 12
5.249999639556163
 22
3.999999883606677
 13
0.0
 23
0.0
 14
0.5
 24
0.5
 15
0.5
 25
0.5
 16
0.0
 26
0.0
 36
1.0
 17
0.0
 27
0.0
 37
0.0
 42
50.0
 43
0.0
 44
0.0
 45
8.992999745766947
 50
0.0
 51
0.0
 72
  1000
 90
    32800
  1

281
     0
 71
     1
 74
     0
110
0.0
120
0.0
130
0.0
111
1.0
121
0.0
131
0.0
112
0.0
122
1.0
132
0.0
 79
     0
146
0.0
170
     0
 61
     5
348
12C2F
292
     1
282
     1
141
0.0
142
0.0
 63
   250
421
  3355443
  0
VIEWPORT
  5
11EFB
330
58
100
AcDbEntity
 67
     1
  8
Dim
100
AcDbViewport
 10
5.24999976158142
 20
3.99999976158142
 30
0.0
 40
8.399999618530271
 41
6.399999618530272
 68
     0
 69
     0
 12
70.24570646213799
 22
55.11630672257945
 13
0.0
 23
0.0
 14
0.5
 24
0.5
 15
0.5
 25
0.5
 16
0.0
 26
0.0
 36
1.0
 17
0.0
 27
0.0
 37
0.0
 42
50.0
 43
0.0
 44
0.0
 45
113.4515982453417
 50
0.0
 51
0.0
 72
  1000
 90
    32864
  1

281
     0
 71
     1
 74
     0
110
0.0
120
0.0
130
0.0
111
1.0
121
0.0
131
0.0
112
0.0
122
1.0
132
0.0
 79
     0
146
0.0
170
     0
 61
     5
348
12C2F
292
     1
282
     1
141
0.0
142
0.0
 63
   250
421
  3355443
  0
ENDBLK
  5
5B
330
58
100
AcDbEntity
 67
     1
  8
0
100
AcDbBlockEnd
  0
BLOCK
  5
13CF
330
13CB
100
AcDbEntity
  8
0
100
AcDbBlockBegin
  2
BRKLINE
 70
     0
 10
0.0
 20
0.0
 30
0.0
  3
BRKLINE
  1

  0
LWPOLYLINE
  5
13CC
330
13CB
100
AcDbEntity
  8
0
100
AcDbPolyline
 90
        4
 70
     0
 43
0.0
 10
6.808656731150684
 20
3.512459941779828
 10
6.558656731150684
 20
4.199329296643485
 10
6.058656731150684
 20
2.825590586916172
 10
5.808656731150684
 20
3.512459941779828
  0
POINT
  5
13CD
330
13CB
100
AcDbEntity
  8
DEFPOINTS
100
AcDbPoint
 10
6.808656731150684
 20
3.512459941779828
 30
0.0
  0
POINT
  5
13CE
330
13CB
100
AcDbEntity
  8
DEFPOINTS
100
AcDbPoint
 10
5.808656731150684
 20
3.512459941779828
 30
0.0
  0
ENDBLK
  5
13D0
330
13CB
100
AcDbEntity
  8
0
100
AcDbBlockEnd
  0
BLOCK
  5
1725
330
1723
100
AcDbEntity
  8
0
100
AcDbBlockBegin
  2
_ArchTick
 70
     0
 10
0.0
 20
0.0
 30
0.0
  3
_ArchTick
  1

  0
LWPOLYLINE
  5
1724
330
1723
100
AcDbEntity
  8
0
  6
ByBlock
 62
     0
100
AcDbPolyline
 90
        2
 70
     0
 43
0.15
 10
-0.5
 20
-0.5
 10
0.5
 20
0.5
  0
ENDBLK
  5
1726
330
1723
100
AcDbEntity
  8
0
100
AcDbBlockEnd
  0
BLOCK
  5
7B6C
330
7B6B
100
AcDbEntity
  8
0
100
AcDbBlockBegin
  2
logo
 70
     0
 10
0.0
 20
0.0
 30
0.0
  3
logo
  1

  0
MTEXT
  5
7B6D
330
7B6B
100
AcDbEntity
  8
Text
100
AcDbMText
 10
221.086693675525
 20
7.073797073357269
 30
0.0
 40
4.125
 41
21.35400527714894
 46
0.0
 71
     5
 72
     5
  1
\fArial|b1|i0|c0|p34;LOGIX
 73
     1
 44
1.0
  0
LWPOLYLINE
  5
7B6E
330
7B6B
100
AcDbEntity
  8
Text
 62
    10
100
AcDbPolyline
 90
        4
 70
     1
 43
0.0
 10
225.1499332619207
 20
9.683728632982365
 10
224.7383820841952
 20
9.683728632982365
 10
224.7383820841952
 20
10.35291851038301
 10
225.1499332619207
 20
10.35291851038301
  0
HATCH
  5
7B6F
330
7B6B
100
AcDbEntity
  8
Text
 62
    10
100
AcDbHatch
 10
0.0
 20
0.0
 30
0.0
210
0.0
220
0.0
230
1.0
  2
SOLID
 70
     1
 71
     0
 91
        1
 92
        7
 72
     0
 73
     1
 93
        4
 10
225.5614844396461
 20
9.683728632982363
 10
225.5614844396461
 20
10.35291851038301
 10
224.7383820841953
 20
10.35291851038301
 10
224.7383820841953
 20
9.683728632982365
 97
        0
 75
     0
 76
     1
 47
0.0123602155066018
 98
        1
 10
225.7208762804179
 20
9.919538556040233
450
        0
451
        0
460
0.0
461
0.0
452
        0
462
0.0
453
        0
470

  0
TEXT
  5
7B70
330
7B6B
100
AcDbEntity
  8
Text
100
AcDbText
 10
216.1026506038589
 20
3.969685468766058
 30
0.0
 40
0.65625
  1
INSULATED CONCRETE FORMS
  7
TITLE
100
AcDbText
  0
LWPOLYLINE
  5
7B71
330
7B6B
100
AcDbEntity
  8
Text
100
AcDbPolyline
 90
        3
 70
     0
 43
0.38671875
 10
211.295228210912
 20
6.320133515475628
 10
211.295228210912
 20
4.138949166248082
 10
215.2000098659969
 20
4.138949166248082
  0
HATCH
  5
7B72
330
7B6B
100
AcDbEntity
  8
Text
 62
    10
100
AcDbHatch
 10
0.0
 20
0.0
 30
0.0
210
0.0
220
0.0
230
1.0
  2
SOLID
 70
     1
 71
     1
 91
        1
 92
        7
 72
     0
 73
     1
 93
        4
 10
212.339355867348
 20
4.353444358275677
 10
212.339355867348
 20
5.022634235676324
 10
211.5162535118971
 20
5.022634235676322
 10
211.5162535118971
 20
4.353444358275677
 97
        1
330
7B73
 75
     0
 76
     1
 47
0.0123602155066018
 98
        1
 10
212.0586078659991
 20
4.589254281333545
450
        0
451
        0
460
0.0
461
0.0
452
        0
462
0.0
453
        0
470

  0
LWPOLYLINE
  5
7B73
102
{ACAD_REACTORS
330
7B72
102
}
330
7B6B
100
AcDbEntity
  8
Text
 62
    10
100
AcDbPolyline
 90
        4
 70
     1
 43
0.0
 10
212.339355867348
 20
4.353444358275677
 10
211.5162535118971
 20
4.353444358275677
 10
211.5162535118971
 20
5.022634235676324
 10
212.339355867348
 20
5.022634235676324
  0
MTEXT
  5
7B74
330
7B6B
100
AcDbEntity
  8
Text
100
AcDbMText
 10
231.5267760865217
 20
9.129830932173035
 30
0.0
 40
1.0
 41
1.967384484442007
 46
0.0
 71
     3
 72
     5
  1
{\fArial|b1|i0|c0|p34;TM}
 73
     1
 44
1.0
  0
ENDBLK
  5
7B75
330
7B6B
100
AcDbEntity
  8
0
100
AcDbBlockEnd
  0
BLOCK
  5
7B77
330
7B76
100
AcDbEntity
  8
0
100
AcDbBlockBegin
  2
logo1
 70
     0
 10
0.0
 20
0.0
 30
0.0
  3
logo1
  1

  0
INSERT
  5
12C6C
330
7B76
100
AcDbEntity
  8
Text
100
AcDbBlockReference
  2
logo
 10
0.2750878984697351
 20
1.429312710851462
 30
0.0
1001
AcDbBlockRepETag
1070
     1
1071
        0
1005
12C6C
  0
MTEXT
  5
12C6D
330
7B76
100
AcDbEntity
  8
Text
100
AcDbMText
 10
220.8462269722975
 20
3.419269878896534
 30
0.0
 40
1.5397913732992
 41
28.81904330094251
 46
0.0
 71
     5
 72
     5
  1
{\fArial|b1|i0|c0|p34;Good. Solid. Green.}
 73
     1
 44
1.0
1001
AcDbBlockRepETag
1070
     1
1071
        1
1005
12C6D
  0
MTEXT
  5
12C6E
330
7B76
100
AcDbEntity
  8
Text
100
AcDbMText
 10
231.9043748365881
 20
4.468802917119665
 30
0.0
 40
0.7698956866496004
 41
1.514680828553249
 46
0.0
 71
     3
 72
     5
  1
{\fArial|b1|i0|c0|p34;TM}
 73
     1
 44
1.0
1001
AcDbBlockRepETag
1070
     1
1071
        2
1005
12C6E
  0
MTEXT
  5
12C6F
330
7B76
100
AcDbEntity
  8
Text
100
AcDbMText
 10
229.1192517599591
 20
2.675911896170958
 30
0.0
 40
0.75
 41
8.36266296602462
 46
0.0
 71
     1
 72
     5
  1
www.logixicf.com
 73
     1
 44
1.0
1001
AcDbBlockRepETag
1070
     1
1071
        3
1005
12C6F
  0
ENDBLK
  5
7B7C
330
7B76
100
AcDbEntity
  8
0
100
AcDbBlockEnd
  0
BLOCK
  5
43AF1
330
43AF0
100
AcDbEntity
  8
0
100
AcDbBlockBegin
  2
NUT_HEX_0D5_SV
 70
     2
 10
0.0
 20
0.0
 30
0.0
  3
NUT_HEX_0D5_SV
  1

  0
LINE
  5
43AF2
330
43AF0
100
AcDbEntity
  8
0
100
AcDbLine
 10
0.0299951999996994
 20
-0.2165006948201129
 30
0.0
 11
0.4179951999996993
 21
-0.2165006948201129
 31
0.0
  0
LINE
  5
43AF3
330
43AF0
100
AcDbEntity
  8
0
100
AcDbLine
 10
0.0299951999996994
 20
0.2164993051798869
 30
0.0
 11
0.4180051999996972
 21
0.2164993051798869
 31
0.0
  0
LWPOLYLINE
  5
43AF4
330
43AF0
100
AcDbEntity
  8
0
100
AcDbPolyline
 90
        2
 70
     0
 43
0.0
 10
0.0299951999996994
 20
0.4329993051798869
 10
0.4180051999996972
 20
0.4329993051798869
  0
ARC
  5
43AF5
330
43AF0
100
AcDbEntity
  8
0
100
AcDbCircle
 10
-0.348204800000302
 20
-0.000000694820113
 30
0.0
 40
0.7962052
100
AcDbArc
 50
344.2218
 51
15.77825
  0
ARC
  5
43AF6
330
43AF0
100
AcDbEntity
  8
0
100
AcDbCircle
 10
0.2376951999996985
 20
0.3247493051798851
 30
0.0
 40
0.2103013
100
AcDbArc
 50
329.0201
 51
30.97992
  0
ARC
  5
43AF7
330
43AF0
100
AcDbEntity
  8
0
100
AcDbCircle
 10
0.210305199999698
 20
0.3247493051798851
 30
0.0
 40
0.2103013
100
AcDbArc
 50
149.0201
 51
210.9799
  0
ARC
  5
43AF8
330
43AF0
100
AcDbEntity
  8
0
100
AcDbCircle
 10
0.7962051999996968
 20
-0.000000694820113
 30
0.0
 40
0.7962052
100
AcDbArc
 50
164.2217
 51
195.7782
  0
LWPOLYLINE
  5
43AF9
330
43AF0
100
AcDbEntity
  8
0
100
AcDbPolyline
 90
        2
 70
     0
 43
0.0
 10
0.4180051999996972
 20
-0.4330006948201129
 10
0.0299951999996994
 20
-0.4330006948201129
  0
ARC
  5
43AFA
330
43AF0
100
AcDbEntity
  8
0
100
AcDbCircle
 10
0.2376951999996985
 20
-0.3247506948201146
 30
0.0
 40
0.2103013
100
AcDbArc
 50
329.0201
 51
30.97990999999999
  0
LINE
  5
43AFB
330
43AF0
100
AcDbEntity
  8
0
100
AcDbLine
 10
0.4480051999996983
 20
0.3247493051798851
 30
0.0
 11
0.4480051999996983
 21
-0.3247506948201146
 31
0.0
  0
LINE
  5
43AFC
330
43AF0
100
AcDbEntity
  8
0
100
AcDbLine
 10
0.0000051999996978
 20
-0.3247506948201146
 30
0.0
 11
0.0000051999996978
 21
0.3247493051798851
 31
0.0
  0
ARC
  5
43AFD
330
43AF0
100
AcDbEntity
  8
0
100
AcDbCircle
 10
0.210305199999698
 20
-0.3247506948201146
 30
0.0
 40
0.2103013
100
AcDbArc
 50
149.0201
 51
210.9799
  0
ATTDEF
  5
43AFE
330
43AF0
100
AcDbEntity
  8
0
100
AcDbText
 10
0.0
 20
-0.9792999999999999
 30
0.0
 40
0.021680831672485
  1

 41
0.8
  7
ATTR
100
AcDbAttributeDefinition
280
     0
  3

  2
ESTCODE
 70
     9
280
     0
  0
ENDBLK
  5
43AFF
330
43AF0
100
AcDbEntity
  8
0
100
AcDbBlockEnd
  0
BLOCK
  5
44871
330
44870
100
AcDbEntity
  8
0
100
AcDbBlockBegin
  2
*D6
 70
     1
 10
0.0
 20
0.0
 30
0.0
  3
*D6
  1

  0
LINE
  5
448F8
330
44870
100
AcDbEntity
  8
Dim
 62
     0
440
 16777216
370
    -2
100
AcDbLine
 10
427.2175098931943
 20
76.99443095445264
 30
0.0
 11
427.2175098931943
 21
80.91771913825311
 31
0.0
  0
LINE
  5
448F9
330
44870
100
AcDbEntity
  8
Dim
 62
     0
440
 16777216
370
    -2
100
AcDbLine
 10
423.2175098931943
 20
76.99443095445264
 30
0.0
 11
423.2175098931943
 21
80.91771913825311
 31
0.0
  0
LINE
  5
448FA
330
44870
100
AcDbEntity
  8
Dim
 62
     0
440
 16777216
370
    -2
100
AcDbLine
 10
427.2175098931943
 20
80.41771913825312
 30
0.0
 11
423.2175098931943
 21
80.41771913825312
 31
0.0
  0
LINE
  5
448FB
330
44870
100
AcDbEntity
  8
Dim
 62
     0
440
 16777216
370
    -2
100
AcDbLine
 10
423.2175098931943
 20
80.41771913825312
 30
0.0
 11
422.4675098931943
 21
80.41771913825312
 31
0.0
  0
INSERT
  5
448FC
330
44870
100
AcDbEntity
  8
Dim
 62
     0
440
 16777216
370
    -2
100
AcDbBlockReference
  2
_ArchTick
 10
427.2175098931943
 20
80.41771913825312
 30
0.0
 41
0.75
 42
0.75
 43
0.75
  0
INSERT
  5
448FD
330
44870
100
AcDbEntity
  8
Dim
 62
     0
440
 16777216
370
    -2
100
AcDbBlockReference
  2
_ArchTick
 10
423.2175098931943
 20
80.41771913825312
 30
0.0
 41
0.75
 42
0.75
 43
0.75
 50
180.0
  0
MTEXT
  5
448FE
330
44870
100
AcDbEntity
  8
Dim
 62
     0
440
 16777216
100
AcDbMText
 10
416.3775098931942
 20
80.41771913825312
 30
0.0
 40
1.0
 41
0.0
 46
0.0
 71
     5
 72
     1
  1
\A1;4" bearing seat
  7
Logix
 73
     1
 44
1.0
  0
POINT
  5
448FF
330
44870
100
AcDbEntity
  8
DEFPOINTS
 62
     0
440
 16777216
100
AcDbPoint
 10
427.2175098931943
 20
76.49443095445263
 30
-0.0004318506061738
  0
POINT
  5
44900
330
44870
100
AcDbEntity
  8
DEFPOINTS
 62
     0
440
 16777216
100
AcDbPoint
 10
423.2175098931943
 20
76.49443095445263
 30
-0.0004318506061738
  0
POINT
  5
44901
330
44870
100
AcDbEntity
  8
DEFPOINTS
 62
     0
440
 16777216
100
AcDbPoint
 10
423.2175098931943
 20
80.41771913825312
 30
0.0
  0
ENDBLK
  5
44872
330
44870
100
AcDbEntity
  8
0
100
AcDbBlockEnd
  0
ENDSEC
  0
SECTION
  2
ENTITIES
  0
ARC
  5
44553
330
1F
100
AcDbEntity
  8
Web
  6
HIDDEN
100
AcDbCircle
 10
431.9675098931942
 20
55.43193095445265
 30
-0.0004318506061738
 40
0.3125
100
AcDbArc
 50
180.0
 51
270.0
  0
LINE
  5
44554
330
1F
100
AcDbEntity
  8
Web
  6
HIDDEN
100
AcDbLine
 10
431.6550098931942
 20
55.43193095445265
 30
-0.0004318506061738
 11
431.6550098931942
 21
55.86943095445265
 31
-0.0004318506061738
  0
ARC
  5
44555
330
1F
100
AcDbEntity
  8
Web
  6
HIDDEN
100
AcDbCircle
 10
430.9675098931943
 20
55.61943095445265
 30
-0.0004318506061738
 40
0.25
100
AcDbArc
 50
180.0
 51
0.0
  0
LINE
  5
44556
330
1F
100
AcDbEntity
  8
Web
  6
HIDDEN
100
AcDbLine
 10
430.7175098931942
 20
55.61943095445265
 30
-0.0004318506061738
 11
430.7175098931942
 21
55.86943095445265
 31
-0.0004318506061738
  0
LINE
  5
44557
330
1F
100
AcDbEntity
  8
Web
  6
HIDDEN
100
AcDbLine
 10
431.2175098931943
 20
55.61943095445265
 30
-0.0004318506061738
 11
431.2175098931943
 21
55.86943095445265
 31
-0.0004318506061738
  0
LINE
  5
44558
330
1F
100
AcDbEntity
  8
Web
  6
HIDDEN
100
AcDbLine
 10
428.7175098931943
 20
55.49443095445266
 30
-0.0004318506061738
 11
428.7175098931943
 21
55.86943095445265
 31
-0.0004318506061738
  0
LINE
  5
44559
330
1F
100
AcDbEntity
  8
Web
  6
HIDDEN
100
AcDbLine
 10
429.4675098931943
 20
55.49443095445266
 30
-0.0004318506061738
 11
429.4675098931943
 21
55.86943095445265
 31
-0.0004318506061738
  0
ARC
  5
4455A
330
1F
100
AcDbEntity
  8
Web
  6
HIDDEN
100
AcDbCircle
 10
429.0925098931943
 20
55.49443095445266
 30
-0.0004318506061738
 40
0.375
100
AcDbArc
 50
180.0
 51
0.0
  0
LINE
  5
4455B
330
1F
100
AcDbEntity
  8
Web
  6
HIDDEN
100
AcDbLine
 10
426.4448093869852
 20
55.86943095445267
 30
-0.0004318506061738
 11
425.9675098931943
 21
55.86943095445265
 31
-0.0004318506061738
  0
LINE
  5
4455C
330
1F
100
AcDbEntity
  8
Web
  6
HIDDEN
100
AcDbLine
 10
426.4448093869852
 20
54.02568095445267
 30
-0.0004318506061738
 11
426.4448093869852
 21
55.90068095445267
 31
-0.0004318506061738
  0
LINE
  5
4455D
330
1F
100
AcDbEntity
  8
Web
  6
HIDDEN
100
AcDbLine
 10
426.4448093869852
 20
54.02568095445267
 30
-0.0004318506061738
 11
427.1534707869851
 21
54.02568095445265
 31
-0.0004318506061738
  0
LINE
  5
4455E
330
1F
100
AcDbEntity
  8
Web
  6
HIDDEN
100
AcDbLine
 10
426.4448093869852
 20
55.90068095445267
 30
-0.0004318506061738
 11
427.1534707869851
 21
55.90068095445265
 31
-0.0004318506061738
  0
LINE
  5
4455F
330
1F
100
AcDbEntity
  8
Web
  6
HIDDEN
100
AcDbLine
 10
427.1534707869851
 20
55.90068095445265
 30
-0.0004318506061738
 11
427.1534707869851
 21
54.02568095445265
 31
-0.0004318506061738
  0
LINE
  5
44560
330
1F
100
AcDbEntity
  8
Web
  6
HIDDEN
100
AcDbLine
 10
427.1534707869851
 20
55.88505595445266
 30
-0.0004318506061738
 11
427.1534707869851
 21
54.04130595445265
 31
-0.0004318506061738
  0
LINE
  5
44561
330
1F
100
AcDbEntity
  8
Web
  6
HIDDEN
100
AcDbLine
 10
426.4448093869852
 20
54.05693095445265
 30
-0.0004318506061738
 11
425.9675098931943
 21
54.05693095445265
 31
-0.0004318506061738
  0
LINE
  5
44562
330
1F
100
AcDbEntity
  8
Web
  6
HIDDEN
100
AcDbLine
 10
427.1534707869851
 20
55.86943095445265
 30
-0.0004318506061738
 11
427.1534707869851
 21
54.05693095445265
 31
-0.0004318506061738
  0
LINE
  5
44563
330
1F
100
AcDbEntity
  8
Web
  6
HIDDEN
100
AcDbLine
 10
426.4448093869852
 20
50.93193095445265
 30
-0.0004318506061738
 11
425.9675098931943
 21
50.93193095445265
 31
-0.0004318506061738
  0
LINE
  5
44564
330
1F
100
AcDbEntity
  8
Web
  6
HIDDEN
100
AcDbLine
 10
426.4448093869852
 20
49.08818095445266
 30
-0.0004318506061738
 11
426.4448093869852
 21
50.96318095445266
 31
-0.0004318506061738
  0
LINE
  5
44565
330
1F
100
AcDbEntity
  8
Web
  6
HIDDEN
100
AcDbLine
 10
426.4448093869852
 20
49.08818095445266
 30
-0.0004318506061738
 11
427.1534707869851
 21
49.08818095445266
 31
-0.0004318506061738
  0
LINE
  5
44566
330
1F
100
AcDbEntity
  8
Web
  6
HIDDEN
100
AcDbLine
 10
426.4448093869852
 20
50.96318095445266
 30
-0.0004318506061738
 11
427.1534707869851
 21
50.96318095445266
 31
-0.0004318506061738
  0
LINE
  5
44567
330
1F
100
AcDbEntity
  8
Web
  6
HIDDEN
100
AcDbLine
 10
427.1534707869851
 20
50.96318095445266
 30
-0.0004318506061738
 11
427.1534707869851
 21
49.08818095445266
 31
-0.0004318506061738
  0
LINE
  5
44568
330
1F
100
AcDbEntity
  8
Web
  6
HIDDEN
100
AcDbLine
 10
427.1534707869851
 20
50.94755595445265
 30
-0.0004318506061738
 11
427.1534707869851
 21
49.10380595445265
 31
-0.0004318506061738
  0
LINE
  5
44569
330
1F
100
AcDbEntity
  8
Web
  6
HIDDEN
100
AcDbLine
 10
426.4448093869852
 20
49.11943095445266
 30
-0.0004318506061738
 11
425.9675098931943
 21
49.11943095445265
 31
-0.0004318506061738
  0
LINE
  5
4456A
330
1F
100
AcDbEntity
  8
Web
  6
HIDDEN
100
AcDbLine
 10
427.1534707869851
 20
50.93193095445265
 30
-0.0004318506061738
 11
427.1534707869851
 21
49.11943095445265
 31
-0.0004318506061738
  0
LINE
  5
4456B
330
1F
100
AcDbEntity
  8
Web
  6
HIDDEN
100
AcDbLine
 10
429.4675098931943
 20
55.86943095445265
 30
-0.0004318506061738
 11
430.7175098931942
 21
55.86943095445265
 31
-0.0004318506061738
  0
LINE
  5
4456C
330
1F
100
AcDbEntity
  8
Web
  6
HIDDEN
100
AcDbLine
 10
431.2175098931943
 20
55.86943095445265
 30
-0.0004318506061738
 11
431.6550098931942
 21
55.86943095445265
 31
-0.0004318506061738
  0
ARC
  5
4456D
330
1F
100
AcDbEntity
  8
Web
  6
HIDDEN
100
AcDbCircle
 10
431.9675098931942
 20
55.43193095445265
 30
-0.0004318506061738
 40
0.3125
100
AcDbArc
 50
270.0
 51
0.0
  0
LINE
  5
4456E
330
1F
100
AcDbEntity
  8
Web
  6
HIDDEN
100
AcDbLine
 10
432.2800098931942
 20
55.43193095445265
 30
-0.0004318506061738
 11
432.2800098931942
 21
55.86943095445265
 31
-0.0004318506061738
  0
ARC
  5
4456F
330
1F
100
AcDbEntity
  8
Web
  6
HIDDEN
100
AcDbCircle
 10
432.9675098931942
 20
55.61943095445265
 30
-0.0004318506061738
 40
0.25
100
AcDbArc
 50
180.0
 51
0.0
  0
LINE
  5
44570
330
1F
100
AcDbEntity
  8
Web
  6
HIDDEN
100
AcDbLine
 10
433.2175098931942
 20
55.61943095445265
 30
-0.0004318506061738
 11
433.2175098931942
 21
55.86943095445265
 31
-0.0004318506061738
  0
LINE
  5
44571
330
1F
100
AcDbEntity
  8
Web
  6
HIDDEN
100
AcDbLine
 10
432.7175098931943
 20
55.61943095445265
 30
-0.0004318506061738
 11
432.7175098931943
 21
55.86943095445265
 31
-0.0004318506061738
  0
LINE
  5
44572
330
1F
100
AcDbEntity
  8
Web
  6
HIDDEN
100
AcDbLine
 10
435.2175098931943
 20
55.49443095445266
 30
-0.0004318506061738
 11
435.2175098931943
 21
55.86943095445265
 31
-0.0004318506061738
  0
LINE
  5
44573
330
1F
100
AcDbEntity
  8
Web
  6
HIDDEN
100
AcDbLine
 10
434.4675098931943
 20
55.49443095445266
 30
-0.0004318506061738
 11
434.4675098931943
 21
55.86943095445265
 31
-0.0004318506061738
  0
ARC
  5
44574
330
1F
100
AcDbEntity
  8
Web
  6
HIDDEN
100
AcDbCircle
 10
434.8425098931943
 20
55.49443095445266
 30
-0.0004318506061738
 40
0.375
100
AcDbArc
 50
180.0
 51
0.0
  0
LINE
  5
44575
330
1F
100
AcDbEntity
  8
Web
  6
HIDDEN
100
AcDbLine
 10
434.4675098931943
 20
55.86943095445265
 30
-0.0004318506061738
 11
433.2175098931942
 21
55.86943095445265
 31
-0.0004318506061738
  0
LINE
  5
44576
330
1F
100
AcDbEntity
  8
Web
  6
HIDDEN
100
AcDbLine
 10
432.7175098931943
 20
55.86943095445265
 30
-0.0004318506061738
 11
432.2800098931942
 21
55.86943095445265
 31
-0.0004318506061738
  0
LINE
  5
44577
330
1F
100
AcDbEntity
  8
Web
  6
HIDDEN
100
AcDbLine
 10
437.4902103994034
 20
55.86943095445267
 30
-0.0004318506061738
 11
437.9675098931943
 21
55.86943095445265
 31
-0.0004318506061738
  0
LINE
  5
44578
330
1F
100
AcDbEntity
  8
Web
  6
HIDDEN
100
AcDbLine
 10
437.4902103994034
 20
54.02568095445267
 30
-0.0004318506061738
 11
437.4902103994034
 21
55.90068095445267
 31
-0.0004318506061738
  0
LINE
  5
44579
330
1F
100
AcDbEntity
  8
Web
  6
HIDDEN
100
AcDbLine
 10
437.4902103994034
 20
54.02568095445267
 30
-0.0004318506061738
 11
436.7815489994034
 21
54.02568095445265
 31
-0.0004318506061738
  0
LINE
  5
4457A
330
1F
100
AcDbEntity
  8
Web
  6
HIDDEN
100
AcDbLine
 10
437.4902103994034
 20
55.90068095445267
 30
-0.0004318506061738
 11
436.7815489994034
 21
55.90068095445265
 31
-0.0004318506061738
  0
LINE
  5
4457B
330
1F
100
AcDbEntity
  8
Web
  6
HIDDEN
100
AcDbLine
 10
436.7815489994034
 20
55.90068095445265
 30
-0.0004318506061738
 11
436.7815489994034
 21
54.02568095445265
 31
-0.0004318506061738
  0
LINE
  5
4457C
330
1F
100
AcDbEntity
  8
Web
  6
HIDDEN
100
AcDbLine
 10
436.7815489994034
 20
55.88505595445266
 30
-0.0004318506061738
 11
436.7815489994034
 21
54.04130595445265
 31
-0.0004318506061738
  0
LINE
  5
4457D
330
1F
100
AcDbEntity
  8
Web
  6
HIDDEN
100
AcDbLine
 10
437.4902103994034
 20
54.05693095445265
 30
-0.0004318506061738
 11
437.9675098931943
 21
54.05693095445265
 31
-0.0004318506061738
  0
LINE
  5
4457E
330
1F
100
AcDbEntity
  8
Web
  6
HIDDEN
100
AcDbLine
 10
436.7815489994034
 20
55.86943095445265
 30
-0.0004318506061738
 11
436.7815489994034
 21
54.05693095445265
 31
-0.0004318506061738
  0
LINE
  5
4457F
330
1F
100
AcDbEntity
  8
Web
  6
HIDDEN
100
AcDbLine
 10
437.4902103994034
 20
50.93193095445265
 30
-0.0004318506061738
 11
437.9675098931943
 21
50.93193095445265
 31
-0.0004318506061738
  0
LINE
  5
44580
330
1F
100
AcDbEntity
  8
Web
  6
HIDDEN
100
AcDbLine
 10
437.4902103994034
 20
49.08818095445266
 30
-0.0004318506061738
 11
437.4902103994034
 21
50.96318095445266
 31
-0.0004318506061738
  0
LINE
  5
44581
330
1F
100
AcDbEntity
  8
Web
  6
HIDDEN
100
AcDbLine
 10
437.4902103994034
 20
49.08818095445266
 30
-0.0004318506061738
 11
436.7815489994034
 21
49.08818095445266
 31
-0.0004318506061738
  0
LINE
  5
44582
330
1F
100
AcDbEntity
  8
Web
  6
HIDDEN
100
AcDbLine
 10
437.4902103994034
 20
50.96318095445266
 30
-0.0004318506061738
 11
436.7815489994034
 21
50.96318095445266
 31
-0.0004318506061738
  0
LINE
  5
44583
330
1F
100
AcDbEntity
  8
Web
  6
HIDDEN
100
AcDbLine
 10
436.7815489994034
 20
50.96318095445266
 30
-0.0004318506061738
 11
436.7815489994034
 21
49.08818095445266
 31
-0.0004318506061738
  0
LINE
  5
44584
330
1F
100
AcDbEntity
  8
Web
  6
HIDDEN
100
AcDbLine
 10
436.7815489994034
 20
50.94755595445265
 30
-0.0004318506061738
 11
436.7815489994034
 21
49.10380595445265
 31
-0.0004318506061738
  0
LINE
  5
44585
330
1F
100
AcDbEntity
  8
Web
  6
HIDDEN
100
AcDbLine
 10
437.4902103994034
 20
49.11943095445266
 30
-0.0004318506061738
 11
437.9675098931943
 21
49.11943095445265
 31
-0.0004318506061738
  0
LINE
  5
44586
330
1F
100
AcDbEntity
  8
Web
  6
HIDDEN
100
AcDbLine
 10
436.7815489994034
 20
50.93193095445265
 30
-0.0004318506061738
 11
436.7815489994034
 21
49.11943095445265
 31
-0.0004318506061738
  0
LINE
  5
44587
330
1F
100
AcDbEntity
  8
Web
  6
HIDDEN
100
AcDbLine
 10
427.1534707869851
 20
55.86943095445267
 30
-0.0004318506061738
 11
428.7175098931943
 21
55.86943095445268
 31
-0.0004318506061738
  0
LINE
  5
44588
330
1F
100
AcDbEntity
  8
Web
  6
HIDDEN
100
AcDbLine
 10
435.2175098931943
 20
55.86943095445267
 30
-0.0004318506061738
 11
436.7815489994034
 21
55.86943095445268
 31
-0.0004318506061738
  0
LINE
  5
44589
330
1F
100
AcDbEntity
  8
Web
  6
HIDDEN
100
AcDbLine
 10
427.1534707869851
 20
54.05693095445267
 30
-0.0004318506061738
 11
436.7815489994034
 21
54.05693095445264
 31
-0.0004318506061738
  0
ARC
  5
4458A
330
1F
100
AcDbEntity
  8
Web
  6
HIDDEN
100
AcDbCircle
 10
431.9675098931942
 20
50.49443095445266
 30
-0.0004318506061738
 40
0.3125
100
AcDbArc
 50
180.0
 51
270.0
  0
LINE
  5
4458B
330
1F
100
AcDbEntity
  8
Web
  6
HIDDEN
100
AcDbLine
 10
431.6550098931942
 20
50.49443095445266
 30
-0.0004318506061738
 11
431.6550098931942
 21
50.93193095445265
 31
-0.0004318506061738
  0
ARC
  5
4458C
330
1F
100
AcDbEntity
  8
Web
  6
HIDDEN
100
AcDbCircle
 10
430.9675098931942
 20
50.68193095445265
 30
-0.0004318506061738
 40
0.25
100
AcDbArc
 50
180.0
 51
0.0
  0
LINE
  5
4458D
330
1F
100
AcDbEntity
  8
Web
  6
HIDDEN
100
AcDbLine
 10
430.7175098931942
 20
50.68193095445265
 30
-0.0004318506061738
 11
430.7175098931942
 21
50.93193095445265
 31
-0.0004318506061738
  0
LINE
  5
4458E
330
1F
100
AcDbEntity
  8
Web
  6
HIDDEN
100
AcDbLine
 10
431.2175098931942
 20
50.68193095445265
 30
-0.0004318506061738
 11
431.2175098931942
 21
50.93193095445265
 31
-0.0004318506061738
  0
LINE
  5
4458F
330
1F
100
AcDbEntity
  8
Web
  6
HIDDEN
100
AcDbLine
 10
428.7175098931942
 20
50.55693095445265
 30
-0.0004318506061738
 11
428.7175098931942
 21
50.93193095445265
 31
-0.0004318506061738
  0
LINE
  5
44590
330
1F
100
AcDbEntity
  8
Web
  6
HIDDEN
100
AcDbLine
 10
429.4675098931942
 20
50.55693095445265
 30
-0.0004318506061738
 11
429.4675098931942
 21
50.93193095445265
 31
-0.0004318506061738
  0
ARC
  5
44591
330
1F
100
AcDbEntity
  8
Web
  6
HIDDEN
100
AcDbCircle
 10
429.0925098931942
 20
50.55693095445265
 30
-0.0004318506061738
 40
0.375
100
AcDbArc
 50
180.0
 51
0.0
  0
LINE
  5
44592
330
1F
100
AcDbEntity
  8
Web
  6
HIDDEN
100
AcDbLine
 10
429.4675098931942
 20
50.93193095445265
 30
-0.0004318506061738
 11
430.7175098931942
 21
50.93193095445265
 31
-0.0004318506061738
  0
LINE
  5
44593
330
1F
100
AcDbEntity
  8
Web
  6
HIDDEN
100
AcDbLine
 10
431.2175098931942
 20
50.93193095445265
 30
-0.0004318506061738
 11
431.6550098931942
 21
50.93193095445265
 31
-0.0004318506061738
  0
ARC
  5
44594
330
1F
100
AcDbEntity
  8
Web
  6
HIDDEN
100
AcDbCircle
 10
431.9675098931942
 20
50.49443095445266
 30
-0.0004318506061738
 40
0.3125
100
AcDbArc
 50
270.0
 51
0.0
  0
LINE
  5
44595
330
1F
100
AcDbEntity
  8
Web
  6
HIDDEN
100
AcDbLine
 10
432.2800098931942
 20
50.49443095445266
 30
-0.0004318506061738
 11
432.2800098931942
 21
50.93193095445265
 31
-0.0004318506061738
  0
ARC
  5
44596
330
1F
100
AcDbEntity
  8
Web
  6
HIDDEN
100
AcDbCircle
 10
432.9675098931942
 20
50.68193095445265
 30
-0.0004318506061738
 40
0.25
100
AcDbArc
 50
180.0
 51
0.0
  0
LINE
  5
44597
330
1F
100
AcDbEntity
  8
Web
  6
HIDDEN
100
AcDbLine
 10
433.2175098931942
 20
50.68193095445265
 30
-0.0004318506061738
 11
433.2175098931942
 21
50.93193095445265
 31
-0.0004318506061738
  0
LINE
  5
44598
330
1F
100
AcDbEntity
  8
Web
  6
HIDDEN
100
AcDbLine
 10
432.7175098931942
 20
50.68193095445265
 30
-0.0004318506061738
 11
432.7175098931942
 21
50.93193095445265
 31
-0.0004318506061738
  0
LINE
  5
44599
330
1F
100
AcDbEntity
  8
Web
  6
HIDDEN
100
AcDbLine
 10
435.2175098931942
 20
50.55693095445265
 30
-0.0004318506061738
 11
435.2175098931942
 21
50.93193095445265
 31
-0.0004318506061738
  0
LINE
  5
4459A
330
1F
100
AcDbEntity
  8
Web
  6
HIDDEN
100
AcDbLine
 10
434.4675098931942
 20
50.55693095445265
 30
-0.0004318506061738
 11
434.4675098931942
 21
50.93193095445265
 31
-0.0004318506061738
  0
ARC
  5
4459B
330
1F
100
AcDbEntity
  8
Web
  6
HIDDEN
100
AcDbCircle
 10
434.8425098931942
 20
50.55693095445265
 30
-0.0004318506061738
 40
0.375
100
AcDbArc
 50
180.0
 51
0.0
  0
LINE
  5
4459C
330
1F
100
AcDbEntity
  8
Web
  6
HIDDEN
100
AcDbLine
 10
434.4675098931942
 20
50.93193095445265
 30
-0.0004318506061738
 11
433.2175098931942
 21
50.93193095445265
 31
-0.0004318506061738
  0
LINE
  5
4459D
330
1F
100
AcDbEntity
  8
Web
  6
HIDDEN
100
AcDbLine
 10
432.7175098931942
 20
50.93193095445265
 30
-0.0004318506061738
 11
432.2800098931942
 21
50.93193095445265
 31
-0.0004318506061738
  0
LINE
  5
4459E
330
1F
100
AcDbEntity
  8
Web
  6
HIDDEN
100
AcDbLine
 10
427.1534707869851
 20
50.93193095445267
 30
-0.0004318506061738
 11
428.7175098931942
 21
50.93193095445268
 31
-0.0004318506061738
  0
LINE
  5
4459F
330
1F
100
AcDbEntity
  8
Web
  6
HIDDEN
100
AcDbLine
 10
435.2175098931942
 20
50.93193095445267
 30
-0.0004318506061738
 11
436.7815489994034
 21
50.93193095445268
 31
-0.0004318506061738
  0
LINE
  5
445A0
330
1F
100
AcDbEntity
  8
Web
  6
HIDDEN
100
AcDbLine
 10
427.153470786985
 20
49.11943095445266
 30
-0.0004318506061738
 11
436.7815489994034
 21
49.11943095445264
 31
-0.0004318506061738
  0
LINE
  5
445A1
330
1F
100
AcDbEntity
  8
Web
  6
HIDDEN
100
AcDbLine
 10
436.7815489994034
 20
54.85380595445265
 30
-0.0004318506061738
 11
436.7815489994034
 21
55.07255595445265
 31
-0.0004318506061738
  0
LINE
  5
445A2
330
1F
100
AcDbEntity
  8
Web
  6
HIDDEN
100
AcDbLine
 10
427.1534707869852
 20
54.85380595445265
 30
-0.0004318506061738
 11
427.1534707869852
 21
55.07255595445265
 31
-0.0004318506061738
  0
LINE
  5
445A3
330
1F
100
AcDbEntity
  8
Web
  6
HIDDEN
100
AcDbLine
 10
426.4448093869851
 20
55.10380595445266
 30
-0.0004318506061738
 11
426.4448093869851
 21
54.82255595445265
 31
-0.0004318506061738
  0
LINE
  5
445A4
330
1F
100
AcDbEntity
  8
Web
  6
HIDDEN
100
AcDbLine
 10
426.1298493869851
 20
55.10380595445266
 30
-0.0004318506061738
 11
426.1298493869851
 21
54.82255595445265
 31
-0.0004318506061738
  0
LINE
  5
445A5
330
1F
100
AcDbEntity
  8
Web
  6
HIDDEN
100
AcDbLine
 10
426.4448093869852
 20
55.10380595445264
 30
-0.0004318506061738
 11
426.1298493869851
 21
55.10380595445266
 31
-0.0004318506061738
  0
LINE
  5
445A6
330
1F
100
AcDbEntity
  8
Web
  6
HIDDEN
100
AcDbLine
 10
426.4448093869852
 20
54.82255595445265
 30
-0.0004318506061738
 11
426.1298493869851
 21
54.82255595445265
 31
-0.0004318506061738
  0
LINE
  5
445A7
330
1F
100
AcDbEntity
  8
Web
  6
HIDDEN
100
AcDbLine
 10
426.1047500869852
 20
55.18193095445266
 30
-0.0004318506061738
 11
426.1047500869852
 21
54.74443095445265
 31
-0.0004318506061738
  0
LINE
  5
445A8
330
1F
100
AcDbEntity
  8
Web
  6
HIDDEN
100
AcDbLine
 10
426.2922500869851
 20
55.18193095445269
 30
-0.0004318506061738
 11
426.2922500869851
 21
55.10380595445266
 31
-0.0004318506061738
  0
LINE
  5
445A9
330
1F
100
AcDbEntity
  8
Web
  6
HIDDEN
100
AcDbLine
 10
426.2922500869851
 20
54.82255595445264
 30
-0.0004318506061738
 11
426.2922500869851
 21
54.74443095445268
 31
-0.0004318506061738
  0
LINE
  5
445AA
330
1F
100
AcDbEntity
  8
Web
  6
HIDDEN
100
AcDbLine
 10
426.2922500869852
 20
55.18193095445268
 30
-0.0004318506061738
 11
426.1047500869851
 21
55.18193095445266
 31
-0.0004318506061738
  0
LINE
  5
445AB
330
1F
100
AcDbEntity
  8
Web
  6
HIDDEN
100
AcDbLine
 10
426.2922500869851
 20
54.74443095445268
 30
-0.0004318506061738
 11
426.1047500869851
 21
54.74443095445266
 31
-0.0004318506061738
  0
LINE
  5
445AC
330
1F
100
AcDbEntity
  8
Web
  6
HIDDEN
100
AcDbLine
 10
437.8302696994033
 20
55.18193095445266
 30
-0.0004318506061738
 11
437.8302696994033
 21
54.74443095445265
 31
-0.0004318506061738
  0
LINE
  5
445AD
330
1F
100
AcDbEntity
  8
Web
  6
HIDDEN
100
AcDbLine
 10
437.6427696994034
 20
55.18193095445269
 30
-0.0004318506061738
 11
437.6427696994034
 21
55.10380595445266
 31
-0.0004318506061738
  0
LINE
  5
445AE
330
1F
100
AcDbEntity
  8
Web
  6
HIDDEN
100
AcDbLine
 10
437.6427696994034
 20
54.82255595445264
 30
-0.0004318506061738
 11
437.6427696994034
 21
54.74443095445268
 31
-0.0004318506061738
  0
LINE
  5
445AF
330
1F
100
AcDbEntity
  8
Web
  6
HIDDEN
100
AcDbLine
 10
437.6427696994033
 20
55.18193095445268
 30
-0.0004318506061738
 11
437.8302696994033
 21
55.18193095445266
 31
-0.0004318506061738
  0
LINE
  5
445B0
330
1F
100
AcDbEntity
  8
Web
  6
HIDDEN
100
AcDbLine
 10
437.6427696994034
 20
54.74443095445268
 30
-0.0004318506061738
 11
437.8302696994033
 21
54.74443095445266
 31
-0.0004318506061738
  0
LINE
  5
445B1
330
1F
100
AcDbEntity
  8
Web
  6
HIDDEN
100
AcDbLine
 10
437.8051703994033
 20
55.10380595445266
 30
-0.0004318506061738
 11
437.8051703994034
 21
54.82255595445265
 31
-0.0004318506061738
  0
LINE
  5
445B2
330
1F
100
AcDbEntity
  8
Web
  6
HIDDEN
100
AcDbLine
 10
437.4902103994034
 20
55.10380595445264
 30
-0.0004318506061738
 11
437.8051703994033
 21
55.10380595445266
 31
-0.0004318506061738
  0
LINE
  5
445B3
330
1F
100
AcDbEntity
  8
Web
  6
HIDDEN
100
AcDbLine
 10
437.4902103994034
 20
54.82255595445265
 30
-0.0004318506061738
 11
437.8051703994033
 21
54.82255595445265
 31
-0.0004318506061738
  0
LINE
  5
445B4
330
1F
100
AcDbEntity
  8
Web
  6
HIDDEN
100
AcDbLine
 10
426.4448093869852
 20
50.16630595445265
 30
-0.0004318506061738
 11
426.4448093869852
 21
49.88505595445265
 31
-0.0004318506061738
  0
LINE
  5
445B5
330
1F
100
AcDbEntity
  8
Web
  6
HIDDEN
100
AcDbLine
 10
426.1298493869852
 20
50.16630595445265
 30
-0.0004318506061738
 11
426.1298493869851
 21
49.88505595445265
 31
-0.0004318506061738
  0
LINE
  5
445B6
330
1F
100
AcDbEntity
  8
Web
  6
HIDDEN
100
AcDbLine
 10
426.4448093869852
 20
50.16630595445263
 30
-0.0004318506061738
 11
426.1298493869852
 21
50.16630595445265
 31
-0.0004318506061738
  0
LINE
  5
445B7
330
1F
100
AcDbEntity
  8
Web
  6
HIDDEN
100
AcDbLine
 10
426.4448093869852
 20
49.88505595445265
 30
-0.0004318506061738
 11
426.1298493869852
 21
49.88505595445265
 31
-0.0004318506061738
  0
LINE
  5
445B8
330
1F
100
AcDbEntity
  8
Web
  6
HIDDEN
100
AcDbLine
 10
426.2922500869852
 20
50.2444309544527
 30
-0.0004318506061738
 11
426.2922500869852
 21
50.16630595445265
 31
-0.0004318506061738
  0
LINE
  5
445B9
330
1F
100
AcDbEntity
  8
Web
  6
HIDDEN
100
AcDbLine
 10
426.2922500869852
 20
49.88505595445264
 30
-0.0004318506061738
 11
426.2922500869852
 21
49.80693095445268
 31
-0.0004318506061738
  0
LINE
  5
445BA
330
1F
100
AcDbEntity
  8
Web
  6
HIDDEN
100
AcDbLine
 10
426.2922500869852
 20
50.24443095445268
 30
-0.0004318506061738
 11
426.1047500869852
 21
50.24443095445265
 31
-0.0004318506061738
  0
LINE
  5
445BB
330
1F
100
AcDbEntity
  8
Web
  6
HIDDEN
100
AcDbLine
 10
426.2922500869852
 20
49.80693095445268
 30
-0.0004318506061738
 11
426.1047500869852
 21
49.80693095445267
 31
-0.0004318506061738
  0
LINE
  5
445BC
330
1F
100
AcDbEntity
  8
Web
  6
HIDDEN
100
AcDbLine
 10
437.8302696994034
 20
50.24443095445267
 30
-0.0004318506061738
 11
437.8302696994034
 21
49.80693095445265
 31
-0.0004318506061738
  0
LINE
  5
445BD
330
1F
100
AcDbEntity
  8
Web
  6
HIDDEN
100
AcDbLine
 10
437.6427696994034
 20
50.2444309544527
 30
-0.0004318506061738
 11
437.6427696994034
 21
50.16630595445265
 31
-0.0004318506061738
  0
LINE
  5
445BE
330
1F
100
AcDbEntity
  8
Web
  6
HIDDEN
100
AcDbLine
 10
437.6427696994034
 20
49.88505595445264
 30
-0.0004318506061738
 11
437.6427696994034
 21
49.80693095445268
 31
-0.0004318506061738
  0
LINE
  5
445BF
330
1F
100
AcDbEntity
  8
Web
  6
HIDDEN
100
AcDbLine
 10
437.6427696994034
 20
50.24443095445268
 30
-0.0004318506061738
 11
437.8302696994034
 21
50.24443095445265
 31
-0.0004318506061738
  0
LINE
  5
445C0
330
1F
100
AcDbEntity
  8
Web
  6
HIDDEN
100
AcDbLine
 10
437.6427696994035
 20
49.80693095445268
 30
-0.0004318506061738
 11
437.8302696994034
 21
49.80693095445267
 31
-0.0004318506061738
  0
LINE
  5
445C1
330
1F
100
AcDbEntity
  8
Web
  6
HIDDEN
100
AcDbLine
 10
437.8051703994034
 20
50.16630595445265
 30
-0.0004318506061738
 11
437.8051703994034
 21
49.88505595445265
 31
-0.0004318506061738
  0
LINE
  5
445C2
330
1F
100
AcDbEntity
  8
Web
  6
HIDDEN
100
AcDbLine
 10
437.4902103994034
 20
50.16630595445263
 30
-0.0004318506061738
 11
437.8051703994034
 21
50.16630595445265
 31
-0.0004318506061738
  0
LINE
  5
445C3
330
1F
100
AcDbEntity
  8
Web
  6
HIDDEN
100
AcDbLine
 10
437.4902103994034
 20
49.88505595445265
 30
-0.0004318506061738
 11
437.8051703994034
 21
49.88505595445265
 31
-0.0004318506061738
  0
ARC
  5
445C4
330
1F
100
AcDbEntity
  8
Web
370
     0
100
AcDbCircle
 10
424.1886690869852
 20
57.3468079033106
 30
-0.0004318506061738
 40
0.1
100
AcDbArc
 50
180.0
 51
219.9999963775114
  0
LINE
  5
445C5
330
1F
100
AcDbEntity
  8
Web
  6
HIDDEN
370
     0
100
AcDbLine
 10
437.9675098931945
 20
56.15443095445275
 30
-0.0004318506061738
 11
437.9675098931945
 21
56.04443095445276
 31
-0.0004318506061738
  0
HATCH
  5
445C6
330
1F
100
AcDbEntity
  8
Hatch
100
AcDbHatch
 10
0.0
 20
0.0
 30
-0.0004318506061738
210
0.0
220
0.0
230
1.0
  2
SACNCR
 70
     0
 71
     0
 91
        2
 92
        1
 93
        4
 72
     1
 10
437.9675098931943
 20
44.49443095445264
 11
437.9675098931943
 21
60.49443095445264
 72
     1
 10
437.9675098931943
 20
60.49443095445264
 11
440.7175098931943
 21
60.49443095445264
 72
     1
 10
440.7175098931943
 20
60.49443095445264
 11
440.7175098931943
 21
44.49443095445264
 72
     1
 10
440.7175098931943
 20
44.49443095445264
 11
437.9675098931943
 21
44.49443095445264
 97
        0
 92
        1
 93
        4
 72
     1
 10
425.9675098931943
 20
60.49443095445264
 11
425.9675098931943
 21
44.49443095445264
 72
     1
 10
425.9675098931943
 20
44.49443095445264
 11
423.2175098931943
 21
44.49443095445264
 72
     1
 10
423.2175098931943
 20
44.49443095445264
 11
423.2175098931943
 21
60.49443095445264
 72
     1
 10
423.2175098931943
 20
60.49443095445264
 11
425.9675098931943
 21
60.49443095445264
 97
        0
 75
     0
 76
     1
 52
0.0
 41
10.0
 77
     0
 78
     2
 53
45.0
 43
364.6048711963024
 44
20.1383465460225
 45
-0.6629126073623883
 46
0.6629126073623884
 79
     0
 53
45.0
 43
365.2677838063024
 44
20.1383465460225
 45
-0.6629126073623883
 46
0.6629126073623884
 79
     2
 49
0.0
 49
-0.9375
 98
        1
 10
243.3368457596246
 20
-8.652412898492144
1001
ACAD
1010
0.0
1020
0.0
1030
0.0
  0
HATCH
  5
445C7
330
1F
100
AcDbEntity
  8
Conc
100
AcDbHatch
 10
0.0
 20
0.0
 30
0.0
210
0.0
220
0.0
230
1.0
  2
AR-CONC
 70
     0
 71
     0
 91
        3
 92
        1
 93
        3
 72
     1
 10
434.9959359173086
 20
28.54675013546405
 11
434.9637366569133
 21
28.54448457178289
 72
     1
 10
434.9637366569133
 20
28.54448457178289
 11
435.0107326968488
 21
28.54777259261295
 72
     1
 10
435.0107326968488
 20
28.54777259261295
 11
434.9959359173086
 21
28.54675013546405
 97
        0
 92
        1
 93
        3
 72
     1
 10
431.7831394300135
 20
28.57575187187801
 11
431.7732087281525
 21
28.57458651313247
 72
     1
 10
431.7732087281525
 20
28.57458651313247
 11
431.7362965445129
 21
28.57020957177711
 72
     1
 10
431.7362965445129
 20
28.57020957177711
 11
431.7831394300135
 21
28.57575187187801
 97
        0
 92
        1
 93
       16
 72
     1
 10
432.9675098931941
 20
95.68738383338342
 11
429.9675098931944
 21
95.6873838333834
 72
     1
 10
429.9675098931944
 20
95.6873838333834
 11
429.9675098931943
 21
76.49443095445263
 72
     1
 10
429.9675098931943
 20
76.49443095445263
 11
423.2175098931943
 21
76.49443095445263
 72
     1
 10
423.2175098931943
 20
76.49443095445263
 11
423.2175098931943
 21
68.49443095445264
 72
     1
 10
423.2175098931943
 20
68.49443095445264
 11
425.9675098931943
 21
68.49443095445264
 72
     1
 10
425.9675098931943
 20
68.49443095445264
 11
425.9675098931943
 21
38.63097315110071
 72
     1
 10
425.9675098931943
 20
38.63097315110071
 11
430.9675098931942
 21
38.63097315110071
 72
     1
 10
430.9675098931942
 20
38.63097315110071
 11
431.4675098931984
 21
37.2572344413727
 72
     1
 10
431.4675098931984
 20
37.2572344413727
 11
432.4675098931985
 21
40.00471186082791
 72
     1
 10
432.4675098931985
 20
40.00471186082791
 11
432.9675098931942
 21
38.63097315110071
 72
     1
 10
432.9675098931942
 20
38.63097315110071
 11
437.9675098931943
 21
38.63097315110071
 72
     1
 10
437.9675098931943
 20
38.63097315110071
 11
437.9675098931943
 21
95.68738383338342
 72
     1
 10
437.9675098931943
 20
95.68738383338342
 11
434.9675098931941
 21
95.68738383338342
 72
     1
 10
434.9675098931941
 20
95.68738383338342
 11
434.4675098931957
 21
97.06112254312394
 72
     1
 10
434.4675098931957
 20
97.06112254312394
 11
433.4675098931984
 21
94.31364512365687
 72
     1
 10
433.4675098931984
 20
94.31364512365687
 11
432.9675098931941
 21
95.68738383338342
 97
        0
 75
     0
 76
     1
 52
0.0
 41
1.0
 77
     0
 78
    13
 53
50.0
 43
134.4759962470127
 44
0.0
 45
7.172601826007534
 46
-0.6275213498259511
 79
     2
 49
0.75
 49
-8.25
 53
355.0
 43
134.4759962470127
 44
0.0
 45
-1.38751333613
 46
7.521921337000118
 79
     2
 49
0.6
 49
-6.599999999999999
 53
100.4514
 43
135.0737130470127
 44
-0.0522934
 45
5.785093817140215
 46
6.894395420609535
 79
     2
 49
0.6374019000000001
 49
-7.011421119999999
 53
46.1842
 43
134.4759962470127
 44
2.0
 45
10.67241048625644
 46
-1.65519014329018
 79
     2
 49
1.125
 49
-12.375
 53
96.63559999999998
 43
135.3653636970127
 44
1.862066929999999
 45
9.346627055487033
 46
9.741178709004417
 79
     2
 49
0.9561028799999998
 49
-10.51713
 53
351.1842000000001
 43
134.4759962470127
 44
2.0
 45
9.346619451336271
 46
9.741186009253246
 79
     2
 49
0.9
 49
-9.9
 53
21.0
 43
135.4759962470127
 44
1.5
 45
5.969070521184616
 46
-4.026188906653388
 79
     2
 49
0.75
 49
-8.25
 53
326.0
 43
135.4759962470127
 44
1.5
 45
2.433153319215817
 46
7.25150045046853
 79
     2
 49
0.6
 49
-6.599999999999999
 53
71.45140000000001
 43
135.9734185770127
 44
1.164483939999999
 45
8.402226285814899
 46
3.225304967099523
 79
     2
 49
0.6374019000000001
 49
-7.011421119999999
 53
37.5
 43
134.4759962470127
 44
0.0
 45
0.1215985531729067
 46
3.328938538313114
 79
     6
 49
0.0
 49
-6.519999999999999
 49
0.0
 49
-6.7
 49
0.0
 49
-6.625
 53
7.499999999999999
 43
134.4759962470127
 44
0.0
 45
2.630695374421486
 46
3.944117118823602
 79
     6
 49
0.0
 49
-3.819999999999999
 49
0.0
 49
-6.37
 49
0.0
 49
-2.524999999999999
 53
327.5
 43
132.2459962470127
 44
0.0
 45
5.33822436172409
 46
-0.225548717343798
 79
     6
 49
0.0
 49
-2.5
 49
0.0
 49
-7.799999999999999
 49
0.0
 49
-10.35
 53
317.5
 43
131.2459962470127
 44
0.0
 45
5.831861693423862
 46
1.001049823323176
 79
     6
 49
0.0
 49
-3.25
 49
0.0
 49
-5.179999999999999
 49
0.0
 49
-7.349999999999999
 98
        1
 10
432.3274907347257
 20
63.73348249945652
1001
ACAD
1010
0.0
1020
0.0
1030
0.0
  0
LINE
  5
445C8
330
1F
100
AcDbEntity
  8
Block
100
AcDbLine
 10
425.9675098931943
 20
60.49443095445264
 30
-0.0004318506061738
 11
425.9675098931943
 21
44.49443095445264
 31
-0.0004318506061738
  0
LINE
  5
445C9
330
1F
100
AcDbEntity
  8
Block
100
AcDbLine
 10
423.2175098931943
 20
60.49443095445264
 30
-0.0004318506061738
 11
423.2175098931943
 21
44.49443095445264
 31
-0.0004318506061738
  0
LINE
  5
445CA
330
1F
100
AcDbEntity
  8
Block
100
AcDbLine
 10
425.9675098931943
 20
44.49443095445264
 30
-0.0004318506061738
 11
423.2175098931943
 21
44.49443095445264
 31
-0.0004318506061738
  0
LINE
  5
445CB
330
1F
100
AcDbEntity
  8
Block
100
AcDbLine
 10
440.7175098931943
 20
60.49443095445264
 30
-0.0004318506061738
 11
440.7175098931943
 21
44.49443095445264
 31
-0.0004318506061738
  0
LINE
  5
445CC
330
1F
100
AcDbEntity
  8
Block
100
AcDbLine
 10
440.7175098931943
 20
44.49443095445264
 30
-0.0004318506061738
 11
437.9675098931943
 21
44.49443095445264
 31
-0.0004318506061738
  0
LINE
  5
445CD
330
1F
100
AcDbEntity
  8
Block
100
AcDbLine
 10
437.9675098931943
 20
44.49443095445264
 30
-0.0004318506061738
 11
437.9675098931943
 21
60.49443095445264
 31
-0.0004318506061738
  0
LINE
  5
445CE
330
1F
100
AcDbEntity
  8
Block
100
AcDbLine
 10
425.9675098931943
 20
60.49443095445264
 30
-0.0004318506061738
 11
423.2175098931943
 21
60.49443095445264
 31
-0.0004318506061738
  0
LINE
  5
445CF
330
1F
100
AcDbEntity
  8
Block
100
AcDbLine
 10
440.7175098931943
 20
60.49443095445264
 30
-0.0004318506061738
 11
437.9675098931943
 21
60.49443095445264
 31
-0.0004318506061738
  0
ARC
  5
445D0
330
1F
100
AcDbEntity
  8
Web
  6
HIDDEN
100
AcDbCircle
 10
431.9675098931942
 20
71.43193095445264
 30
-0.0004318506061738
 40
0.3125
100
AcDbArc
 50
180.0
 51
270.0
  0
LINE
  5
445D1
330
1F
100
AcDbEntity
  8
Web
  6
HIDDEN
100
AcDbLine
 10
431.6550098931942
 20
71.43193095445264
 30
-0.0004318506061738
 11
431.6550098931942
 21
71.86943095445264
 31
-0.0004318506061738
  0
ARC
  5
445D2
330
1F
100
AcDbEntity
  8
Web
  6
HIDDEN
100
AcDbCircle
 10
430.9675098931943
 20
71.61943095445264
 30
-0.0004318506061738
 40
0.25
100
AcDbArc
 50
180.0
 51
0.0
  0
LINE
  5
445D3
330
1F
100
AcDbEntity
  8
Web
  6
HIDDEN
100
AcDbLine
 10
430.7175098931942
 20
71.61943095445264
 30
-0.0004318506061738
 11
430.7175098931942
 21
71.86943095445264
 31
-0.0004318506061738
  0
LINE
  5
445D4
330
1F
100
AcDbEntity
  8
Web
  6
HIDDEN
100
AcDbLine
 10
431.2175098931943
 20
71.61943095445264
 30
-0.0004318506061738
 11
431.2175098931943
 21
71.86943095445264
 31
-0.0004318506061738
  0
LINE
  5
445D5
330
1F
100
AcDbEntity
  8
Web
  6
HIDDEN
100
AcDbLine
 10
428.7175098931943
 20
71.49443095445263
 30
-0.0004318506061738
 11
428.7175098931943
 21
71.86943095445264
 31
-0.0004318506061738
  0
LINE
  5
445D6
330
1F
100
AcDbEntity
  8
Web
  6
HIDDEN
100
AcDbLine
 10
429.4675098931943
 20
71.49443095445263
 30
-0.0004318506061738
 11
429.4675098931943
 21
71.86943095445264
 31
-0.0004318506061738
  0
ARC
  5
445D7
330
1F
100
AcDbEntity
  8
Web
  6
HIDDEN
100
AcDbCircle
 10
429.0925098931943
 20
71.49443095445263
 30
-0.0004318506061738
 40
0.375
100
AcDbArc
 50
180.0
 51
0.0
  0
LINE
  5
445D8
330
1F
100
AcDbEntity
  8
Web
  6
HIDDEN
100
AcDbLine
 10
426.4448093869852
 20
71.86943095445267
 30
-0.0004318506061738
 11
425.9675098931943
 21
71.86943095445264
 31
-0.0004318506061738
  0
LINE
  5
445D9
330
1F
100
AcDbEntity
  8
Web
  6
HIDDEN
100
AcDbLine
 10
426.4448093869852
 20
70.02568095445266
 30
-0.0004318506061738
 11
426.4448093869852
 21
71.90068095445266
 31
-0.0004318506061738
  0
LINE
  5
445DA
330
1F
100
AcDbEntity
  8
Web
  6
HIDDEN
100
AcDbLine
 10
426.4448093869852
 20
70.02568095445266
 30
-0.0004318506061738
 11
427.1534707869851
 21
70.02568095445264
 31
-0.0004318506061738
  0
LINE
  5
445DB
330
1F
100
AcDbEntity
  8
Web
  6
HIDDEN
100
AcDbLine
 10
426.4448093869852
 20
71.90068095445266
 30
-0.0004318506061738
 11
427.1534707869851
 21
71.90068095445264
 31
-0.0004318506061738
  0
LINE
  5
445DC
330
1F
100
AcDbEntity
  8
Web
  6
HIDDEN
100
AcDbLine
 10
427.1534707869851
 20
71.90068095445264
 30
-0.0004318506061738
 11
427.1534707869851
 21
70.02568095445264
 31
-0.0004318506061738
  0
LINE
  5
445DD
330
1F
100
AcDbEntity
  8
Web
  6
HIDDEN
100
AcDbLine
 10
427.1534707869851
 20
71.88505595445263
 30
-0.0004318506061738
 11
427.1534707869851
 21
70.04130595445264
 31
-0.0004318506061738
  0
LINE
  5
445DE
330
1F
100
AcDbEntity
  8
Web
  6
HIDDEN
100
AcDbLine
 10
426.4448093869852
 20
70.05693095445264
 30
-0.0004318506061738
 11
425.9675098931943
 21
70.05693095445264
 31
-0.0004318506061738
  0
LINE
  5
445DF
330
1F
100
AcDbEntity
  8
Web
  6
HIDDEN
100
AcDbLine
 10
427.1534707869851
 20
71.86943095445264
 30
-0.0004318506061738
 11
427.1534707869851
 21
70.05693095445264
 31
-0.0004318506061738
  0
LINE
  5
445E0
330
1F
100
AcDbEntity
  8
Web
  6
HIDDEN
100
AcDbLine
 10
426.4448093869852
 20
66.93193095445264
 30
-0.0004318506061738
 11
425.9675098931943
 21
66.93193095445264
 31
-0.0004318506061738
  0
LINE
  5
445E1
330
1F
100
AcDbEntity
  8
Web
  6
HIDDEN
100
AcDbLine
 10
426.4448093869852
 20
65.08818095445267
 30
-0.0004318506061738
 11
426.4448093869852
 21
66.96318095445267
 31
-0.0004318506061738
  0
LINE
  5
445E2
330
1F
100
AcDbEntity
  8
Web
  6
HIDDEN
100
AcDbLine
 10
426.4448093869852
 20
65.08818095445267
 30
-0.0004318506061738
 11
427.1534707869851
 21
65.08818095445263
 31
-0.0004318506061738
  0
LINE
  5
445E3
330
1F
100
AcDbEntity
  8
Web
  6
HIDDEN
100
AcDbLine
 10
426.4448093869852
 20
66.96318095445267
 30
-0.0004318506061738
 11
427.1534707869851
 21
66.96318095445263
 31
-0.0004318506061738
  0
LINE
  5
445E4
330
1F
100
AcDbEntity
  8
Web
  6
HIDDEN
100
AcDbLine
 10
427.1534707869851
 20
66.96318095445263
 30
-0.0004318506061738
 11
427.1534707869851
 21
65.08818095445263
 31
-0.0004318506061738
  0
LINE
  5
445E5
330
1F
100
AcDbEntity
  8
Web
  6
HIDDEN
100
AcDbLine
 10
427.1534707869851
 20
66.94755595445264
 30
-0.0004318506061738
 11
427.1534707869851
 21
65.10380595445264
 31
-0.0004318506061738
  0
LINE
  5
445E6
330
1F
100
AcDbEntity
  8
Web
  6
HIDDEN
100
AcDbLine
 10
426.4448093869852
 20
65.11943095445267
 30
-0.0004318506061738
 11
425.9675098931943
 21
65.11943095445264
 31
-0.0004318506061738
  0
LINE
  5
445E7
330
1F
100
AcDbEntity
  8
Web
  6
HIDDEN
100
AcDbLine
 10
427.1534707869851
 20
66.93193095445264
 30
-0.0004318506061738
 11
427.1534707869851
 21
65.11943095445264
 31
-0.0004318506061738
  0
LINE
  5
445E8
330
1F
100
AcDbEntity
  8
Web
  6
HIDDEN
100
AcDbLine
 10
429.4675098931943
 20
71.86943095445264
 30
-0.0004318506061738
 11
430.7175098931942
 21
71.86943095445264
 31
-0.0004318506061738
  0
LINE
  5
445E9
330
1F
100
AcDbEntity
  8
Web
  6
HIDDEN
100
AcDbLine
 10
431.2175098931943
 20
71.86943095445264
 30
-0.0004318506061738
 11
431.6550098931942
 21
71.86943095445264
 31
-0.0004318506061738
  0
ARC
  5
445EA
330
1F
100
AcDbEntity
  8
Web
  6
HIDDEN
100
AcDbCircle
 10
431.9675098931942
 20
71.43193095445264
 30
-0.0004318506061738
 40
0.3125
100
AcDbArc
 50
270.0
 51
0.0
  0
LINE
  5
445EB
330
1F
100
AcDbEntity
  8
Web
  6
HIDDEN
100
AcDbLine
 10
432.2800098931942
 20
71.43193095445264
 30
-0.0004318506061738
 11
432.2800098931942
 21
71.86943095445264
 31
-0.0004318506061738
  0
ARC
  5
445EC
330
1F
100
AcDbEntity
  8
Web
  6
HIDDEN
100
AcDbCircle
 10
432.9675098931942
 20
71.61943095445264
 30
-0.0004318506061738
 40
0.25
100
AcDbArc
 50
180.0
 51
0.0
  0
LINE
  5
445ED
330
1F
100
AcDbEntity
  8
Web
  6
HIDDEN
100
AcDbLine
 10
433.2175098931942
 20
71.61943095445264
 30
-0.0004318506061738
 11
433.2175098931942
 21
71.86943095445264
 31
-0.0004318506061738
  0
LINE
  5
445EE
330
1F
100
AcDbEntity
  8
Web
  6
HIDDEN
100
AcDbLine
 10
432.7175098931943
 20
71.61943095445264
 30
-0.0004318506061738
 11
432.7175098931943
 21
71.86943095445264
 31
-0.0004318506061738
  0
LINE
  5
445EF
330
1F
100
AcDbEntity
  8
Web
  6
HIDDEN
100
AcDbLine
 10
435.2175098931943
 20
71.49443095445263
 30
-0.0004318506061738
 11
435.2175098931943
 21
71.86943095445264
 31
-0.0004318506061738
  0
LINE
  5
445F0
330
1F
100
AcDbEntity
  8
Web
  6
HIDDEN
100
AcDbLine
 10
434.4675098931943
 20
71.49443095445263
 30
-0.0004318506061738
 11
434.4675098931943
 21
71.86943095445264
 31
-0.0004318506061738
  0
ARC
  5
445F1
330
1F
100
AcDbEntity
  8
Web
  6
HIDDEN
100
AcDbCircle
 10
434.8425098931943
 20
71.49443095445263
 30
-0.0004318506061738
 40
0.375
100
AcDbArc
 50
180.0
 51
0.0
  0
LINE
  5
445F2
330
1F
100
AcDbEntity
  8
Web
  6
HIDDEN
100
AcDbLine
 10
434.4675098931943
 20
71.86943095445264
 30
-0.0004318506061738
 11
433.2175098931942
 21
71.86943095445264
 31
-0.0004318506061738
  0
LINE
  5
445F3
330
1F
100
AcDbEntity
  8
Web
  6
HIDDEN
100
AcDbLine
 10
432.7175098931943
 20
71.86943095445264
 30
-0.0004318506061738
 11
432.2800098931942
 21
71.86943095445264
 31
-0.0004318506061738
  0
LINE
  5
445F4
330
1F
100
AcDbEntity
  8
Web
  6
HIDDEN
100
AcDbLine
 10
437.4902103994034
 20
71.86943095445267
 30
-0.0004318506061738
 11
437.9675098931943
 21
71.86943095445264
 31
-0.0004318506061738
  0
LINE
  5
445F5
330
1F
100
AcDbEntity
  8
Web
  6
HIDDEN
100
AcDbLine
 10
437.4902103994034
 20
70.02568095445266
 30
-0.0004318506061738
 11
437.4902103994034
 21
71.90068095445266
 31
-0.0004318506061738
  0
LINE
  5
445F6
330
1F
100
AcDbEntity
  8
Web
  6
HIDDEN
100
AcDbLine
 10
437.4902103994034
 20
70.02568095445266
 30
-0.0004318506061738
 11
436.7815489994034
 21
70.02568095445264
 31
-0.0004318506061738
  0
LINE
  5
445F7
330
1F
100
AcDbEntity
  8
Web
  6
HIDDEN
100
AcDbLine
 10
437.4902103994034
 20
71.90068095445266
 30
-0.0004318506061738
 11
436.7815489994034
 21
71.90068095445264
 31
-0.0004318506061738
  0
LINE
  5
445F8
330
1F
100
AcDbEntity
  8
Web
  6
HIDDEN
100
AcDbLine
 10
436.7815489994034
 20
71.90068095445264
 30
-0.0004318506061738
 11
436.7815489994034
 21
70.02568095445264
 31
-0.0004318506061738
  0
LINE
  5
445F9
330
1F
100
AcDbEntity
  8
Web
  6
HIDDEN
100
AcDbLine
 10
436.7815489994034
 20
71.88505595445263
 30
-0.0004318506061738
 11
436.7815489994034
 21
70.04130595445264
 31
-0.0004318506061738
  0
LINE
  5
445FA
330
1F
100
AcDbEntity
  8
Web
  6
HIDDEN
100
AcDbLine
 10
437.4902103994034
 20
70.05693095445264
 30
-0.0004318506061738
 11
437.9675098931943
 21
70.05693095445264
 31
-0.0004318506061738
  0
LINE
  5
445FB
330
1F
100
AcDbEntity
  8
Web
  6
HIDDEN
100
AcDbLine
 10
436.7815489994034
 20
71.86943095445264
 30
-0.0004318506061738
 11
436.7815489994034
 21
70.05693095445264
 31
-0.0004318506061738
  0
LINE
  5
445FC
330
1F
100
AcDbEntity
  8
Web
  6
HIDDEN
100
AcDbLine
 10
437.4902103994034
 20
66.93193095445264
 30
-0.0004318506061738
 11
437.9675098931943
 21
66.93193095445264
 31
-0.0004318506061738
  0
LINE
  5
445FD
330
1F
100
AcDbEntity
  8
Web
  6
HIDDEN
100
AcDbLine
 10
437.4902103994034
 20
65.08818095445267
 30
-0.0004318506061738
 11
437.4902103994034
 21
66.96318095445267
 31
-0.0004318506061738
  0
LINE
  5
445FE
330
1F
100
AcDbEntity
  8
Web
  6
HIDDEN
100
AcDbLine
 10
437.4902103994034
 20
65.08818095445267
 30
-0.0004318506061738
 11
436.7815489994034
 21
65.08818095445263
 31
-0.0004318506061738
  0
LINE
  5
445FF
330
1F
100
AcDbEntity
  8
Web
  6
HIDDEN
100
AcDbLine
 10
437.4902103994034
 20
66.96318095445267
 30
-0.0004318506061738
 11
436.7815489994034
 21
66.96318095445263
 31
-0.0004318506061738
  0
LINE
  5
44600
330
1F
100
AcDbEntity
  8
Web
  6
HIDDEN
100
AcDbLine
 10
436.7815489994034
 20
66.96318095445263
 30
-0.0004318506061738
 11
436.7815489994034
 21
65.08818095445263
 31
-0.0004318506061738
  0
LINE
  5
44601
330
1F
100
AcDbEntity
  8
Web
  6
HIDDEN
100
AcDbLine
 10
436.7815489994034
 20
66.94755595445264
 30
-0.0004318506061738
 11
436.7815489994034
 21
65.10380595445264
 31
-0.0004318506061738
  0
LINE
  5
44602
330
1F
100
AcDbEntity
  8
Web
  6
HIDDEN
100
AcDbLine
 10
437.4902103994034
 20
65.11943095445267
 30
-0.0004318506061738
 11
437.9675098931943
 21
65.11943095445264
 31
-0.0004318506061738
  0
LINE
  5
44603
330
1F
100
AcDbEntity
  8
Web
  6
HIDDEN
100
AcDbLine
 10
436.7815489994034
 20
66.93193095445264
 30
-0.0004318506061738
 11
436.7815489994034
 21
65.11943095445264
 31
-0.0004318506061738
  0
LINE
  5
44604
330
1F
100
AcDbEntity
  8
Web
  6
HIDDEN
100
AcDbLine
 10
427.1534707869851
 20
71.86943095445267
 30
-0.0004318506061738
 11
428.7175098931943
 21
71.86943095445267
 31
-0.0004318506061738
  0
LINE
  5
44605
330
1F
100
AcDbEntity
  8
Web
  6
HIDDEN
100
AcDbLine
 10
435.2175098931943
 20
71.86943095445267
 30
-0.0004318506061738
 11
436.7815489994034
 21
71.86943095445267
 31
-0.0004318506061738
  0
LINE
  5
44606
330
1F
100
AcDbEntity
  8
Web
  6
HIDDEN
100
AcDbLine
 10
427.1534707869851
 20
70.05693095445266
 30
-0.0004318506061738
 11
436.7815489994034
 21
70.05693095445264
 31
-0.0004318506061738
  0
ARC
  5
44607
330
1F
100
AcDbEntity
  8
Web
  6
HIDDEN
100
AcDbCircle
 10
431.9675098931942
 20
66.49443095445263
 30
-0.0004318506061738
 40
0.3125
100
AcDbArc
 50
180.0
 51
270.0
  0
LINE
  5
44608
330
1F
100
AcDbEntity
  8
Web
  6
HIDDEN
100
AcDbLine
 10
431.6550098931942
 20
66.49443095445263
 30
-0.0004318506061738
 11
431.6550098931942
 21
66.93193095445264
 31
-0.0004318506061738
  0
ARC
  5
44609
330
1F
100
AcDbEntity
  8
Web
  6
HIDDEN
100
AcDbCircle
 10
430.9675098931942
 20
66.68193095445264
 30
-0.0004318506061738
 40
0.25
100
AcDbArc
 50
180.0
 51
0.0
  0
LINE
  5
4460A
330
1F
100
AcDbEntity
  8
Web
  6
HIDDEN
100
AcDbLine
 10
430.7175098931942
 20
66.68193095445264
 30
-0.0004318506061738
 11
430.7175098931942
 21
66.93193095445264
 31
-0.0004318506061738
  0
LINE
  5
4460B
330
1F
100
AcDbEntity
  8
Web
  6
HIDDEN
100
AcDbLine
 10
431.2175098931942
 20
66.68193095445264
 30
-0.0004318506061738
 11
431.2175098931942
 21
66.93193095445264
 31
-0.0004318506061738
  0
LINE
  5
4460C
330
1F
100
AcDbEntity
  8
Web
  6
HIDDEN
100
AcDbLine
 10
428.7175098931942
 20
66.55693095445264
 30
-0.0004318506061738
 11
428.7175098931942
 21
66.93193095445264
 31
-0.0004318506061738
  0
LINE
  5
4460D
330
1F
100
AcDbEntity
  8
Web
  6
HIDDEN
100
AcDbLine
 10
429.4675098931942
 20
66.55693095445264
 30
-0.0004318506061738
 11
429.4675098931942
 21
66.93193095445264
 31
-0.0004318506061738
  0
ARC
  5
4460E
330
1F
100
AcDbEntity
  8
Web
  6
HIDDEN
100
AcDbCircle
 10
429.0925098931942
 20
66.55693095445264
 30
-0.0004318506061738
 40
0.375
100
AcDbArc
 50
180.0
 51
0.0
  0
LINE
  5
4460F
330
1F
100
AcDbEntity
  8
Web
  6
HIDDEN
100
AcDbLine
 10
429.4675098931942
 20
66.93193095445264
 30
-0.0004318506061738
 11
430.7175098931942
 21
66.93193095445264
 31
-0.0004318506061738
  0
LINE
  5
44610
330
1F
100
AcDbEntity
  8
Web
  6
HIDDEN
100
AcDbLine
 10
431.2175098931942
 20
66.93193095445264
 30
-0.0004318506061738
 11
431.6550098931942
 21
66.93193095445264
 31
-0.0004318506061738
  0
ARC
  5
44611
330
1F
100
AcDbEntity
  8
Web
  6
HIDDEN
100
AcDbCircle
 10
431.9675098931942
 20
66.49443095445263
 30
-0.0004318506061738
 40
0.3125
100
AcDbArc
 50
270.0
 51
0.0
  0
LINE
  5
44612
330
1F
100
AcDbEntity
  8
Web
  6
HIDDEN
100
AcDbLine
 10
432.2800098931942
 20
66.49443095445263
 30
-0.0004318506061738
 11
432.2800098931942
 21
66.93193095445264
 31
-0.0004318506061738
  0
ARC
  5
44613
330
1F
100
AcDbEntity
  8
Web
  6
HIDDEN
100
AcDbCircle
 10
432.9675098931942
 20
66.68193095445264
 30
-0.0004318506061738
 40
0.25
100
AcDbArc
 50
180.0
 51
0.0
  0
LINE
  5
44614
330
1F
100
AcDbEntity
  8
Web
  6
HIDDEN
100
AcDbLine
 10
433.2175098931942
 20
66.68193095445264
 30
-0.0004318506061738
 11
433.2175098931942
 21
66.93193095445264
 31
-0.0004318506061738
  0
LINE
  5
44615
330
1F
100
AcDbEntity
  8
Web
  6
HIDDEN
100
AcDbLine
 10
432.7175098931942
 20
66.68193095445264
 30
-0.0004318506061738
 11
432.7175098931942
 21
66.93193095445264
 31
-0.0004318506061738
  0
LINE
  5
44616
330
1F
100
AcDbEntity
  8
Web
  6
HIDDEN
100
AcDbLine
 10
435.2175098931942
 20
66.55693095445264
 30
-0.0004318506061738
 11
435.2175098931942
 21
66.93193095445264
 31
-0.0004318506061738
  0
LINE
  5
44617
330
1F
100
AcDbEntity
  8
Web
  6
HIDDEN
100
AcDbLine
 10
434.4675098931942
 20
66.55693095445264
 30
-0.0004318506061738
 11
434.4675098931942
 21
66.93193095445264
 31
-0.0004318506061738
  0
ARC
  5
44618
330
1F
100
AcDbEntity
  8
Web
  6
HIDDEN
100
AcDbCircle
 10
434.8425098931942
 20
66.55693095445264
 30
-0.0004318506061738
 40
0.375
100
AcDbArc
 50
180.0
 51
0.0
  0
LINE
  5
44619
330
1F
100
AcDbEntity
  8
Web
  6
HIDDEN
100
AcDbLine
 10
434.4675098931942
 20
66.93193095445264
 30
-0.0004318506061738
 11
433.2175098931942
 21
66.93193095445264
 31
-0.0004318506061738
  0
LINE
  5
4461A
330
1F
100
AcDbEntity
  8
Web
  6
HIDDEN
100
AcDbLine
 10
432.7175098931942
 20
66.93193095445264
 30
-0.0004318506061738
 11
432.2800098931942
 21
66.93193095445264
 31
-0.0004318506061738
  0
LINE
  5
4461B
330
1F
100
AcDbEntity
  8
Web
  6
HIDDEN
100
AcDbLine
 10
427.1534707869851
 20
66.93193095445266
 30
-0.0004318506061738
 11
428.7175098931942
 21
66.93193095445266
 31
-0.0004318506061738
  0
LINE
  5
4461C
330
1F
100
AcDbEntity
  8
Web
  6
HIDDEN
100
AcDbLine
 10
435.2175098931942
 20
66.93193095445266
 30
-0.0004318506061738
 11
436.7815489994034
 21
66.93193095445266
 31
-0.0004318506061738
  0
LINE
  5
4461D
330
1F
100
AcDbEntity
  8
Web
  6
HIDDEN
100
AcDbLine
 10
427.153470786985
 20
65.11943095445267
 30
-0.0004318506061738
 11
436.7815489994034
 21
65.11943095445264
 31
-0.0004318506061738
  0
LINE
  5
4461E
330
1F
100
AcDbEntity
  8
Web
  6
HIDDEN
100
AcDbLine
 10
436.7815489994034
 20
70.85380595445264
 30
-0.0004318506061738
 11
436.7815489994034
 21
71.07255595445264
 31
-0.0004318506061738
  0
LINE
  5
4461F
330
1F
100
AcDbEntity
  8
Web
  6
HIDDEN
100
AcDbLine
 10
427.1534707869852
 20
70.85380595445264
 30
-0.0004318506061738
 11
427.1534707869852
 21
71.07255595445264
 31
-0.0004318506061738
  0
LINE
  5
44620
330
1F
100
AcDbEntity
  8
Web
  6
HIDDEN
100
AcDbLine
 10
426.4448093869851
 20
71.10380595445263
 30
-0.0004318506061738
 11
426.4448093869851
 21
70.82255595445264
 31
-0.0004318506061738
  0
LINE
  5
44621
330
1F
100
AcDbEntity
  8
Web
  6
HIDDEN
100
AcDbLine
 10
426.1298493869851
 20
71.10380595445263
 30
-0.0004318506061738
 11
426.1298493869851
 21
70.82255595445264
 31
-0.0004318506061738
  0
LINE
  5
44622
330
1F
100
AcDbEntity
  8
Web
  6
HIDDEN
100
AcDbLine
 10
426.4448093869852
 20
71.10380595445263
 30
-0.0004318506061738
 11
426.1298493869851
 21
71.10380595445263
 31
-0.0004318506061738
  0
LINE
  5
44623
330
1F
100
AcDbEntity
  8
Web
  6
HIDDEN
100
AcDbLine
 10
426.4448093869852
 20
70.82255595445264
 30
-0.0004318506061738
 11
426.1298493869851
 21
70.82255595445264
 31
-0.0004318506061738
  0
LINE
  5
44624
330
1F
100
AcDbEntity
  8
Web
  6
HIDDEN
100
AcDbLine
 10
426.1047500869852
 20
71.18193095445267
 30
-0.0004318506061738
 11
426.1047500869852
 21
70.74443095445264
 31
-0.0004318506061738
  0
LINE
  5
44625
330
1F
100
AcDbEntity
  8
Web
  6
HIDDEN
100
AcDbLine
 10
426.2922500869851
 20
71.1819309544527
 30
-0.0004318506061738
 11
426.2922500869851
 21
71.10380595445263
 31
-0.0004318506061738
  0
LINE
  5
44626
330
1F
100
AcDbEntity
  8
Web
  6
HIDDEN
100
AcDbLine
 10
426.2922500869851
 20
70.82255595445264
 30
-0.0004318506061738
 11
426.2922500869851
 21
70.74443095445267
 31
-0.0004318506061738
  0
LINE
  5
44627
330
1F
100
AcDbEntity
  8
Web
  6
HIDDEN
100
AcDbLine
 10
426.2922500869852
 20
71.18193095445267
 30
-0.0004318506061738
 11
426.1047500869851
 21
71.18193095445263
 31
-0.0004318506061738
  0
LINE
  5
44628
330
1F
100
AcDbEntity
  8
Web
  6
HIDDEN
100
AcDbLine
 10
426.2922500869851
 20
70.74443095445267
 30
-0.0004318506061738
 11
426.1047500869851
 21
70.74443095445267
 31
-0.0004318506061738
  0
LINE
  5
44629
330
1F
100
AcDbEntity
  8
Web
  6
HIDDEN
100
AcDbLine
 10
437.8302696994033
 20
71.18193095445267
 30
-0.0004318506061738
 11
437.8302696994033
 21
70.74443095445264
 31
-0.0004318506061738
  0
LINE
  5
4462A
330
1F
100
AcDbEntity
  8
Web
  6
HIDDEN
100
AcDbLine
 10
437.6427696994034
 20
71.1819309544527
 30
-0.0004318506061738
 11
437.6427696994034
 21
71.10380595445263
 31
-0.0004318506061738
  0
LINE
  5
4462B
330
1F
100
AcDbEntity
  8
Web
  6
HIDDEN
100
AcDbLine
 10
437.6427696994034
 20
70.82255595445264
 30
-0.0004318506061738
 11
437.6427696994034
 21
70.74443095445267
 31
-0.0004318506061738
  0
LINE
  5
4462C
330
1F
100
AcDbEntity
  8
Web
  6
HIDDEN
100
AcDbLine
 10
437.6427696994033
 20
71.18193095445267
 30
-0.0004318506061738
 11
437.8302696994033
 21
71.18193095445263
 31
-0.0004318506061738
  0
LINE
  5
4462D
330
1F
100
AcDbEntity
  8
Web
  6
HIDDEN
100
AcDbLine
 10
437.6427696994034
 20
70.74443095445267
 30
-0.0004318506061738
 11
437.8302696994033
 21
70.74443095445267
 31
-0.0004318506061738
  0
LINE
  5
4462E
330
1F
100
AcDbEntity
  8
Web
  6
HIDDEN
100
AcDbLine
 10
437.8051703994033
 20
71.10380595445263
 30
-0.0004318506061738
 11
437.8051703994034
 21
70.82255595445264
 31
-0.0004318506061738
  0
LINE
  5
4462F
330
1F
100
AcDbEntity
  8
Web
  6
HIDDEN
100
AcDbLine
 10
437.4902103994034
 20
71.10380595445263
 30
-0.0004318506061738
 11
437.8051703994033
 21
71.10380595445263
 31
-0.0004318506061738
  0
LINE
  5
44630
330
1F
100
AcDbEntity
  8
Web
  6
HIDDEN
100
AcDbLine
 10
437.4902103994034
 20
70.82255595445264
 30
-0.0004318506061738
 11
437.8051703994033
 21
70.82255595445264
 31
-0.0004318506061738
  0
LINE
  5
44631
330
1F
100
AcDbEntity
  8
Web
  6
HIDDEN
100
AcDbLine
 10
426.4448093869852
 20
66.16630595445264
 30
-0.0004318506061738
 11
426.4448093869852
 21
65.88505595445264
 31
-0.0004318506061738
  0
LINE
  5
44632
330
1F
100
AcDbEntity
  8
Web
  6
HIDDEN
100
AcDbLine
 10
426.1298493869852
 20
66.16630595445264
 30
-0.0004318506061738
 11
426.1298493869851
 21
65.88505595445264
 31
-0.0004318506061738
  0
LINE
  5
44633
330
1F
100
AcDbEntity
  8
Web
  6
HIDDEN
100
AcDbLine
 10
426.4448093869852
 20
66.16630595445264
 30
-0.0004318506061738
 11
426.1298493869852
 21
66.16630595445264
 31
-0.0004318506061738
  0
LINE
  5
44634
330
1F
100
AcDbEntity
  8
Web
  6
HIDDEN
100
AcDbLine
 10
426.4448093869852
 20
65.88505595445264
 30
-0.0004318506061738
 11
426.1298493869852
 21
65.88505595445264
 31
-0.0004318506061738
  0
LINE
  5
44635
330
1F
100
AcDbEntity
  8
Web
  6
HIDDEN
100
AcDbLine
 10
426.2922500869852
 20
66.24443095445269
 30
-0.0004318506061738
 11
426.2922500869852
 21
66.16630595445264
 31
-0.0004318506061738
  0
LINE
  5
44636
330
1F
100
AcDbEntity
  8
Web
  6
HIDDEN
100
AcDbLine
 10
426.2922500869852
 20
65.88505595445264
 30
-0.0004318506061738
 11
426.2922500869852
 21
65.80693095445266
 31
-0.0004318506061738
  0
LINE
  5
44637
330
1F
100
AcDbEntity
  8
Web
  6
HIDDEN
100
AcDbLine
 10
426.2922500869852
 20
66.24443095445267
 30
-0.0004318506061738
 11
426.1047500869852
 21
66.24443095445264
 31
-0.0004318506061738
  0
LINE
  5
44638
330
1F
100
AcDbEntity
  8
Web
  6
HIDDEN
100
AcDbLine
 10
426.2922500869852
 20
65.80693095445266
 30
-0.0004318506061738
 11
426.1047500869852
 21
65.80693095445266
 31
-0.0004318506061738
  0
LINE
  5
44639
330
1F
100
AcDbEntity
  8
Web
  6
HIDDEN
100
AcDbLine
 10
437.8302696994034
 20
66.24443095445267
 30
-0.0004318506061738
 11
437.8302696994034
 21
65.80693095445264
 31
-0.0004318506061738
  0
LINE
  5
4463A
330
1F
100
AcDbEntity
  8
Web
  6
HIDDEN
100
AcDbLine
 10
437.6427696994034
 20
66.24443095445269
 30
-0.0004318506061738
 11
437.6427696994034
 21
66.16630595445264
 31
-0.0004318506061738
  0
LINE
  5
4463B
330
1F
100
AcDbEntity
  8
Web
  6
HIDDEN
100
AcDbLine
 10
437.6427696994034
 20
65.88505595445264
 30
-0.0004318506061738
 11
437.6427696994034
 21
65.80693095445266
 31
-0.0004318506061738
  0
LINE
  5
4463C
330
1F
100
AcDbEntity
  8
Web
  6
HIDDEN
100
AcDbLine
 10
437.6427696994034
 20
66.24443095445267
 30
-0.0004318506061738
 11
437.8302696994034
 21
66.24443095445264
 31
-0.0004318506061738
  0
LINE
  5
4463D
330
1F
100
AcDbEntity
  8
Web
  6
HIDDEN
100
AcDbLine
 10
437.6427696994035
 20
65.80693095445266
 30
-0.0004318506061738
 11
437.8302696994034
 21
65.80693095445266
 31
-0.0004318506061738
  0
LINE
  5
4463E
330
1F
100
AcDbEntity
  8
Web
  6
HIDDEN
100
AcDbLine
 10
437.8051703994034
 20
66.16630595445264
 30
-0.0004318506061738
 11
437.8051703994034
 21
65.88505595445264
 31
-0.0004318506061738
  0
LINE
  5
4463F
330
1F
100
AcDbEntity
  8
Web
  6
HIDDEN
100
AcDbLine
 10
437.4902103994034
 20
66.16630595445264
 30
-0.0004318506061738
 11
437.8051703994034
 21
66.16630595445264
 31
-0.0004318506061738
  0
LINE
  5
44640
330
1F
100
AcDbEntity
  8
Web
  6
HIDDEN
100
AcDbLine
 10
437.4902103994034
 20
65.88505595445264
 30
-0.0004318506061738
 11
437.8051703994034
 21
65.88505595445264
 31
-0.0004318506061738
  0
LINE
  5
44641
330
1F
100
AcDbEntity
  8
Web
  6
HIDDEN
370
     0
100
AcDbLine
 10
437.9675098931945
 20
72.15443095445275
 30
-0.0004318506061738
 11
437.9675098931945
 21
72.04443095445275
 31
-0.0004318506061738
  0
HATCH
  5
44642
330
1F
100
AcDbEntity
  8
Hatch
100
AcDbHatch
 10
0.0
 20
0.0
 30
-0.0004318506061738
210
0.0
220
0.0
230
1.0
  2
SACNCR
 70
     0
 71
     0
 91
        2
 92
        1
 93
        4
 72
     1
 10
437.9675098931943
 20
60.49443095445264
 11
437.9675098931943
 21
76.49443095445263
 72
     1
 10
437.9675098931943
 20
76.49443095445263
 11
440.7175098931943
 21
76.49443095445263
 72
     1
 10
440.7175098931943
 20
76.49443095445263
 11
440.7175098931943
 21
60.49443095445265
 72
     1
 10
440.7175098931943
 20
60.49443095445264
 11
437.9675098931943
 21
60.49443095445264
 97
        0
 92
        1
 93
        4
 72
     1
 10
425.9675098931943
 20
68.49443095445264
 11
423.2175098931943
 21
68.49443095445264
 72
     1
 10
423.2175098931943
 20
68.49443095445264
 11
423.2175098931943
 21
60.49443095445264
 72
     1
 10
423.2175098931943
 20
60.49443095445264
 11
425.9675098931943
 21
60.49443095445264
 72
     1
 10
425.9675098931943
 20
60.49443095445264
 11
425.9675098931943
 21
68.49443095445264
 97
        0
 75
     0
 76
     1
 52
0.0
 41
10.0
 77
     0
 78
     2
 53
45.0
 43
364.6048711963024
 44
36.13834654602249
 45
-0.6629126073623883
 46
0.6629126073623884
 79
     0
 53
45.0
 43
365.2677838063024
 44
36.13834654602249
 45
-0.6629126073623883
 46
0.6629126073623884
 79
     2
 49
0.0
 49
-0.9375
 98
        1
 10
243.3368457596246
 20
7.347587101507848
1001
ACAD
1010
0.0
1020
0.0
1030
0.0
  0
LINE
  5
44643
330
1F
100
AcDbEntity
  8
Block
100
AcDbLine
 10
425.9675098931943
 20
68.49443095445264
 30
-0.0004318506061738
 11
425.9675098931943
 21
60.49443095445264
 31
-0.0004318506061738
  0
LINE
  5
44644
330
1F
100
AcDbEntity
  8
Block
100
AcDbLine
 10
423.2175098931943
 20
68.49443095445264
 30
-0.0004318506061738
 11
423.2175098931943
 21
60.49443095445264
 31
-0.0004318506061738
  0
LINE
  5
44645
330
1F
100
AcDbEntity
  8
Block
100
AcDbLine
 10
425.9675098931943
 20
60.49443095445264
 30
-0.0004318506061738
 11
423.2175098931943
 21
60.49443095445264
 31
-0.0004318506061738
  0
LINE
  5
44646
330
1F
100
AcDbEntity
  8
Block
100
AcDbLine
 10
440.7175098931943
 20
76.49443095445263
 30
-0.0004318506061738
 11
440.7175098931943
 21
60.49443095445264
 31
-0.0004318506061738
  0
LINE
  5
44647
330
1F
100
AcDbEntity
  8
Block
100
AcDbLine
 10
440.7175098931943
 20
60.49443095445264
 30
-0.0004318506061738
 11
437.9675098931943
 21
60.49443095445264
 31
-0.0004318506061738
  0
LINE
  5
44648
330
1F
100
AcDbEntity
  8
Block
100
AcDbLine
 10
437.9675098931943
 20
60.49443095445264
 30
-0.0004318506061738
 11
437.9675098931943
 21
76.49443095445263
 31
-0.0004318506061738
  0
LINE
  5
44649
330
1F
100
AcDbEntity
  8
Block
100
AcDbLine
 10
440.7175098931943
 20
76.49443095445263
 30
-0.0004318506061738
 11
437.9675098931943
 21
76.49443095445263
 31
-0.0004318506061738
  0
ARC
  5
4464A
330
1F
100
AcDbEntity
  8
Web
  6
HIDDEN
100
AcDbCircle
 10
431.9675098931942
 20
39.43193095445266
 30
-0.0004318506061738
 40
0.3125
100
AcDbArc
 50
180.0
 51
270.0
  0
LINE
  5
4464B
330
1F
100
AcDbEntity
  8
Web
  6
HIDDEN
100
AcDbLine
 10
431.6550098931942
 20
39.43193095445266
 30
-0.0004318506061738
 11
431.6550098931942
 21
39.86943095445266
 31
-0.0004318506061738
  0
ARC
  5
4464C
330
1F
100
AcDbEntity
  8
Web
  6
HIDDEN
100
AcDbCircle
 10
430.9675098931943
 20
39.61943095445266
 30
-0.0004318506061738
 40
0.25
100
AcDbArc
 50
180.0
 51
0.0
  0
LINE
  5
4464D
330
1F
100
AcDbEntity
  8
Web
  6
HIDDEN
100
AcDbLine
 10
430.7175098931942
 20
39.61943095445266
 30
-0.0004318506061738
 11
430.7175098931942
 21
39.86943095445266
 31
-0.0004318506061738
  0
LINE
  5
4464E
330
1F
100
AcDbEntity
  8
Web
  6
HIDDEN
100
AcDbLine
 10
431.2175098931943
 20
39.61943095445266
 30
-0.0004318506061738
 11
431.2175098931943
 21
39.86943095445266
 31
-0.0004318506061738
  0
LINE
  5
4464F
330
1F
100
AcDbEntity
  8
Web
  6
HIDDEN
100
AcDbLine
 10
428.7175098931943
 20
39.49443095445266
 30
-0.0004318506061738
 11
428.7175098931943
 21
39.86943095445266
 31
-0.0004318506061738
  0
LINE
  5
44650
330
1F
100
AcDbEntity
  8
Web
  6
HIDDEN
100
AcDbLine
 10
429.4675098931943
 20
39.49443095445266
 30
-0.0004318506061738
 11
429.4675098931943
 21
39.86943095445266
 31
-0.0004318506061738
  0
ARC
  5
44651
330
1F
100
AcDbEntity
  8
Web
  6
HIDDEN
100
AcDbCircle
 10
429.0925098931943
 20
39.49443095445266
 30
-0.0004318506061738
 40
0.375
100
AcDbArc
 50
180.0
 51
0.0
  0
LINE
  5
44652
330
1F
100
AcDbEntity
  8
Web
  6
HIDDEN
100
AcDbLine
 10
426.4448093869852
 20
39.86943095445268
 30
-0.0004318506061738
 11
425.9675098931943
 21
39.86943095445266
 31
-0.0004318506061738
  0
LINE
  5
44653
330
1F
100
AcDbEntity
  8
Web
  6
HIDDEN
100
AcDbLine
 10
426.4448093869852
 20
38.63097315110071
 30
-0.0004318506061738
 11
426.4448093869852
 21
39.90068095445268
 31
-0.0004318506061738
  0
LINE
  5
44655
330
1F
100
AcDbEntity
  8
Web
  6
HIDDEN
100
AcDbLine
 10
426.4448093869852
 20
39.90068095445268
 30
-0.0004318506061738
 11
427.1534707869851
 21
39.90068095445266
 31
-0.0004318506061738
  0
LINE
  5
44656
330
1F
100
AcDbEntity
  8
Web
  6
HIDDEN
100
AcDbLine
 10
427.1534707869851
 20
39.90068095445266
 30
-0.0004318506061738
 11
427.1534707869851
 21
38.63097315110071
 31
-0.0004318506061738
  0
LINE
  5
44657
330
1F
100
AcDbEntity
  8
Web
  6
HIDDEN
100
AcDbLine
 10
427.1534707869851
 20
39.88505595445266
 30
-0.0004318506061738
 11
427.1534707869851
 21
38.63097315110071
 31
-0.0004318506061738
  0
LINE
  5
44659
330
1F
100
AcDbEntity
  8
Web
  6
HIDDEN
100
AcDbLine
 10
427.1534707869851
 20
39.86943095445266
 30
-0.0004318506061738
 11
427.1534707869851
 21
38.63097315110071
 31
-0.0004318506061738
  0
LINE
  5
44662
330
1F
100
AcDbEntity
  8
Web
  6
HIDDEN
100
AcDbLine
 10
429.4675098931943
 20
39.86943095445266
 30
-0.0004318506061738
 11
430.7175098931942
 21
39.86943095445266
 31
-0.0004318506061738
  0
LINE
  5
44663
330
1F
100
AcDbEntity
  8
Web
  6
HIDDEN
100
AcDbLine
 10
431.2175098931943
 20
39.86943095445266
 30
-0.0004318506061738
 11
431.6550098931942
 21
39.86943095445266
 31
-0.0004318506061738
  0
ARC
  5
44664
330
1F
100
AcDbEntity
  8
Web
  6
HIDDEN
100
AcDbCircle
 10
431.9675098931942
 20
39.43193095445266
 30
-0.0004318506061738
 40
0.3125
100
AcDbArc
 50
270.0
 51
0.0
  0
LINE
  5
44665
330
1F
100
AcDbEntity
  8
Web
  6
HIDDEN
100
AcDbLine
 10
432.2800098931942
 20
39.43193095445266
 30
-0.0004318506061738
 11
432.2800098931942
 21
39.86943095445266
 31
-0.0004318506061738
  0
ARC
  5
44666
330
1F
100
AcDbEntity
  8
Web
  6
HIDDEN
100
AcDbCircle
 10
432.9675098931942
 20
39.61943095445266
 30
-0.0004318506061738
 40
0.25
100
AcDbArc
 50
180.0
 51
0.0
  0
LINE
  5
44667
330
1F
100
AcDbEntity
  8
Web
  6
HIDDEN
100
AcDbLine
 10
433.2175098931942
 20
39.61943095445266
 30
-0.0004318506061738
 11
433.2175098931942
 21
39.86943095445266
 31
-0.0004318506061738
  0
LINE
  5
44668
330
1F
100
AcDbEntity
  8
Web
  6
HIDDEN
100
AcDbLine
 10
432.7175098931943
 20
39.61943095445266
 30
-0.0004318506061738
 11
432.7175098931943
 21
39.86943095445266
 31
-0.0004318506061738
  0
LINE
  5
44669
330
1F
100
AcDbEntity
  8
Web
  6
HIDDEN
100
AcDbLine
 10
435.2175098931943
 20
39.49443095445266
 30
-0.0004318506061738
 11
435.2175098931943
 21
39.86943095445266
 31
-0.0004318506061738
  0
LINE
  5
4466A
330
1F
100
AcDbEntity
  8
Web
  6
HIDDEN
100
AcDbLine
 10
434.4675098931943
 20
39.49443095445266
 30
-0.0004318506061738
 11
434.4675098931943
 21
39.86943095445266
 31
-0.0004318506061738
  0
ARC
  5
4466B
330
1F
100
AcDbEntity
  8
Web
  6
HIDDEN
100
AcDbCircle
 10
434.8425098931943
 20
39.49443095445266
 30
-0.0004318506061738
 40
0.375
100
AcDbArc
 50
180.0
 51
0.0
  0
LINE
  5
4466C
330
1F
100
AcDbEntity
  8
Web
  6
HIDDEN
100
AcDbLine
 10
434.4675098931943
 20
39.86943095445266
 30
-0.0004318506061738
 11
433.2175098931942
 21
39.86943095445266
 31
-0.0004318506061738
  0
LINE
  5
4466D
330
1F
100
AcDbEntity
  8
Web
  6
HIDDEN
100
AcDbLine
 10
432.7175098931943
 20
39.86943095445266
 30
-0.0004318506061738
 11
432.2800098931942
 21
39.86943095445266
 31
-0.0004318506061738
  0
LINE
  5
4466E
330
1F
100
AcDbEntity
  8
Web
  6
HIDDEN
100
AcDbLine
 10
437.4902103994034
 20
39.86943095445268
 30
-0.0004318506061738
 11
437.9675098931943
 21
39.86943095445266
 31
-0.0004318506061738
  0
LINE
  5
4466F
330
1F
100
AcDbEntity
  8
Web
  6
HIDDEN
100
AcDbLine
 10
437.4902103994034
 20
38.63097315110071
 30
-0.0004318506061738
 11
437.4902103994034
 21
39.90068095445268
 31
-0.0004318506061738
  0
LINE
  5
44671
330
1F
100
AcDbEntity
  8
Web
  6
HIDDEN
100
AcDbLine
 10
437.4902103994034
 20
39.90068095445268
 30
-0.0004318506061738
 11
436.7815489994034
 21
39.90068095445266
 31
-0.0004318506061738
  0
LINE
  5
44672
330
1F
100
AcDbEntity
  8
Web
  6
HIDDEN
100
AcDbLine
 10
436.7815489994034
 20
39.90068095445266
 30
-0.0004318506061738
 11
436.7815489994034
 21
38.63097315110071
 31
-0.0004318506061738
  0
LINE
  5
44673
330
1F
100
AcDbEntity
  8
Web
  6
HIDDEN
100
AcDbLine
 10
436.7815489994034
 20
39.88505595445266
 30
-0.0004318506061738
 11
436.7815489994034
 21
38.63097315110071
 31
-0.0004318506061738
  0
LINE
  5
44675
330
1F
100
AcDbEntity
  8
Web
  6
HIDDEN
100
AcDbLine
 10
436.7815489994034
 20
39.86943095445266
 30
-0.0004318506061738
 11
436.7815489994034
 21
38.63097315110071
 31
-0.0004318506061738
  0
LINE
  5
4467E
330
1F
100
AcDbEntity
  8
Web
  6
HIDDEN
100
AcDbLine
 10
427.1534707869851
 20
39.86943095445268
 30
-0.0004318506061738
 11
428.7175098931943
 21
39.86943095445269
 31
-0.0004318506061738
  0
LINE
  5
4467F
330
1F
100
AcDbEntity
  8
Web
  6
HIDDEN
100
AcDbLine
 10
435.2175098931943
 20
39.86943095445268
 30
-0.0004318506061738
 11
436.7815489994034
 21
39.86943095445269
 31
-0.0004318506061738
  0
LINE
  5
44680
330
1F
100
AcDbEntity
  8
Web
  6
HIDDEN
100
AcDbLine
 10
431.1764441659885
 20
38.05693095445266
 30
-0.0004318506061738
 11
431.7585756204059
 21
38.05693095445266
 31
-0.0004318506061738
  0
LINE
  5
44698
330
1F
100
AcDbEntity
  8
Web
  6
HIDDEN
100
AcDbLine
 10
436.7815489994034
 20
38.85380595445266
 30
-0.0004318506061738
 11
436.7815489994034
 21
39.07255595445266
 31
-0.0004318506061738
  0
LINE
  5
44699
330
1F
100
AcDbEntity
  8
Web
  6
HIDDEN
100
AcDbLine
 10
427.1534707869852
 20
38.85380595445266
 30
-0.0004318506061738
 11
427.1534707869852
 21
39.07255595445266
 31
-0.0004318506061738
  0
LINE
  5
4469A
330
1F
100
AcDbEntity
  8
Web
  6
HIDDEN
100
AcDbLine
 10
426.4448093869851
 20
39.10380595445266
 30
-0.0004318506061738
 11
426.4448093869851
 21
38.82255595445266
 31
-0.0004318506061738
  0
LINE
  5
4469B
330
1F
100
AcDbEntity
  8
Web
  6
HIDDEN
100
AcDbLine
 10
426.1298493869851
 20
39.10380595445266
 30
-0.0004318506061738
 11
426.1298493869851
 21
38.82255595445266
 31
-0.0004318506061738
  0
LINE
  5
4469C
330
1F
100
AcDbEntity
  8
Web
  6
HIDDEN
100
AcDbLine
 10
426.4448093869852
 20
39.10380595445264
 30
-0.0004318506061738
 11
426.1298493869851
 21
39.10380595445266
 31
-0.0004318506061738
  0
LINE
  5
4469D
330
1F
100
AcDbEntity
  8
Web
  6
HIDDEN
100
AcDbLine
 10
426.4448093869852
 20
38.82255595445266
 30
-0.0004318506061738
 11
426.1298493869851
 21
38.82255595445266
 31
-0.0004318506061738
  0
LINE
  5
4469E
330
1F
100
AcDbEntity
  8
Web
  6
HIDDEN
100
AcDbLine
 10
426.1047500869852
 20
39.18193095445268
 30
-0.0004318506061738
 11
426.1047500869852
 21
38.74443095445266
 31
-0.0004318506061738
  0
LINE
  5
4469F
330
1F
100
AcDbEntity
  8
Web
  6
HIDDEN
100
AcDbLine
 10
426.2922500869851
 20
39.1819309544527
 30
-0.0004318506061738
 11
426.2922500869851
 21
39.10380595445266
 31
-0.0004318506061738
  0
LINE
  5
446A0
330
1F
100
AcDbEntity
  8
Web
  6
HIDDEN
100
AcDbLine
 10
426.2922500869851
 20
38.82255595445265
 30
-0.0004318506061738
 11
426.2922500869851
 21
38.74443095445269
 31
-0.0004318506061738
  0
LINE
  5
446A1
330
1F
100
AcDbEntity
  8
Web
  6
HIDDEN
100
AcDbLine
 10
426.2922500869852
 20
39.18193095445269
 30
-0.0004318506061738
 11
426.1047500869851
 21
39.18193095445266
 31
-0.0004318506061738
  0
LINE
  5
446A2
330
1F
100
AcDbEntity
  8
Web
  6
HIDDEN
100
AcDbLine
 10
426.2922500869851
 20
38.74443095445269
 30
-0.0004318506061738
 11
426.1047500869851
 21
38.74443095445267
 31
-0.0004318506061738
  0
LINE
  5
446A3
330
1F
100
AcDbEntity
  8
Web
  6
HIDDEN
100
AcDbLine
 10
437.8302696994033
 20
39.18193095445268
 30
-0.0004318506061738
 11
437.8302696994033
 21
38.74443095445266
 31
-0.0004318506061738
  0
LINE
  5
446A4
330
1F
100
AcDbEntity
  8
Web
  6
HIDDEN
100
AcDbLine
 10
437.6427696994034
 20
39.1819309544527
 30
-0.0004318506061738
 11
437.6427696994034
 21
39.10380595445266
 31
-0.0004318506061738
  0
LINE
  5
446A5
330
1F
100
AcDbEntity
  8
Web
  6
HIDDEN
100
AcDbLine
 10
437.6427696994034
 20
38.82255595445265
 30
-0.0004318506061738
 11
437.6427696994034
 21
38.74443095445269
 31
-0.0004318506061738
  0
LINE
  5
446A6
330
1F
100
AcDbEntity
  8
Web
  6
HIDDEN
100
AcDbLine
 10
437.6427696994033
 20
39.18193095445269
 30
-0.0004318506061738
 11
437.8302696994033
 21
39.18193095445266
 31
-0.0004318506061738
  0
LINE
  5
446A7
330
1F
100
AcDbEntity
  8
Web
  6
HIDDEN
100
AcDbLine
 10
437.6427696994034
 20
38.74443095445269
 30
-0.0004318506061738
 11
437.8302696994033
 21
38.74443095445267
 31
-0.0004318506061738
  0
LINE
  5
446A8
330
1F
100
AcDbEntity
  8
Web
  6
HIDDEN
100
AcDbLine
 10
437.8051703994033
 20
39.10380595445266
 30
-0.0004318506061738
 11
437.8051703994034
 21
38.82255595445266
 31
-0.0004318506061738
  0
LINE
  5
446A9
330
1F
100
AcDbEntity
  8
Web
  6
HIDDEN
100
AcDbLine
 10
437.4902103994034
 20
39.10380595445264
 30
-0.0004318506061738
 11
437.8051703994033
 21
39.10380595445266
 31
-0.0004318506061738
  0
LINE
  5
446AA
330
1F
100
AcDbEntity
  8
Web
  6
HIDDEN
100
AcDbLine
 10
437.4902103994034
 20
38.82255595445266
 30
-0.0004318506061738
 11
437.8051703994033
 21
38.82255595445266
 31
-0.0004318506061738
  0
ARC
  5
446BB
330
1F
100
AcDbEntity
  8
Web
370
     0
100
AcDbCircle
 10
424.1886690869852
 20
41.3468079033106
 30
-0.0004318506061738
 40
0.1
100
AcDbArc
 50
180.0
 51
219.9999963775114
  0
LINE
  5
446BC
330
1F
100
AcDbEntity
  8
Web
  6
HIDDEN
370
     0
100
AcDbLine
 10
437.9675098931945
 20
40.15443095445276
 30
-0.0004318506061738
 11
437.9675098931945
 21
40.04443095445276
 31
-0.0004318506061738
  0
HATCH
  5
446BD
330
1F
100
AcDbEntity
  8
Hatch
100
AcDbHatch
 10
0.0
 20
0.0
 30
-0.0004318506061738
210
0.0
220
0.0
230
1.0
  2
SACNCR
 70
     0
 71
     0
 91
        2
 92
        1
 93
        4
 72
     1
 10
437.9675098931943
 20
38.63097315110071
 11
440.7175098931943
 21
38.63097315110071
 72
     1
 10
440.7175098931943
 20
38.63097315110071
 11
440.7175098931943
 21
44.49443095445264
 72
     1
 10
440.7175098931943
 20
44.49443095445264
 11
437.9675098931943
 21
44.49443095445264
 72
     1
 10
437.9675098931943
 20
44.49443095445264
 11
437.9675098931943
 21
38.63097315110071
 97
        0
 92
        1
 93
        4
 72
     1
 10
423.2175098931943
 20
38.63097315110071
 11
425.9675098931942
 21
38.63097315110071
 72
     1
 10
425.9675098931942
 20
38.63097315110071
 11
425.9675098931943
 21
44.49443095445264
 72
     1
 10
425.9675098931943
 20
44.49443095445264
 11
423.2175098931943
 21
44.49443095445264
 72
     1
 10
423.2175098931943
 20
44.49443095445264
 11
423.2175098931943
 21
38.63097315110071
 97
        0
 75
     0
 76
     1
 52
0.0
 41
10.0
 77
     0
 78
     2
 53
45.0
 43
364.6048711963024
 44
4.138346546022503
 45
-0.6629126073623883
 46
0.6629126073623884
 79
     0
 53
45.0
 43
365.2677838063024
 44
4.138346546022503
 45
-0.6629126073623883
 46
0.6629126073623884
 79
     2
 49
0.0
 49
-0.9375
 98
        1
 10
243.3368457596246
 20
-24.65241289849214
1001
ACAD
1010
0.0
1020
0.0
1030
0.0
  0
LINE
  5
446BE
330
1F
100
AcDbEntity
  8
Block
100
AcDbLine
 10
425.9675098931943
 20
44.49443095445264
 30
-0.0004318506061738
 11
425.9675098931943
 21
38.63097315110071
 31
-0.0004318506061738
  0
LINE
  5
446BF
330
1F
100
AcDbEntity
  8
Block
100
AcDbLine
 10
423.2175098931943
 20
44.49443095445264
 30
-0.0004318506061738
 11
423.2175098931943
 21
38.63097315110071
 31
-0.0004318506061738
  0
LINE
  5
446C1
330
1F
100
AcDbEntity
  8
Block
100
AcDbLine
 10
440.7175098931943
 20
44.49443095445264
 30
-0.0004318506061738
 11
440.7175098931943
 21
38.63097315110071
 31
-0.0004318506061738
  0
LINE
  5
446C3
330
1F
100
AcDbEntity
  8
Block
100
AcDbLine
 10
437.9675098931943
 20
38.63097315110071
 30
-0.0004318506061738
 11
437.9675098931943
 21
44.49443095445264
 31
-0.0004318506061738
  0
LINE
  5
446C4
330
1F
100
AcDbEntity
  8
Block
100
AcDbLine
 10
425.9675098931943
 20
68.49443095445264
 30
-0.0004318506061738
 11
423.2175098931943
 21
68.49443095445264
 31
-0.0004318506061738
  0
HATCH
  5
44720
330
1F
100
AcDbEntity
  8
Hatch
100
AcDbHatch
 10
0.0
 20
0.0
 30
-0.0004318506061738
210
0.0
220
0.0
230
1.0
  2
SACNCR
 70
     0
 71
     0
 91
        2
 92
        1
 93
        4
 72
     1
 10
440.7175098931942
 20
95.6873838333834
 11
437.9675098931942
 21
95.68738383338342
 72
     1
 10
437.9675098931942
 20
95.68738383338342
 11
437.9675098931943
 21
92.49443095445263
 72
     1
 10
437.9675098931943
 20
92.49443095445263
 11
440.7175098931943
 21
92.49443095445263
 72
     1
 10
440.7175098931943
 20
92.49443095445263
 11
440.7175098931942
 21
95.6873838333834
 97
        0
 92
        1
 93
        4
 72
     1
 10
429.9675098931943
 20
95.6873838333834
 11
427.2175098931942
 21
95.6873838333834
 72
     1
 10
427.2175098931942
 20
95.6873838333834
 11
427.2175098931943
 21
92.49443095445263
 72
     1
 10
427.2175098931943
 20
92.49443095445263
 11
429.9675098931943
 21
92.49443095445263
 72
     1
 10
429.9675098931943
 20
92.49443095445263
 11
429.9675098931943
 21
95.6873838333834
 97
        0
 75
     0
 76
     1
 52
0.0
 41
10.0
 77
     0
 78
     2
 53
45.0
 43
364.6048711963024
 44
68.13834654602249
 45
-0.6629126073623883
 46
0.6629126073623884
 79
     0
 53
45.0
 43
365.2677838063024
 44
68.13834654602249
 45
-0.6629126073623883
 46
0.6629126073623884
 79
     2
 49
0.0
 49
-0.9375
 98
        1
 10
243.3368457596246
 20
39.34758710150785
1001
ACAD
1010
0.0
1020
0.0
1030
0.0
  0
LINE
  5
44721
330
1F
100
AcDbEntity
  8
Block
100
AcDbLine
 10
429.9675098931943
 20
95.6873838333834
 30
-0.0004318506061738
 11
429.9675098931943
 21
92.49443095445263
 31
-0.0004318506061738
  0
LINE
  5
44722
330
1F
100
AcDbEntity
  8
Block
100
AcDbLine
 10
427.2175098931943
 20
95.6873838333834
 30
-0.0004318506061738
 11
427.2175098931943
 21
92.49443095445263
 31
-0.0004318506061738
  0
LINE
  5
44723
330
1F
100
AcDbEntity
  8
Block
100
AcDbLine
 10
429.9675098931943
 20
92.49443095445263
 30
-0.0004318506061738
 11
427.2175098931943
 21
92.49443095445263
 31
-0.0004318506061738
  0
LINE
  5
44724
330
1F
100
AcDbEntity
  8
Block
100
AcDbLine
 10
440.7175098931943
 20
95.68738383338342
 30
-0.0004318506061738
 11
440.7175098931943
 21
92.49443095445263
 31
-0.0004318506061738
  0
LINE
  5
44725
330
1F
100
AcDbEntity
  8
Block
100
AcDbLine
 10
440.7175098931943
 20
92.49443095445263
 30
-0.0004318506061738
 11
437.9675098931943
 21
92.49443095445263
 31
-0.0004318506061738
  0
LINE
  5
44726
330
1F
100
AcDbEntity
  8
Block
100
AcDbLine
 10
437.9675098931943
 20
92.49443095445263
 30
-0.0004318506061738
 11
437.9675098931943
 21
95.6873838333834
 31
-0.0004318506061738
  0
LWPOLYLINE
  5
44727
330
1F
100
AcDbEntity
  8
Webs
  6
HIDDEN
100
AcDbPolyline
 90
        2
 70
     0
 43
0.0
 38
-0.0004318506061738
 10
430.9911319401942
 20
81.11943095445264
 10
429.9675098931943
 20
81.11943095445264
  0
LWPOLYLINE
  5
44728
330
1F
100
AcDbEntity
  8
Webs
  6
HIDDEN
100
AcDbPolyline
 90
        2
 70
     0
 43
0.0
 38
-0.0004318506061738
 10
429.9675098931943
 20
83.1117928037421
 42
0.2719204724283024
 10
430.8059098931942
 20
82.61943095445269
  0
LWPOLYLINE
  5
44729
330
1F
100
AcDbEntity
  8
Webs
  6
HIDDEN
100
AcDbPolyline
 90
        2
 70
     0
 43
0.0
 38
-0.0004318506061738
 10
430.8059098931942
 20
86.36943095445264
 42
0.2719204724283024
 10
429.9675098931943
 20
85.87706910516322
  0
LWPOLYLINE
  5
4472A
330
1F
100
AcDbEntity
  8
Webs
  6
HIDDEN
100
AcDbPolyline
 90
        2
 70
     0
 43
0.0
 38
-0.0004318506061738
 10
430.9911319401942
 20
87.8694309544527
 10
429.9675098931943
 20
87.86943095445264
  0
LWPOLYLINE
  5
4472B
330
1F
100
AcDbEntity
  8
Webs
  6
HIDDEN
100
AcDbPolyline
 90
        2
 70
     0
 43
0.0
 38
-0.0004318506061738
 10
437.9675098931943
 20
85.87706910516322
 42
0.2719204724283024
 10
437.1291098931942
 20
86.36943095445264
  0
LWPOLYLINE
  5
4472C
330
1F
100
AcDbEntity
  8
Webs
  6
HIDDEN
100
AcDbPolyline
 90
        2
 70
     0
 43
0.0
 38
-0.0004318506061738
 10
437.1291098931942
 20
82.61943095445264
 10
430.8059098931942
 20
82.61943095445264
  0
LWPOLYLINE
  5
4472D
330
1F
100
AcDbEntity
  8
Webs
  6
HIDDEN
100
AcDbPolyline
 90
        2
 70
     0
 43
0.0
 38
-0.0004318506061738
 10
437.1291098931942
 20
86.36943095445264
 10
430.8059098931942
 20
86.36943095445264
  0
LWPOLYLINE
  5
4472E
330
1F
100
AcDbEntity
  8
Webs
  6
HIDDEN
100
AcDbPolyline
 90
        2
 70
     0
 43
0.0
 38
-0.0004318506061738
 10
436.9438878461942
 20
81.11943095445264
 10
437.9675098931943
 20
81.11943095445264
  0
LWPOLYLINE
  5
4472F
330
1F
100
AcDbEntity
  8
Webs
  6
HIDDEN
100
AcDbPolyline
 90
        2
 70
     0
 43
0.0
 38
-0.0004318506061738
 10
437.1291098931942
 20
82.61943095445269
 42
0.2719204724283024
 10
437.9675098931943
 20
83.1117928037421
  0
LWPOLYLINE
  5
44730
330
1F
100
AcDbEntity
  8
Webs
  6
HIDDEN
100
AcDbPolyline
 90
        2
 70
     0
 43
0.0
 38
-0.0004318506061738
 10
437.1291098931942
 20
86.36943095445264
 10
430.8059098931942
 20
86.36943095445264
  0
LWPOLYLINE
  5
44731
330
1F
100
AcDbEntity
  8
Webs
  6
HIDDEN
100
AcDbPolyline
 90
        2
 70
     0
 43
0.0
 38
-0.0004318506061738
 10
436.9438878461942
 20
87.8694309544527
 10
437.9675098931943
 20
87.86943095445264
  0
LINE
  5
44732
330
1F
100
AcDbEntity
  8
Web
  6
HIDDEN
100
AcDbLine
 10
431.7411319401943
 20
81.11943095445264
 30
-0.0004318506061703
 11
432.2116043811943
 21
81.11943095445264
 31
-0.0004318506061703
  0
LINE
  5
44733
330
1F
100
AcDbEntity
  8
Web
  6
HIDDEN
100
AcDbLine
 10
432.7116043811943
 20
81.11943095445253
 30
-0.0004318506061703
 11
433.6550098931943
 21
81.11943095445282
 31
-0.0004318506061703
  0
ARC
  5
44734
330
1F
100
AcDbEntity
  8
Web
  6
HIDDEN
100
AcDbCircle
 10
433.9675098931943
 20
81.55693095445281
 30
-0.0004318506061703
 40
0.3125
100
AcDbArc
 50
90.0
 51
180.0
  0
LINE
  5
44735
330
1F
100
AcDbEntity
  8
Web
  6
HIDDEN
100
AcDbLine
 10
433.6550098931943
 20
81.55693095445281
 30
-0.0004318506061703
 11
433.6550098931943
 21
81.11943095445282
 31
-0.0004318506061703
  0
ARC
  5
44736
330
1F
100
AcDbEntity
  8
Web
  6
HIDDEN
100
AcDbCircle
 10
432.4616043811943
 20
81.36943095445264
 30
-0.0004318506061703
 40
0.25
100
AcDbArc
 50
0.0
 51
180.0
  0
LINE
  5
44737
330
1F
100
AcDbEntity
  8
Web
  6
HIDDEN
100
AcDbLine
 10
432.2116043811943
 20
81.36943095445264
 30
-0.0004318506061703
 11
432.2116043811943
 21
81.11943095445264
 31
-0.0004318506061703
  0
LINE
  5
44738
330
1F
100
AcDbEntity
  8
Web
  6
HIDDEN
100
AcDbLine
 10
432.7116043811943
 20
81.36943095445259
 30
-0.0004318506061703
 11
432.7116043811943
 21
81.11943095445258
 31
-0.0004318506061703
  0
LINE
  5
44739
330
1F
100
AcDbEntity
  8
Web
  6
HIDDEN
100
AcDbLine
 10
430.9911319401942
 20
81.49443095445263
 30
-0.0004318506061703
 11
430.9911319401942
 21
81.11943095445264
 31
-0.0004318506061703
  0
LINE
  5
4473A
330
1F
100
AcDbEntity
  8
Web
  6
HIDDEN
100
AcDbLine
 10
431.7411319401943
 20
81.49443095445263
 30
-0.0004318506061703
 11
431.7411319401943
 21
81.11943095445264
 31
-0.0004318506061703
  0
ARC
  5
4473B
330
1F
100
AcDbEntity
  8
Web
  6
HIDDEN
100
AcDbCircle
 10
431.3661319401942
 20
81.49443095445263
 30
-0.0004318506061703
 40
0.375
100
AcDbArc
 50
0.0
 51
180.0
  0
LINE
  5
4473C
330
1F
100
AcDbEntity
  8
Web
  6
HIDDEN
100
AcDbLine
 10
430.9911319401942
 20
81.11943095445264
 30
-0.0004318506061703
 11
431.0821129401943
 21
81.11943095445264
 31
-0.0004318506061703
  0
LINE
  5
4473D
330
1F
100
AcDbEntity
  8
Web
  6
HIDDEN
100
AcDbLine
 10
430.9911319401942
 20
81.38943095445268
 30
-0.0004318506061703
 11
431.1081077640143
 21
81.18638317833722
 31
-0.0004318506061703
  0
ARC
  5
4473E
330
1F
100
AcDbEntity
  8
Web
  6
HIDDEN
100
AcDbCircle
 10
431.0821129401943
 20
81.1714075603345
 30
-0.0004318506061703
 40
0.03
100
AcDbArc
 50
0.0
 51
29.94624455264596
  0
LINE
  5
4473F
330
1F
100
AcDbEntity
  8
Web
  6
HIDDEN
100
AcDbLine
 10
431.1121129401943
 20
81.1714075603345
 30
-0.0004318506061703
 11
431.1121129401943
 21
81.14943095445267
 31
-0.0004318506061703
  0
ARC
  5
44740
330
1F
100
AcDbEntity
  8
Web
  6
HIDDEN
100
AcDbCircle
 10
431.0821129401943
 20
81.14943095445267
 30
-0.0004318506061703
 40
0.03
100
AcDbArc
 50
269.9999999999968
 51
0.0
  0
LINE
  5
44741
330
1F
100
AcDbEntity
  8
Web
  6
HIDDEN
100
AcDbLine
 10
431.7411319401943
 20
81.11943095445264
 30
-0.0004318506061703
 11
431.6501509401943
 21
81.11943095445264
 31
-0.0004318506061703
  0
LINE
  5
44742
330
1F
100
AcDbEntity
  8
Web
  6
HIDDEN
100
AcDbLine
 10
431.7411319401943
 20
81.38943095445268
 30
-0.0004318506061703
 11
431.6241561163742
 21
81.18638317833722
 31
-0.0004318506061703
  0
ARC
  5
44743
330
1F
100
AcDbEntity
  8
Web
  6
HIDDEN
100
AcDbCircle
 10
431.6501509401943
 20
81.1714075603345
 30
-0.0004318506061703
 40
0.03
100
AcDbArc
 50
150.053755447354
 51
180.0
  0
LINE
  5
44744
330
1F
100
AcDbEntity
  8
Web
  6
HIDDEN
100
AcDbLine
 10
431.6201509401942
 20
81.1714075603345
 30
-0.0004318506061703
 11
431.6201509401942
 21
81.14943095445267
 31
-0.0004318506061703
  0
ARC
  5
44745
330
1F
100
AcDbEntity
  8
Web
  6
HIDDEN
100
AcDbCircle
 10
431.6501509401943
 20
81.14943095445267
 30
-0.0004318506061703
 40
0.03
100
AcDbArc
 50
180.0
 51
270.0000000000033
  0
LINE
  5
44746
330
1F
100
AcDbEntity
  8
Web
  6
HIDDEN
100
AcDbLine
 10
436.1938878461941
 20
81.11943095445269
 30
-0.0004318506061703
 11
435.7234154051943
 21
81.11943095445258
 31
-0.0004318506061703
  0
LINE
  5
44747
330
1F
100
AcDbEntity
  8
Web
  6
HIDDEN
100
AcDbLine
 10
435.2234154051942
 20
81.11943095445258
 30
-0.0004318506061703
 11
434.2800098931943
 21
81.11943095445282
 31
-0.0004318506061703
  0
ARC
  5
44748
330
1F
100
AcDbEntity
  8
Web
  6
HIDDEN
100
AcDbCircle
 10
433.9675098931943
 20
81.55693095445281
 30
-0.0004318506061703
 40
0.3125
100
AcDbArc
 50
0.0
 51
90.0
  0
LINE
  5
44749
330
1F
100
AcDbEntity
  8
Web
  6
HIDDEN
100
AcDbLine
 10
434.2800098931943
 20
81.55693095445281
 30
-0.0004318506061703
 11
434.2800098931943
 21
81.11943095445282
 31
-0.0004318506061703
  0
ARC
  5
4474A
330
1F
100
AcDbEntity
  8
Web
  6
HIDDEN
100
AcDbCircle
 10
435.4734154051943
 20
81.36943095445259
 30
-0.0004318506061703
 40
0.25
100
AcDbArc
 50
0.0
 51
180.0
  0
LINE
  5
4474B
330
1F
100
AcDbEntity
  8
Web
  6
HIDDEN
100
AcDbLine
 10
435.7234154051943
 20
81.36943095445259
 30
-0.0004318506061703
 11
435.7234154051943
 21
81.11943095445258
 31
-0.0004318506061703
  0
LINE
  5
4474C
330
1F
100
AcDbEntity
  8
Web
  6
HIDDEN
100
AcDbLine
 10
435.2234154051942
 20
81.36943095445259
 30
-0.0004318506061703
 11
435.2234154051942
 21
81.11943095445258
 31
-0.0004318506061703
  0
LINE
  5
4474D
330
1F
100
AcDbEntity
  8
Web
  6
HIDDEN
100
AcDbLine
 10
436.9438878461942
 20
81.49443095445263
 30
-0.0004318506061703
 11
436.9438878461942
 21
81.11943095445264
 31
-0.0004318506061703
  0
LINE
  5
4474E
330
1F
100
AcDbEntity
  8
Web
  6
HIDDEN
100
AcDbLine
 10
436.1938878461941
 20
81.49443095445263
 30
-0.0004318506061703
 11
436.1938878461941
 21
81.11943095445264
 31
-0.0004318506061703
  0
ARC
  5
4474F
330
1F
100
AcDbEntity
  8
Web
  6
HIDDEN
100
AcDbCircle
 10
436.5688878461941
 20
81.49443095445263
 30
-0.0004318506061703
 40
0.375
100
AcDbArc
 50
0.0
 51
180.0
  0
LINE
  5
44750
330
1F
100
AcDbEntity
  8
Web
  6
HIDDEN
100
AcDbLine
 10
436.9438878461942
 20
81.11943095445269
 30
-0.0004318506061703
 11
436.8529068461942
 21
81.11943095445264
 31
-0.0004318506061703
  0
LINE
  5
44751
330
1F
100
AcDbEntity
  8
Web
  6
HIDDEN
100
AcDbLine
 10
436.9438878461942
 20
81.38943095445268
 30
-0.0004318506061703
 11
436.8269120223741
 21
81.18638317833728
 31
-0.0004318506061703
  0
ARC
  5
44752
330
1F
100
AcDbEntity
  8
Web
  6
HIDDEN
100
AcDbCircle
 10
436.8529068461942
 20
81.17140756033455
 30
-0.0004318506061703
 40
0.03
100
AcDbArc
 50
150.053755447354
 51
180.0
  0
LINE
  5
44753
330
1F
100
AcDbEntity
  8
Web
  6
HIDDEN
100
AcDbLine
 10
436.8229068461941
 20
81.17140756033455
 30
-0.0004318506061703
 11
436.8229068461941
 21
81.14943095445267
 31
-0.0004318506061703
  0
ARC
  5
44754
330
1F
100
AcDbEntity
  8
Web
  6
HIDDEN
100
AcDbCircle
 10
436.8529068461942
 20
81.14943095445267
 30
-0.0004318506061703
 40
0.03
100
AcDbArc
 50
180.0
 51
270.0000000000033
  0
LINE
  5
44755
330
1F
100
AcDbEntity
  8
Web
  6
HIDDEN
100
AcDbLine
 10
436.1938878461941
 20
81.11943095445269
 30
-0.0004318506061703
 11
436.2848688461942
 21
81.11943095445264
 31
-0.0004318506061703
  0
LINE
  5
44756
330
1F
100
AcDbEntity
  8
Web
  6
HIDDEN
100
AcDbLine
 10
436.1938878461941
 20
81.38943095445268
 30
-0.0004318506061703
 11
436.3108636700142
 21
81.18638317833728
 31
-0.0004318506061703
  0
ARC
  5
44757
330
1F
100
AcDbEntity
  8
Web
  6
HIDDEN
100
AcDbCircle
 10
436.2848688461942
 20
81.17140756033455
 30
-0.0004318506061703
 40
0.03
100
AcDbArc
 50
0.0
 51
29.94624455264596
  0
LINE
  5
44758
330
1F
100
AcDbEntity
  8
Web
  6
HIDDEN
100
AcDbLine
 10
436.3148688461942
 20
81.17140756033455
 30
-0.0004318506061703
 11
436.3148688461942
 21
81.14943095445267
 31
-0.0004318506061703
  0
ARC
  5
44759
330
1F
100
AcDbEntity
  8
Web
  6
HIDDEN
100
AcDbCircle
 10
436.2848688461942
 20
81.14943095445267
 30
-0.0004318506061703
 40
0.03
100
AcDbArc
 50
269.9999999999968
 51
0.0
  0
LINE
  5
4475A
330
1F
100
AcDbEntity
  8
Web
  6
HIDDEN
100
AcDbLine
 10
431.7411319401943
 20
87.8694309544527
 30
-0.0004318506061703
 11
432.2116043811943
 21
87.8694309544527
 31
-0.0004318506061703
  0
LINE
  5
4475B
330
1F
100
AcDbEntity
  8
Web
  6
HIDDEN
100
AcDbLine
 10
432.7116043811943
 20
87.86943095445293
 30
-0.0004318506061703
 11
433.6550098931943
 21
87.8694309544527
 31
-0.0004318506061703
  0
ARC
  5
4475C
330
1F
100
AcDbEntity
  8
Web
  6
HIDDEN
100
AcDbCircle
 10
433.9675098931943
 20
87.43193095445269
 30
-0.0004318506061703
 40
0.3125
100
AcDbArc
 50
180.0
 51
270.0
  0
LINE
  5
4475D
330
1F
100
AcDbEntity
  8
Web
  6
HIDDEN
100
AcDbLine
 10
433.6550098931943
 20
87.43193095445269
 30
-0.0004318506061703
 11
433.6550098931943
 21
87.8694309544527
 31
-0.0004318506061703
  0
ARC
  5
4475E
330
1F
100
AcDbEntity
  8
Web
  6
HIDDEN
100
AcDbCircle
 10
432.4616043811943
 20
87.61943095445269
 30
-0.0004318506061703
 40
0.25
100
AcDbArc
 50
180.0
 51
0.0
  0
LINE
  5
4475F
330
1F
100
AcDbEntity
  8
Web
  6
HIDDEN
100
AcDbLine
 10
432.2116043811943
 20
87.61943095445269
 30
-0.0004318506061703
 11
432.2116043811943
 21
87.8694309544527
 31
-0.0004318506061703
  0
LINE
  5
44760
330
1F
100
AcDbEntity
  8
Web
  6
HIDDEN
100
AcDbLine
 10
432.7116043811943
 20
87.61943095445269
 30
-0.0004318506061703
 11
432.7116043811943
 21
87.8694309544527
 31
-0.0004318506061703
  0
LINE
  5
44761
330
1F
100
AcDbEntity
  8
Web
  6
HIDDEN
100
AcDbLine
 10
430.9911319401942
 20
87.4944309544527
 30
-0.0004318506061703
 11
430.9911319401942
 21
87.8694309544527
 31
-0.0004318506061703
  0
LINE
  5
44762
330
1F
100
AcDbEntity
  8
Web
  6
HIDDEN
100
AcDbLine
 10
431.7411319401943
 20
87.4944309544527
 30
-0.0004318506061703
 11
431.7411319401943
 21
87.8694309544527
 31
-0.0004318506061703
  0
ARC
  5
44763
330
1F
100
AcDbEntity
  8
Web
  6
HIDDEN
100
AcDbCircle
 10
431.3661319401942
 20
87.4944309544527
 30
-0.0004318506061703
 40
0.375
100
AcDbArc
 50
180.0
 51
0.0
  0
LINE
  5
44764
330
1F
100
AcDbEntity
  8
Web
  6
HIDDEN
100
AcDbLine
 10
430.9911319401942
 20
87.8694309544527
 30
-0.0004318506061703
 11
431.0821129401943
 21
87.8694309544527
 31
-0.0004318506061703
  0
LINE
  5
44765
330
1F
100
AcDbEntity
  8
Web
  6
HIDDEN
100
AcDbLine
 10
430.9911319401942
 20
87.59943095445271
 30
-0.0004318506061703
 11
431.1081077640143
 21
87.80247873056806
 31
-0.0004318506061703
  0
ARC
  5
44766
330
1F
100
AcDbEntity
  8
Web
  6
HIDDEN
100
AcDbCircle
 10
431.0821129401943
 20
87.81745434857077
 30
-0.0004318506061703
 40
0.03
100
AcDbArc
 50
330.053755447354
 51
0.0
  0
LINE
  5
44767
330
1F
100
AcDbEntity
  8
Web
  6
HIDDEN
100
AcDbLine
 10
431.1121129401943
 20
87.81745434857077
 30
-0.0004318506061703
 11
431.1121129401943
 21
87.83943095445271
 31
-0.0004318506061703
  0
ARC
  5
44768
330
1F
100
AcDbEntity
  8
Web
  6
HIDDEN
100
AcDbCircle
 10
431.0821129401943
 20
87.83943095445271
 30
-0.0004318506061703
 40
0.03
100
AcDbArc
 50
0.0
 51
90.00000000000325
  0
LINE
  5
44769
330
1F
100
AcDbEntity
  8
Web
  6
HIDDEN
100
AcDbLine
 10
431.7411319401943
 20
87.8694309544527
 30
-0.0004318506061703
 11
431.6501509401943
 21
87.8694309544527
 31
-0.0004318506061703
  0
LINE
  5
4476A
330
1F
100
AcDbEntity
  8
Web
  6
HIDDEN
100
AcDbLine
 10
431.7411319401943
 20
87.59943095445271
 30
-0.0004318506061703
 11
431.6241561163742
 21
87.80247873056806
 31
-0.0004318506061703
  0
ARC
  5
4476B
330
1F
100
AcDbEntity
  8
Web
  6
HIDDEN
100
AcDbCircle
 10
431.6501509401943
 20
87.81745434857077
 30
-0.0004318506061703
 40
0.03
100
AcDbArc
 50
180.0
 51
209.946244552646
  0
LINE
  5
4476C
330
1F
100
AcDbEntity
  8
Web
  6
HIDDEN
100
AcDbLine
 10
431.6201509401942
 20
87.81745434857077
 30
-0.0004318506061703
 11
431.6201509401942
 21
87.83943095445271
 31
-0.0004318506061703
  0
ARC
  5
4476D
330
1F
100
AcDbEntity
  8
Web
  6
HIDDEN
100
AcDbCircle
 10
431.6501509401943
 20
87.83943095445271
 30
-0.0004318506061703
 40
0.03
100
AcDbArc
 50
89.99999999999674
 51
180.0
  0
LINE
  5
4476E
330
1F
100
AcDbEntity
  8
Web
  6
HIDDEN
100
AcDbLine
 10
436.1938878461941
 20
87.8694309544527
 30
-0.0004318506061703
 11
435.7234154051943
 21
87.8694309544527
 31
-0.0004318506061703
  0
LINE
  5
4476F
330
1F
100
AcDbEntity
  8
Web
  6
HIDDEN
100
AcDbLine
 10
435.2234154051942
 20
87.86943095445293
 30
-0.0004318506061703
 11
434.2800098931943
 21
87.8694309544527
 31
-0.0004318506061703
  0
ARC
  5
44770
330
1F
100
AcDbEntity
  8
Web
  6
HIDDEN
100
AcDbCircle
 10
433.9675098931943
 20
87.43193095445269
 30
-0.0004318506061703
 40
0.3125
100
AcDbArc
 50
270.0
 51
0.0
  0
LINE
  5
44771
330
1F
100
AcDbEntity
  8
Web
  6
HIDDEN
100
AcDbLine
 10
434.2800098931943
 20
87.43193095445269
 30
-0.0004318506061703
 11
434.2800098931943
 21
87.8694309544527
 31
-0.0004318506061703
  0
ARC
  5
44772
330
1F
100
AcDbEntity
  8
Web
  6
HIDDEN
100
AcDbCircle
 10
435.4734154051943
 20
87.61943095445269
 30
-0.0004318506061703
 40
0.25
100
AcDbArc
 50
180.0
 51
0.0
  0
LINE
  5
44773
330
1F
100
AcDbEntity
  8
Web
  6
HIDDEN
100
AcDbLine
 10
435.7234154051943
 20
87.61943095445269
 30
-0.0004318506061703
 11
435.7234154051943
 21
87.8694309544527
 31
-0.0004318506061703
  0
LINE
  5
44774
330
1F
100
AcDbEntity
  8
Web
  6
HIDDEN
100
AcDbLine
 10
435.2234154051942
 20
87.61943095445269
 30
-0.0004318506061703
 11
435.2234154051942
 21
87.8694309544527
 31
-0.0004318506061703
  0
LINE
  5
44775
330
1F
100
AcDbEntity
  8
Web
  6
HIDDEN
100
AcDbLine
 10
436.9438878461942
 20
87.4944309544527
 30
-0.0004318506061703
 11
436.9438878461942
 21
87.8694309544527
 31
-0.0004318506061703
  0
LINE
  5
44776
330
1F
100
AcDbEntity
  8
Web
  6
HIDDEN
100
AcDbLine
 10
436.1938878461941
 20
87.4944309544527
 30
-0.0004318506061703
 11
436.1938878461941
 21
87.8694309544527
 31
-0.0004318506061703
  0
ARC
  5
44777
330
1F
100
AcDbEntity
  8
Web
  6
HIDDEN
100
AcDbCircle
 10
436.5688878461941
 20
87.4944309544527
 30
-0.0004318506061703
 40
0.375
100
AcDbArc
 50
180.0
 51
0.0
  0
LINE
  5
44778
330
1F
100
AcDbEntity
  8
Web
  6
HIDDEN
100
AcDbLine
 10
436.9438878461942
 20
87.8694309544527
 30
-0.0004318506061703
 11
436.8529068461942
 21
87.8694309544527
 31
-0.0004318506061703
  0
LINE
  5
44779
330
1F
100
AcDbEntity
  8
Web
  6
HIDDEN
100
AcDbLine
 10
436.9438878461942
 20
87.59943095445271
 30
-0.0004318506061703
 11
436.8269120223741
 21
87.80247873056806
 31
-0.0004318506061703
  0
ARC
  5
4477A
330
1F
100
AcDbEntity
  8
Web
  6
HIDDEN
100
AcDbCircle
 10
436.8529068461942
 20
87.81745434857077
 30
-0.0004318506061703
 40
0.03
100
AcDbArc
 50
180.0
 51
209.946244552646
  0
LINE
  5
4477B
330
1F
100
AcDbEntity
  8
Web
  6
HIDDEN
100
AcDbLine
 10
436.8229068461941
 20
87.81745434857077
 30
-0.0004318506061703
 11
436.8229068461941
 21
87.83943095445271
 31
-0.0004318506061703
  0
ARC
  5
4477C
330
1F
100
AcDbEntity
  8
Web
  6
HIDDEN
100
AcDbCircle
 10
436.8529068461942
 20
87.83943095445271
 30
-0.0004318506061703
 40
0.03
100
AcDbArc
 50
89.99999999999674
 51
180.0
  0
LINE
  5
4477D
330
1F
100
AcDbEntity
  8
Web
  6
HIDDEN
100
AcDbLine
 10
436.1938878461941
 20
87.8694309544527
 30
-0.0004318506061703
 11
436.2848688461942
 21
87.8694309544527
 31
-0.0004318506061703
  0
LINE
  5
4477E
330
1F
100
AcDbEntity
  8
Web
  6
HIDDEN
100
AcDbLine
 10
436.1938878461941
 20
87.59943095445271
 30
-0.0004318506061703
 11
436.3108636700142
 21
87.80247873056806
 31
-0.0004318506061703
  0
ARC
  5
4477F
330
1F
100
AcDbEntity
  8
Web
  6
HIDDEN
100
AcDbCircle
 10
436.2848688461942
 20
87.81745434857077
 30
-0.0004318506061703
 40
0.03
100
AcDbArc
 50
330.053755447354
 51
0.0
  0
LINE
  5
44780
330
1F
100
AcDbEntity
  8
Web
  6
HIDDEN
100
AcDbLine
 10
436.3148688461942
 20
87.81745434857077
 30
-0.0004318506061703
 11
436.3148688461942
 21
87.83943095445271
 31
-0.0004318506061703
  0
ARC
  5
44781
330
1F
100
AcDbEntity
  8
Web
  6
HIDDEN
100
AcDbCircle
 10
436.2848688461942
 20
87.83943095445271
 30
-0.0004318506061703
 40
0.03
100
AcDbArc
 50
0.0
 51
90.00000000000325
  0
LINE
  5
44782
330
1F
100
AcDbEntity
  8
Block
100
AcDbLine
 10
429.9675098931943
 20
92.49443095445263
 30
-0.0004318506061738
 11
427.2175098931943
 21
92.49443095445263
 31
-0.0004318506061738
  0
LINE
  5
44783
330
1F
100
AcDbEntity
  8
Block
100
AcDbLine
 10
440.7175098931943
 20
92.49443095445263
 30
-0.0004318506061738
 11
437.9675098931943
 21
92.49443095445263
 31
-0.0004318506061738
  0
HATCH
  5
44784
330
1F
100
AcDbEntity
  8
Hatch
100
AcDbHatch
 10
0.0
 20
0.0
 30
-0.0004318506061738
210
0.0
220
0.0
230
1.0
  2
SACNCR
 70
     0
 71
     0
 91
        2
 92
        1
 93
        4
 72
     1
 10
437.9675098931943
 20
76.49443095445263
 11
437.9675098931943
 21
92.49443095445263
 72
     1
 10
437.9675098931943
 20
92.49443095445263
 11
440.7175098931943
 21
92.49443095445263
 72
     1
 10
440.7175098931943
 20
92.49443095445263
 11
440.7175098931943
 21
76.49443095445263
 72
     1
 10
440.7175098931943
 20
76.49443095445263
 11
437.9675098931943
 21
76.49443095445263
 97
        0
 92
        1
 93
        5
 72
     1
 10
429.9675098931943
 20
92.49443095445263
 11
429.9675098931943
 21
76.49443095445263
 72
     1
 10
429.9675098931943
 20
76.49443095445263
 11
428.5925098931943
 21
76.49443095445263
 72
     1
 10
428.5925098931943
 20
76.49443095445263
 11
427.2175098931943
 21
76.49443095445263
 72
     1
 10
427.2175098931943
 20
76.49443095445263
 11
427.2175098931943
 21
92.49443095445263
 72
     1
 10
427.2175098931943
 20
92.49443095445263
 11
429.9675098931943
 21
92.49443095445263
 97
        0
 75
     0
 76
     1
 52
0.0
 41
10.0
 77
     0
 78
     2
 53
45.0
 43
364.6048711963024
 44
52.13834654602249
 45
-0.6629126073623883
 46
0.6629126073623884
 79
     0
 53
45.0
 43
365.2677838063024
 44
52.13834654602249
 45
-0.6629126073623883
 46
0.6629126073623884
 79
     2
 49
0.0
 49
-0.9375
 98
        1
 10
243.3368457596246
 20
23.34758710150785
1001
ACAD
1010
0.0
1020
0.0
1030
0.0
  0
LINE
  5
44785
330
1F
100
AcDbEntity
  8
Block
100
AcDbLine
 10
429.9675098931943
 20
92.49443095445263
 30
-0.0004318506061738
 11
429.9675098931943
 21
76.49443095445263
 31
-0.0004318506061738
  0
LINE
  5
44786
330
1F
100
AcDbEntity
  8
Block
100
AcDbLine
 10
427.2175098931943
 20
92.49443095445263
 30
-0.0004318506061738
 11
427.2175098931943
 21
76.49443095445263
 31
-0.0004318506061738
  0
LINE
  5
44787
330
1F
100
AcDbEntity
  8
Block
100
AcDbLine
 10
429.9675098931943
 20
76.49443095445263
 30
-0.0004318506061738
 11
427.2175098931943
 21
76.49443095445263
 31
-0.0004318506061738
  0
LINE
  5
44788
330
1F
100
AcDbEntity
  8
Block
100
AcDbLine
 10
440.7175098931943
 20
92.49443095445263
 30
-0.0004318506061738
 11
440.7175098931943
 21
76.49443095445263
 31
-0.0004318506061738
  0
LINE
  5
44789
330
1F
100
AcDbEntity
  8
Block
100
AcDbLine
 10
440.7175098931943
 20
76.49443095445263
 30
-0.0004318506061738
 11
437.9675098931943
 21
76.49443095445263
 31
-0.0004318506061738
  0
LINE
  5
4478A
330
1F
100
AcDbEntity
  8
Block
100
AcDbLine
 10
437.9675098931943
 20
76.49443095445263
 30
-0.0004318506061738
 11
437.9675098931943
 21
92.49443095445263
 31
-0.0004318506061738
  0
LINE
  5
4478B
330
1F
100
AcDbEntity
  8
Conc
100
AcDbLine
 10
423.2175098931943
 20
68.49443095445264
 30
-0.0004318506061738
 11
423.2175098931943
 21
76.49443095445263
 31
-0.0004318506061738
  0
LINE
  5
4478C
102
{ACAD_REACTORS
330
4488A
102
}
330
1F
100
AcDbEntity
  8
Conc
100
AcDbLine
 10
427.2175098931943
 20
76.49443095445263
 30
-0.0004318506061738
 11
423.2175098931943
 21
76.49443095445263
 31
-0.0004318506061738
  0
LEADER
  5
44800
330
1F
100
AcDbEntity
  8
Dim
100
AcDbLeader
  3
FBR
 73
     0
 76
     2
 10
440.7175098931943
 20
57.5620529698491
 30
-0.0004318506061738
 10
448.992750825948
 20
57.5620529698491
 30
-0.0004318506061738
213
0.0
223
-0.375
233
0.0
  0
MTEXT
  5
44801
102
{ACAD_REACTORS
330
44800
102
}
330
1F
100
AcDbEntity
  8
Dim
100
AcDbMText
 10
449.292750825948
 20
57.9370529698491
 30
-0.0004318506061738
 40
1.0
 41
0.0
 46
0.0
 71
     1
 72
     1
  1
\A1;12" LOGIX ^JKnockdown Forms
  7
Logix
 73
     1
 44
1.0
  0
LEADER
  5
44802
330
1F
100
AcDbEntity
  8
Dim
100
AcDbLeader
  3
FBR
 73
     0
 76
     2
 10
440.7175098931943
 20
87.64877223741917
 30
-0.0004318506061738
 10
448.992750825948
 20
87.64877223741917
 30
-0.0004318506061738
213
0.0
223
-0.375
233
0.0
  0
MTEXT
  5
44803
102
{ACAD_REACTORS
330
44802
102
}
330
1F
100
AcDbEntity
  8
Dim
100
AcDbMText
 10
449.292750825948
 20
88.02377223741917
 30
-0.0004318506061738
 40
1.0
 41
0.0
 46
0.0
 71
     1
 72
     1
  1
\A1;8" LOGIX
  7
Logix
 73
     1
 44
1.0
  0
LEADER
  5
44804
330
1F
100
AcDbEntity
  8
Dim
100
AcDbLeader
  3
FBR
 73
     0
 75
     1
 76
     3
 10
420.182578492641
 20
72.49634243654265
 30
-0.0008637012123476
 10
416.3945249149159
 20
74.93938052804996
 30
-0.0008637012123476
 10
415.6445249149158
 20
74.93938052804996
 30
-0.0008637012123476
213
0.0
223
0.375
233
0.0
  0
MTEXT
  5
44805
102
{ACAD_REACTORS
330
44804
102
}
330
1F
100
AcDbEntity
  8
Dim
100
AcDbMText
 10
415.1082162733494
 20
73.49869379950813
 30
-0.0017274024246952
 40
1.0
 41
0.0
 46
0.0
 71
     9
 72
     1
  1
\A1;Remove 8" strip of foam\Pto form brick ledge
  7
Logix
 73
     1
 44
1.0
  0
ARC
  5
44806
330
1F
100
AcDbEntity
  8
Dim
100
AcDbCircle
 10
420.2009540990162
 20
73.49443095445264
 30
-0.0004318506061738
 40
1.0
100
AcDbArc
 50
270.0
 51
0.0
  0
LINE
  5
44807
330
1F
100
AcDbEntity
  8
Dim
100
AcDbLine
 10
421.2009540990163
 20
75.49443095445264
 30
-0.0004318506061738
 11
421.2009540990163
 21
73.49443095445264
 31
-0.0004318506061738
  0
ARC
  5
44808
330
1F
100
AcDbEntity
  8
Dim
100
AcDbCircle
 10
422.2009540990162
 20
75.49443095445264
 30
-0.0004318506061738
 40
1.0
100
AcDbArc
 50
106.7498573537546
 51
180.0
  0
ARC
  5
44809
330
1F
100
AcDbEntity
  8
Dim
100
AcDbCircle
 10
420.2009540990162
 20
71.49443095445263
 30
-0.0004318506061738
 40
1.0
100
AcDbArc
 50
0.0
 51
90.0
  0
LINE
  5
4480A
330
1F
100
AcDbEntity
  8
Dim
100
AcDbLine
 10
421.2009540990163
 20
69.49443095445264
 30
-0.0004318506061738
 11
421.2009540990163
 21
71.49443095445263
 31
-0.0004318506061738
  0
ARC
  5
4480B
330
1F
100
AcDbEntity
  8
Dim
100
AcDbCircle
 10
422.2009540990162
 20
69.49443095445264
 30
-0.0004318506061738
 40
1.0
100
AcDbArc
 50
180.0
 51
253.2501426462453
  0
LWPOLYLINE
  5
44846
102
{ACAD_REACTORS
330
445C7
102
}
330
1F
100
AcDbEntity
  8
Dim
  6
Continuous
100
AcDbPolyline
 90
        6
 70
     0
 43
0.0
 38
-0.0004318506061738
 10
441.7175098931942
 20
95.68738383338342
 10
434.9675098931942
 20
95.6873838333834
 10
434.4675098931984
 20
97.061122543112
 10
433.4675098931984
 20
94.31364512365679
 10
432.9675098931941
 20
95.6873838333834
 10
426.2175098931942
 20
95.6873838333834
  0
LWPOLYLINE
  5
4484F
102
{ACAD_REACTORS
330
445C7
102
}
330
1F
100
AcDbEntity
  8
Dim
  6
Continuous
100
AcDbPolyline
 90
        6
 70
     0
 43
0.0
 38
-0.0004318506061738
 10
441.7175098931943
 20
38.63097315110071
 10
432.9675098931942
 20
38.63097315110071
 10
432.4675098931984
 20
40.00471186082791
 10
431.4675098931984
 20
37.2572344413727
 10
430.9675098931942
 20
38.63097315110071
 10
422.2175098931942
 20
38.63097315110071
  0
DIMENSION
  5
4486F
102
{ACAD_XDICTIONARY
360
4487E
102
}
102
{ACAD_REACTORS
330
4488A
102
}
330
1F
100
AcDbEntity
  8
Dim
100
AcDbDimension
280
     0
  2
*D6
 10
423.2175098931943
 20
80.41771913825312
 30
0.0
 11
416.3775098931942
 21
80.41771913825312
 31
0.0
 70
    32
  1
4" bearing seat
 71
     5
 42
4.0
 73
     0
 74
     0
 75
     0
  3
FBR
100
AcDbAlignedDimension
 13
427.2175098931943
 23
76.49443095445263
 33
-0.0004318506061738
 14
423.2175098931943
 24
76.49443095445263
 34
-0.0004318506061738
100
AcDbRotatedDimension
1001
ACAD
1000
DSTYLE
1002
{
1070
   140
1040
1.0
1070
    49
1040
0.5
1002
}
  0
SPLINE
  5
448A3
330
1F
100
AcDbEntity
  8
Conc
370
     0
100
AcDbSpline
 70
  1056
 71
     3
 72
    14
 73
    10
 74
     8
 42
0.000000001
 43
0.0000000001
 44
0.0000000001
 40
0.0
 40
0.0
 40
0.0
 40
0.0
 40
1.452360697210662
 40
2.43623663245352
 40
3.691982381396174
 40
5.132020278539635
 40
6.76926716947036
 40
7.576647230484817
 40
8.005835874566185
 40
8.005835874566185
 40
8.005835874566185
 40
8.005835874566185
 10
429.9675098931942
 20
76.49443095445263
 30
-0.0004318506061738
 10
430.4515843761126
 20
76.50298762293362
 30
-0.0002431122616328
 10
431.2635865119366
 20
76.5173408543624
 30
0.0000734835191553
 10
432.4931759687575
 20
76.56773490363761
 30
-0.0000196799790277
 10
433.7176116883763
 20
76.65479837985386
 30
-0.0000033943669629
 10
435.162540664924
 20
76.61149426578595
 30
0.0000469687794909
 10
436.4573605120624
 20
76.59296179430466
 30
-0.0001654247213354
 10
437.4133445397718
 20
76.52893785923473
 30
0.0002299198812129
 10
437.8247271062837
 20
76.50332178821193
 30
-0.0002613429519138
 10
437.9675098931943
 20
76.49443095445263
 30
-0.0004318506061738
 11
429.9675098931942
 21
76.49443095445263
 31
-0.0004318506061738
 11
431.4195093713084
 21
76.52681804854182
 31
0.0
 11
432.4025082868584
 21
76.56835102312101
 31
0.0
 11
433.656702671745
 21
76.63075159127806
 31
0.0
 11
435.0966747639791
 21
76.61698500867692
 31
0.0
 11
436.7332417358926
 21
76.56980526403629
 31
0.0
 11
437.5391656280377
 21
76.52133627401844
 31
0.0
 11
437.9675098931943
 21
76.49443095445263
 31
-0.0004318506061738
  0
LWPOLYLINE
  5
448A5
330
1F
100
AcDbEntity
  8
Dim
100
AcDbPolyline
 90
        4
 70
     1
 43
0.18
 10
391.0074828376766
 20
112.9489117206688
 10
468.4578298349626
 20
112.9489117206688
 10
468.4578298349626
 20
12.71905090065169
 10
391.0074828376766
 20
12.71905090065169
  0
LINE
  5
448A6
330
1F
100
AcDbEntity
  8
Dim
100
AcDbLine
 10
390.9174828376766
 20
113.0389117206688
 30
0.0
 11
468.5478298349626
 21
113.0389117206688
 31
0.0
  0
LINE
  5
448A7
330
1F
100
AcDbEntity
  8
Dim
100
AcDbLine
 10
468.5478298349626
 20
113.0389117206688
 30
0.0
 11
468.5478298349626
 21
12.62905090065169
 31
0.0
  0
LINE
  5
448A8
330
1F
100
AcDbEntity
  8
Dim
100
AcDbLine
 10
468.5478298349626
 20
12.62905090065169
 30
0.0
 11
390.9174828376766
 21
12.62905090065169
 31
0.0
  0
LINE
  5
448A9
330
1F
100
AcDbEntity
  8
Dim
100
AcDbLine
 10
390.9174828376766
 20
12.62905090065169
 30
0.0
 11
390.9174828376766
 21
113.0389117206688
 31
0.0
  0
LWPOLYLINE
  5
448AA
330
1F
100
AcDbEntity
  8
Dim
100
AcDbPolyline
 90
        2
 70
     1
 43
0.18
 10
391.0074828376766
 20
23.32414485715712
 10
468.4578298349626
 20
23.32414485715712
  0
LWPOLYLINE
  5
448AB
330
1F
100
AcDbEntity
  8
Dim
100
AcDbPolyline
 90
        2
 70
     0
 43
0.18
 10
408.4125041027872
 20
12.71905090065169
 10
408.4125041027872
 20
23.32414485715712
  0
MTEXT
  5
448AD
330
1F
100
AcDbEntity
  8
Text
100
AcDbMText
 10
409.1189691428614
 20
22.67278007761185
 30
0.0
 40
0.64125
 41
22.3495503773697
 46
8.792554080037959
 71
     1
 72
     5
  3
{\fTimes New Roman|b0|i0|c0|p18;The drawing represented herein is to be used as a reference guide only;  the user shall check to ensure the drawing meets local building codes and construction practices by consulting local building officials and profe
  1
ssionals, including any additional requirements.  Logix reserves the right to make changes to the drawing without notice and assumes no liability in connection with the use of the drawing including modification, copying or distribution.}
 73
     1
 44
1.0
1001
ACAD
1000
ACAD_MTEXT_DEFINED_HEIGHT_BEGIN
1070
    46
1040
8.792554080037959
1000
ACAD_MTEXT_DEFINED_HEIGHT_END
  0
LWPOLYLINE
  5
448AE
330
1F
100
AcDbEntity
  8
Dim
100
AcDbPolyline
 90
        2
 70
     0
 43
0.18
 10
431.6850813169253
 20
12.71905090065169
 10
431.6850813169253
 20
23.32414485715712
  0
LWPOLYLINE
  5
448AF
330
1F
100
AcDbEntity
  8
Dim
100
AcDbPolyline
 90
        2
 70
     0
 43
0.18
 10
431.8125041027871
 20
19.3715978789044
 10
468.4578298349626
 20
19.3715978789044
  0
LWPOLYLINE
  5
448B0
330
1F
100
AcDbEntity
  8
Dim
100
AcDbPolyline
 90
        2
 70
     0
 43
0.18
 10
453.7351669688749
 20
19.3715978789044
 10
453.7351669688749
 20
23.32414485715712
  0
MTEXT
  5
448B1
330
1F
100
AcDbEntity
  8
Dim
100
AcDbMText
 10
432.2625041027873
 20
22.87414485715712
 30
0.0
 40
0.675
 41
2.25
 46
0.881220672108574
 71
     1
 72
     5
  1
Drawing:
  7
Logix
 73
     1
 44
1.0
1001
ACAD
1000
ACAD_MTEXT_DEFINED_HEIGHT_BEGIN
1070
    46
1040
0.881220672108574
1000
ACAD_MTEXT_DEFINED_HEIGHT_END
  0
MTEXT
  5
448B2
330
1F
100
AcDbEntity
  8
Dim
100
AcDbMText
 10
454.1851669688749
 20
22.87414485715712
 30
0.0
 40
0.675
 41
2.25
 46
0.881220672108574
 71
     1
 72
     5
  1
Date:
  7
Logix
 73
     1
 44
1.0
1001
ACAD
1000
ACAD_MTEXT_DEFINED_HEIGHT_BEGIN
1070
    46
1040
0.881220672108574
1000
ACAD_MTEXT_DEFINED_HEIGHT_END
  0
MTEXT
  5
448B3
330
1F
100
AcDbEntity
  8
Dim
100
AcDbMText
 10
432.2625041027873
 20
18.9215978789044
 30
0.0
 40
0.675
 41
2.25
 46
0.881220672108574
 71
     1
 72
     5
  1
Title:
  7
Logix
 73
     1
 44
1.0
1001
ACAD
1000
ACAD_MTEXT_DEFINED_HEIGHT_BEGIN
1070
    46
1040
0.881220672108574
1000
ACAD_MTEXT_DEFINED_HEIGHT_END
  0
TEXT
  5
448B4
330
1F
100
AcDbEntity
  8
Dim
100
AcDbText
 10
432.2625041027873
 20
20.64292418504853
 30
0.0
 40
0.9
  1
5.17.2.1
  7
Logix
100
AcDbText
  0
MTEXT
  5
448B5
330
1F
100
AcDbEntity
  8
Dim
100
AcDbMText
 10
432.2625041027873
 20
22.87414485715712
 30
0.0
 40
0.675
 41
2.25
 46
0.881220672108574
 71
     1
 72
     5
  1
Drawing:
  7
Logix
 73
     1
 44
1.0
1001
ACAD
1000
ACAD_MTEXT_DEFINED_HEIGHT_BEGIN
1070
    46
1040
0.881220672108574
1000
ACAD_MTEXT_DEFINED_HEIGHT_END
  0
TEXT
  5
448B6
330
1F
100
AcDbEntity
  8
Dim
100
AcDbText
 10
454.1851669688749
 20
20.64292418504853
 30
0.0
 40
0.9
  1
Jul 30/13
  7
Logix
100
AcDbText
  0
MTEXT
  5
448B7
330
1F
100
AcDbEntity
  8
Dim
100
AcDbMText
 10
454.1851669688749
 20
22.87414485715712
 30
0.0
 40
0.675
 41
2.25
 46
0.881220672108574
 71
     1
 72
     5
  1
Date:
  7
Logix
 73
     1
 44
1.0
1001
ACAD
1000
ACAD_MTEXT_DEFINED_HEIGHT_BEGIN
1070
    46
1040
0.881220672108574
1000
ACAD_MTEXT_DEFINED_HEIGHT_END
  0
MTEXT
  5
448B8
330
1F
100
AcDbEntity
  8
Dim
100
AcDbMText
 10
432.2625041027873
 20
18.9215978789044
 30
0.0
 40
0.675
 41
2.25
 46
0.881220672108574
 71
     1
 72
     5
  1
Title:
  7
Logix
 73
     1
 44
1.0
1001
ACAD
1000
ACAD_MTEXT_DEFINED_HEIGHT_BEGIN
1070
    46
1040
0.881220672108574
1000
ACAD_MTEXT_DEFINED_HEIGHT_END
  0
MTEXT
  5
448B9
330
1F
100
AcDbEntity
  8
Dim
100
AcDbMText
 10
450.0375041027872
 20
15.53992305373015
 30
0.0
 40
1.125
 41
35.55000000000001
 46
4.806002262636749
 71
     5
 72
     5
  1
BRICKLEDGE FORMED WITH 12" KNOCKDOWN FORMS
  7
Logix
 73
     1
 44
1.0
1001
ACAD
1000
ACAD_MTEXT_DEFINED_HEIGHT_BEGIN
1070
    46
1040
4.806002262636749
1000
ACAD_MTEXT_DEFINED_HEIGHT_END
  0
LINE
  5
448BB
330
1F
100
AcDbEntity
  8
Sills
100
AcDbLine
 10
423.2175098931943
 20
76.49443095445263
 30
-0.0004318506061738
 11
422.2175098931942
 21
76.49443095445263
 31
-0.0004318506061738
  0
LINE
  5
448BC
330
1F
100
AcDbEntity
  8
Sills
100
AcDbLine
 10
422.2175098931942
 20
76.49443095445263
 30
-0.0004318506061738
 11
422.2175098931942
 21
63.34941909522138
 31
-0.0004318506061738
  0
LINE
  5
448BD
330
1F
100
AcDbEntity
  8
Sills
100
AcDbLine
 10
422.2175098931942
 20
63.34941909522138
 30
-0.0004318506061738
 11
423.2175098931943
 21
63.34941909522138
 31
-0.0004318506061738
  0
LINE
  5
448BE
330
1F
100
AcDbEntity
  8
Sills
100
AcDbLine
 10
423.2175098931943
 20
63.34941909522138
 30
-0.0004318506061738
 11
423.2175098931943
 21
76.49443095445263
 31
-0.0004318506061738
  0
LINE
  5
448BF
330
1F
100
AcDbEntity
  8
Sills
100
AcDbLine
 10
423.2175098931943
 20
76.49443095445263
 30
-0.0004318506061738
 11
422.2175098931942
 21
63.34941909522138
 31
-0.0004318506061738
  0
LINE
  5
448C0
330
1F
100
AcDbEntity
  8
Sills
100
AcDbLine
 10
423.2175098931943
 20
63.34941909522138
 30
-0.0004318506061738
 11
422.2175098931942
 21
76.49443095445263
 31
-0.0004318506061738
  0
LEADER
  5
448C1
330
1F
100
AcDbEntity
  8
Dim
100
AcDbLeader
  3
FBR
 73
     0
 76
     2
 10
422.2175098931942
 20
65.84009745475305
 30
-0.0008637012123476
 10
415.6445249149158
 20
64.77612927993146
 30
-0.0008637012123476
213
0.0
223
0.375
233
0.0
  0
MTEXT
  5
448C2
102
{ACAD_REACTORS
330
448C1
102
}
330
1F
100
AcDbEntity
  8
Dim
100
AcDbMText
 10
415.1082162733494
 20
63.33544255138962
 30
-0.0017274024246952
 40
1.0
 41
0.0
 46
0.0
 71
     9
 72
     1
  1
\A1;Temporary form\Psupport
  7
Logix
 73
     1
 44
1.0
  0
MTEXT
  5
44B37
330
1F
100
AcDbEntity
  8
Title Block
100
AcDbMText
 10
399.7058196078018
 20
20.19441238797546
 30
0.0
 40
2.729672926636835
 41
14.13077577704086
 46
0.0
 71
     5
 72
     5
  1
{\fSansSerif|b1|i0|c2|p2;LOGIX}
 73
     1
 44
1.0
  0
HATCH
  5
44B38
330
1F
100
AcDbEntity
  8
Title Block
 62
    12
420
 14024704
100
AcDbHatch
 10
0.0
 20
0.0
 30
0.0
210
0.0
220
0.0
230
1.0
  2
SOLID
 70
     1
 71
     0
 91
        1
 92
        1
 93
        4
 72
     1
 10
402.6646349329337
 20
21.92150560462605
 11
402.6646349329338
 21
22.48945859483912
 72
     1
 10
402.6646349329337
 20
22.48945859483912
 11
402.0934374873664
 21
22.49340350409812
 72
     1
 10
402.0934374873664
 20
22.49340350409812
 11
402.0934374873664
 21
21.92545051388505
 72
     1
 10
402.0934374873664
 20
21.92545051388505
 11
402.6646349329337
 21
21.92150560462605
 97
        0
 75
     0
 76
     1
 98
        1
 10
402.8241154249597
 20
22.12164155324926
450
        0
451
        0
460
0.0
461
0.0
452
        0
462
0.0
453
        0
470

  0
TEXT
  5
44B39
330
1F
100
AcDbEntity
  8
Title Block
100
AcDbText
 10
395.7173261579525
 20
18.29372747195909
 30
0.0
 40
0.4342661474194966
  1
INSULATED CONCRETE FORMS
  7
TITLE
100
AcDbText
  0
LWPOLYLINE
  5
44B3A
330
1F
100
AcDbEntity
  8
Title Block
100
AcDbPolyline
 90
        3
 70
     0
 43
0.4963041684794247
 10
393.2072494595404
 20
19.48682856095046
 10
393.2072494595404
 20
18.04345404795884
 10
395.7911953427679
 20
18.04345404795884
  0
HATCH
  5
44B3B
330
1F
100
AcDbEntity
  8
Title Block
 62
    12
420
 14024704
100
AcDbHatch
 10
0.0
 20
0.0
 30
0.0
210
0.0
220
0.0
230
1.0
  2
SOLID
 70
     1
 71
     0
 91
        1
 92
        1
 93
        4
 72
     1
 10
394.3412813519792
 20
17.77648401808069
 11
394.3412813519792
 21
18.41146428150464
 72
     1
 10
394.3412813519792
 20
18.41146428150464
 11
393.7000860803449
 21
18.41146428150464
 72
     1
 10
393.7000860803449
 20
18.41146428150464
 11
393.7000860803449
 21
17.77648401808069
 72
     1
 10
393.7000860803449
 20
17.77648401808069
 11
394.3412813519792
 21
17.77648401808069
 97
        0
 75
     0
 76
     1
 98
        1
 10
394.1225791580254
 20
18.07386206750847
450
        0
451
        0
460
0.0
461
0.0
452
        0
462
0.0
453
        0
470

  0
LWPOLYLINE
  5
44B3C
330
1F
100
AcDbEntity
  8
Title Block
 62
    10
100
AcDbPolyline
 90
        4
 70
     1
 43
0.0
 10
394.3412813519792
 20
17.77648401808069
 10
393.7000860803449
 20
17.77648401808069
 10
393.7000860803449
 20
18.41146428150465
 10
394.3412813519792
 20
18.41146428150465
  0
MTEXT
  5
44B3D
102
{ACAD_XDICTIONARY
360
44B3E
102
}
330
1F
100
AcDbEntity
  8
Title Block
100
AcDbMText
 10
406.614428167597
 20
21.55496995419559
 30
0.0
 40
0.6617388913058998
 41
1.301894827507082
 46
0.0
 71
     3
 72
     5
  1
{\fArial|b0|i0|c0|p34;\H1.0833x;®}
 73
     1
 44
1.0
  0
MTEXT
  5
44B3F
102
{ACAD_XDICTIONARY
360
44B40
102
}
330
1F
100
AcDbEntity
  8
0
 48
0.01
100
AcDbMText
 10
392.9344933377531
 20
17.17164533801886
 30
0.0
 40
0.8443206762882178
 41
13.65867971675439
 46
0.0
 71
     1
 72
     5
  1
\pi0.06735;{\C256;\c16777215;Build Anything \fCalibri|b1|i0|c0|p34;Better.}
  7
Logix
 73
     1
 44
1.0
 90
        1
 63
    83
 45
1.5
441
        0
1001
AcadAnnotative
1000
AnnotativeData
1002
{
1070
     1
1070
     1
1002
}
  0
MTEXT
  5
44B44
330
1F
100
AcDbEntity
  8
Title Block
100
AcDbMText
 10
399.3454804298186
 20
13.7327019458208
 30
0.0
 40
0.6617388913058998
 41
19.07068176246241
 46
0.0
 71
     5
 72
     5
  1
{\fArial|b0|i0|c0|p34;1-866-944-0153}
 73
     1
 44
1.0
  0
MTEXT
  5
44B45
330
1F
100
AcDbEntity
  8
Title Block
100
AcDbMText
 10
399.3454804298186
 20
14.7623120239346
 30
0.0
 40
0.6617388913058998
 41
19.07068176246241
 46
0.0
 71
     5
 72
     5
  1
{\fArial|b0|i0|c0|p34;www.logixicf.com}
 73
     1
 44
1.0
  0
VIEWPORT
  5
11F07
330
5D
100
AcDbEntity
 67
     1
  8
0
100
AcDbViewport
 10
5.249999639556163
 20
3.999999883606677
 30
0.0
 40
21.60469660038833
 41
8.992999745766947
 68
     1
 69
     1
 12
5.249999639556163
 22
3.999999883606677
 13
0.0
 23
0.0
 14
0.5
 24
0.5
 15
0.5
 25
0.5
 16
0.0
 26
0.0
 36
1.0
 17
0.0
 27
0.0
 37
0.0
 42
50.0
 43
0.0
 44
0.0
 45
8.992999745766947
 50
0.0
 51
0.0
 72
  1000
 90
    32800
  1

281
     0
 71
     1
 74
     0
110
0.0
120
0.0
130
0.0
111
1.0
121
0.0
131
0.0
112
0.0
122
1.0
132
0.0
 79
     0
146
0.0
170
     0
 61
     5
348
12C2F
292
     1
282
     1
141
0.0
142
0.0
 63
   250
421
  3355443
  0
VIEWPORT
  5
11F09
330
5D
100
AcDbEntity
 67
     1
  8
Dim
100
AcDbViewport
 10
5.24999976158142
 20
3.99999976158142
 30
0.0
 40
8.399999618530271
 41
6.399999618530272
 68
     2
 69
     2
 12
70.24570646213799
 22
55.11630672257945
 13
0.0
 23
0.0
 14
0.5
 24
0.5
 15
0.5
 25
0.5
 16
0.0
 26
0.0
 36
1.0
 17
0.0
 27
0.0
 37
0.0
 42
50.0
 43
0.0
 44
0.0
 45
113.4515982453417
 50
0.0
 51
0.0
 72
  1000
 90
    32864
  1

281
     0
 71
     1
 74
     0
110
0.0
120
0.0
130
0.0
111
1.0
121
0.0
131
0.0
112
0.0
122
1.0
132
0.0
 79
     0
146
0.0
170
     0
 61
     5
348
12C2F
292
     1
282
     1
141
0.0
142
0.0
 63
   250
421
  3355443
  0
ENDSEC
  0
SECTION
  2
OBJECTS
  0
DICTIONARY
  5
C
330
0
100
AcDbDictionary
281
     1
  3
ACAD_CIP_PREVIOUS_PRODUCT_INFO
350
44B07
  3
ACAD_COLOR
350
73
  3
ACAD_DETAILVIEWSTYLE
350
44AF9
  3
ACAD_FIELDLIST
350
7B86
  3
ACAD_GROUP
350
D
  3
ACAD_LAYOUT
350
1A
  3
ACAD_MATERIAL
350
72
  3
ACAD_MLEADERSTYLE
350
12C5C
  3
ACAD_MLINESTYLE
350
17
  3
ACAD_PLOTSETTINGS
350
19
  3
ACAD_PLOTSTYLENAME
350
E
  3
ACAD_RENDER_PLOT_SETTINGS
350
44964
  3
ACAD_SCALELIST
350
12C3A
  3
ACAD_SECTIONVIEWSTYLE
350
44AF7
  3
ACAD_TABLESTYLE
350
86
  3
ACAD_VISUALSTYLE
350
12C29
  3
AcadDim
350
35BD
  3
ACDB_RECOMPOSE_DATA
350
44B7F
  3
AcDbVariableDictionary
350
66
  3
AcDsDecomposeData
350
44B85
  3
AEC_CLASSIFICATION_SYSTEM_DEFS
350
7B87
  3
AEC_PROPERTY_SET_DEFS
350
44B32
  3
BNS_VARIABLES
350
1401
  0
DICTIONARY
  5
12C98
330
8
100
AcDbDictionary
280
     1
281
     1
  0
DICTIONARY
  5
8D
330
2
100
AcDbDictionary
280
     1
281
     1
  3
ACAD_LAYERFILTERS
360
1274F
  3
ACAD_LAYERSTATES
360
11EFF
  3
ACLYDICTIONARY
360
1274E
  0
DICTIONARY
  5
12C78
330
10
100
AcDbDictionary
280
     1
281
     1
  3
ADSK_XREC_LAYER_RECONCILED
360
12C79
  0
DICTIONARY
  5
12C7A
330
8B
100
AcDbDictionary
280
     1
281
     1
  3
ADSK_XREC_LAYER_RECONCILED
360
12C7B
  0
DICTIONARY
  5
12C7C
330
413
100
AcDbDictionary
280
     1
281
     1
  3
ADSK_XREC_LAYER_RECONCILED
360
12C7D
  0
DICTIONARY
  5
12C7E
330
770
100
AcDbDictionary
280
     1
281
     1
  3
ADSK_XREC_LAYER_RECONCILED
360
12C7F
  0
DICTIONARY
  5
12C80
330
E05
100
AcDbDictionary
280
     1
281
     1
  3
ADSK_XREC_LAYER_RECONCILED
360
12C81
  0
DICTIONARY
  5
12C82
330
13AF
100
AcDbDictionary
280
     1
281
     1
  3
ADSK_XREC_LAYER_RECONCILED
360
12C83
  0
DICTIONARY
  5
12C84
330
32CE
100
AcDbDictionary
280
     1
281
     1
  3
ADSK_XREC_LAYER_RECONCILED
360
12C85
  0
DICTIONARY
  5
12C86
330
7B7D
100
AcDbDictionary
280
     1
281
     1
  3
ADSK_XREC_LAYER_RECONCILED
360
12C87
  0
DICTIONARY
  5
12C88
330
12725
100
AcDbDictionary
280
     1
281
     1
  3
ADSK_XREC_LAYER_RECONCILED
360
12C89
  0
DICTIONARY
  5
12C8A
330
12726
100
AcDbDictionary
280
     1
281
     1
  3
ADSK_XREC_LAYER_RECONCILED
360
12C8B
  0
DICTIONARY
  5
12C8C
330
1274D
100
AcDbDictionary
280
     1
281
     1
  3
ADSK_XREC_LAYER_RECONCILED
360
12C8D
  0
DICTIONARY
  5
44166
330
44165
100
AcDbDictionary
280
     1
281
     1
  0
DICTIONARY
  5
44B0A
330
44B09
100
AcDbDictionary
280
     1
281
     1
  0
DICTIONARY
  5
39A
330
1F
100
AcDbDictionary
280
     1
281
     1
  3
ACAD_SORTENTS
360
39B
  0
DICTIONARY
  5
12C71
330
7B76
100
AcDbDictionary
280
     1
281
     1
  0
DICTIONARY
  5
4487E
330
4486F
100
AcDbDictionary
280
     1
281
     1
  3
ACAD_DIMASSOC
360
4488A
  0
DICTIONARY
  5
44B3E
330
44B3D
100
AcDbDictionary
280
     1
281
     1
  3
ACAD_MTEXT_2008_RT
360
44B7D
  0
DICTIONARY
  5
44B40
330
44B3F
100
AcDbDictionary
280
     1
281
     1
  3
ACAD_MTEXT_2008_RT
360
44B7E
  3
AcDbContextDataManager
360
44B41
  0
XRECORD
  5
44B07
102
{ACAD_REACTORS
330
C
102
}
330
C
100
AcDbXrecord
280
     1
300
ACD
300
2022
300

  0
DICTIONARY
  5
73
102
{ACAD_REACTORS
330
C
102
}
330
C
100
AcDbDictionary
281
     1
  0
DICTIONARY
  5
44AF9
102
{ACAD_REACTORS
330
C
102
}
330
C
100
AcDbDictionary
281
     1
  3
Imperial24
350
44AFA
  0
FIELDLIST
  5
7B86
102
{ACAD_REACTORS
330
C
102
}
330
C
100
AcDbIdSet
 90
        0
100
AcDbFieldList
  0
DICTIONARY
  5
D
102
{ACAD_REACTORS
330
C
102
}
330
C
100
AcDbDictionary
281
     1
  0
DICTIONARY
  5
1A
102
{ACAD_REACTORS
330
C
102
}
330
C
100
AcDbDictionary
281
     1
  3
Layout1
350
59
  3
Layout2
350
5E
  3
Model
350
22
  0
DICTIONARY
  5
72
102
{ACAD_REACTORS
330
C
102
}
330
C
100
AcDbDictionary
281
     1
  3
ByBlock
350
12C19
  3
ByLayer
350
12C11
  3
Global
350
12C21
  0
DICTIONARY
  5
12C5C
102
{ACAD_REACTORS
330
C
102
}
330
C
100
AcDbDictionary
281
     1
  3
Standard
350
12C5D
  0
DICTIONARY
  5
17
102
{ACAD_REACTORS
330
C
102
}
330
C
100
AcDbDictionary
281
     1
  3
Standard
350
18
  0
DICTIONARY
  5
19
102
{ACAD_REACTORS
330
C
102
}
330
C
100
AcDbDictionary
281
     1
  0
ACDBDICTIONARYWDFLT
  5
E
102
{ACAD_REACTORS
330
C
102
}
330
C
100
AcDbDictionary
281
     1
  3
Normal
350
F
100
AcDbDictionaryWithDefault
340
F
  0
DICTIONARY
  5
44964
102
{ACAD_REACTORS
330
C
102
}
330
C
100
AcDbDictionary
281
     1
  3
{B31184F8-2FF9-4E7F-B56E-43B8B85AC74B}
350
44965
  0
DICTIONARY
  5
12C3A
102
{ACAD_REACTORS
330
C
102
}
330
C
100
AcDbDictionary
281
     1
  3
A0
350
12C3B
  3
A1
350
12C3C
  3
A2
350
12C3D
  3
A3
350
12C3E
  3
A4
350
12C3F
  3
A5
350
12C40
  3
A6
350
12C41
  3
A7
350
12C42
  3
A8
350
12C43
  3
A9
350
12C44
  3
B0
350
12C45
  3
B1
350
12C46
  3
B2
350
12C47
  3
B3
350
12C48
  3
B4
350
12C49
  3
B5
350
12C4A
  3
B6
350
12C4B
  3
B7
350
12C4C
  3
B8
350
12C4D
  3
B9
350
12C4E
  3
C0
350
12C4F
  3
C1
350
12C50
  3
C2
350
12C51
  3
C3
350
12C52
  3
C4
350
12C53
  3
C5
350
12C54
  3
C6
350
12C55
  3
C7
350
12C56
  3
C8
350
12C57
  3
C9
350
12C58
  3
D0
350
12C59
  3
D1
350
12C5A
  3
D2
350
12C5B
  0
DICTIONARY
  5
44AF7
102
{ACAD_REACTORS
330
C
102
}
330
C
100
AcDbDictionary
281
     1
  3
Imperial24
350
44AF8
  0
DICTIONARY
  5
86
102
{ACAD_REACTORS
330
C
102
}
330
C
100
AcDbDictionary
281
     1
  3
Example1
350
37C9
  3
Example2
350
36AB
  3
Standard
350
87
  0
DICTIONARY
  5
12C29
102
{ACAD_REACTORS
330
C
102
}
330
C
100
AcDbDictionary
281
     1
  3
2dWireframe
350
12C2F
  3
3D Hidden
350
12C31
  3
3dWireframe
350
12C30
  3
Basic
350
12C2E
  3
Brighten
350
12C35
  3
ColorChange
350
12C39
  3
Conceptual
350
12C32
  3
Dim
350
12C34
  3
EdgeColorOff
350
43F1C
  3
Facepattern
350
12C38
  3
Flat
350
12C2A
  3
FlatWithEdges
350
12C2B
  3
Gouraud
350
12C2C
  3
GouraudWithEdges
350
12C2D
  3
Hidden
350
44AF1
  3
JitterOff
350
43F1A
  3
Linepattern
350
12C37
  3
OverhangOff
350
43F1B
  3
Realistic
350
12C33
  3
Shaded
350
44AF6
  3
Shaded with edges
350
44AF5
  3
Shades of Gray
350
44AF2
  3
Sketchy
350
44AF3
  3
Thicken
350
12C36
  3
Wireframe
350
44AF0
  3
X-Ray
350
44AF4
  0
XRECORD
  5
35BD
102
{ACAD_REACTORS
330
C
102
}
330
C
100
AcDbXrecord
280
     1
 90
   990106
  3

 60
     0
 61
     0
 62
     1
 63
     3
 64
     0
 65
     0
 66
     0
 67
     3
 68
     1
 69
     0
 70
     0
 71
     0
 72
     0
 40
12.85407191555159
170
     0
340
0
  0
XRECORD
  5
44B7F
102
{ACAD_REACTORS
330
C
102
}
330
C
100
AcDbXrecord
280
     1
 90
        1
330
87
330
36AB
330
37C9
330
44B3D
330
44B3F
  0
DICTIONARY
  5
66
102
{ACAD_REACTORS
330
C
102
}
330
C
100
AcDbDictionary
281
     1
  3
CANNOSCALE
350
12CD3
  3
CMLEADERSTYLE
350
12CD2
  3
CTABLESTYLE
350
364
  3
CVIEWDETAILSTYLE
350
44B68
  3
CVIEWSECTIONSTYLE
350
44B69
  3
DIMASSOC
350
67
  3
HIDETEXT
350
6B
  3
INDEXCTL
350
12CD5
  3
LAYEREVAL
350
44AD9
  3
LAYERNOTIFY
350
44ADA
  3
LIGHTINGUNITS
350
12D90
  3
MSLTSCALE
350
12D8F
  3
PROJECTNAME
350
8305
  3
SORTENTS
350
12CD4
  0
DICTIONARY
  5
44B85
102
{ACAD_REACTORS
330
C
102
}
330
C
100
AcDbDictionary
281
     1
  3
AcDsRecords
350
44B87
  3
AcDsSchemas
350
44B86
1001
ACAD
1070
     2
  0
DICTIONARY
  5
7B87
102
{ACAD_REACTORS
330
C
102
}
330
C
100
AcDbDictionary
281
     1
  0
DICTIONARY
  5
44B32
102
{ACAD_REACTORS
330
C
102
}
330
C
100
AcDbDictionary
281
     1
  0
DICTIONARY
  5
1401
102
{ACAD_REACTORS
330
C
102
}
330
C
100
AcDbDictionary
281
     1
  3
ACET.BREAKLINE-BLKEXE
350
1402
  0
DICTIONARY
  5
1274F
102
{ACAD_REACTORS
330
8D
102
}
330
8D
100
AcDbDictionary
281
     1
  0
DICTIONARY
  5
11EFF
102
{ACAD_REACTORS
330
8D
102
}
330
8D
100
AcDbDictionary
281
     1
  0
DICTIONARY
  5
1274E
102
{ACAD_REACTORS
330
8D
102
}
330
8D
100
AcDbDictionary
281
     1
1001
ACAD
1000
<All
  0
XRECORD
  5
12C79
102
{ACAD_REACTORS
330
12C78
102
}
330
12C78
100
AcDbXrecord
280
     1
290
     1
  0
XRECORD
  5
12C7B
102
{ACAD_REACTORS
330
12C7A
102
}
330
12C7A
100
AcDbXrecord
280
     1
290
     1
  0
XRECORD
  5
12C7D
102
{ACAD_REACTORS
330
12C7C
102
}
330
12C7C
100
AcDbXrecord
280
     1
290
     1
  0
XRECORD
  5
12C7F
102
{ACAD_REACTORS
330
12C7E
102
}
330
12C7E
100
AcDbXrecord
280
     1
290
     1
  0
XRECORD
  5
12C81
102
{ACAD_REACTORS
330
12C80
102
}
330
12C80
100
AcDbXrecord
280
     1
290
     1
  0
XRECORD
  5
12C83
102
{ACAD_REACTORS
330
12C82
102
}
330
12C82
100
AcDbXrecord
280
     1
290
     1
  0
XRECORD
  5
12C85
102
{ACAD_REACTORS
330
12C84
102
}
330
12C84
100
AcDbXrecord
280
     1
290
     1
  0
XRECORD
  5
12C87
102
{ACAD_REACTORS
330
12C86
102
}
330
12C86
100
AcDbXrecord
280
     1
290
     1
  0
XRECORD
  5
12C89
102
{ACAD_REACTORS
330
12C88
102
}
330
12C88
100
AcDbXrecord
280
     1
290
     1
  0
XRECORD
  5
12C8B
102
{ACAD_REACTORS
330
12C8A
102
}
330
12C8A
100
AcDbXrecord
280
     1
290
     1
  0
XRECORD
  5
12C8D
102
{ACAD_REACTORS
330
12C8C
102
}
330
12C8C
100
AcDbXrecord
280
     1
290
     1
  0
SORTENTSTABLE
  5
39B
102
{ACAD_REACTORS
330
39A
102
}
330
39A
100
AcDbSortentsTable
330
1F
331
44553
  5
44555
331
44554
  5
44556
331
44555
  5
44557
331
44556
  5
44558
331
44557
  5
44559
331
44558
  5
4455A
331
44559
  5
4455B
331
4455A
  5
4455C
331
4455B
  5
4455D
331
4455C
  5
4455E
331
4455D
  5
4455F
331
4455E
  5
44560
331
4455F
  5
44561
331
44560
  5
44562
331
44561
  5
44563
331
44562
  5
44564
331
44563
  5
44565
331
44564
  5
44566
331
44565
  5
44567
331
44566
  5
44568
331
44567
  5
44569
331
44568
  5
4456A
331
44569
  5
4456B
331
4456A
  5
4456C
331
4456B
  5
4456D
331
4456C
  5
4456E
331
4456D
  5
4456F
331
4456E
  5
44570
331
4456F
  5
44571
331
44570
  5
44572
331
44571
  5
44573
331
44572
  5
44574
331
44573
  5
44575
331
44574
  5
44576
331
44575
  5
44577
331
44576
  5
44578
331
44577
  5
44579
331
44578
  5
4457A
331
44579
  5
4457B
331
4457A
  5
4457C
331
4457B
  5
4457D
331
4457C
  5
4457E
331
4457D
  5
4457F
331
4457E
  5
44580
331
4457F
  5
44581
331
44580
  5
44582
331
44581
  5
44583
331
44582
  5
44584
331
44583
  5
44585
331
44584
  5
44586
331
44585
  5
44587
331
44586
  5
44588
331
44587
  5
44589
331
44588
  5
4458A
331
44589
  5
4458B
331
4458A
  5
4458C
331
4458B
  5
4458D
331
4458C
  5
4458E
331
4458D
  5
4458F
331
4458E
  5
44590
331
4458F
  5
44591
331
44590
  5
44592
331
44591
  5
44593
331
44592
  5
44594
331
44593
  5
44595
331
44594
  5
44596
331
44595
  5
44597
331
44596
  5
44598
331
44597
  5
44599
331
44598
  5
4459A
331
44599
  5
4459B
331
4459A
  5
4459C
331
4459B
  5
4459D
331
4459C
  5
4459E
331
4459D
  5
4459F
331
4459E
  5
445A0
331
4459F
  5
445A1
331
445A0
  5
445A2
331
445A1
  5
445A3
331
445A2
  5
445A4
331
445A3
  5
445A5
331
445A4
  5
445A6
331
445A5
  5
445A7
331
445A6
  5
445A8
331
445A7
  5
445A9
331
445A8
  5
445AA
331
445A9
  5
445AB
331
445AA
  5
445AC
331
445AB
  5
445AD
331
445AC
  5
445AE
331
445AD
  5
445AF
331
445AE
  5
445B0
331
445AF
  5
445B1
331
445B0
  5
445B2
331
445B1
  5
445B3
331
445B2
  5
445B4
331
445B3
  5
445B5
331
445B4
  5
445B6
331
445B5
  5
445B7
331
445B6
  5
445B8
331
445B7
  5
445B9
331
445B8
  5
445BA
331
445B9
  5
445BB
331
445BA
  5
445BC
331
445BB
  5
445BD
331
445BC
  5
445BE
331
445BD
  5
445BF
331
445BE
  5
445C0
331
445BF
  5
445C1
331
445C0
  5
445C2
331
445C1
  5
445C3
331
445C2
  5
445C4
331
445C3
  5
445C5
331
445C4
  5
445C6
331
445C5
  5
445C7
331
445C6
  5
445C8
331
445C7
  5
445C9
331
445C8
  5
445CA
331
445C9
  5
445CB
331
445CA
  5
445CC
331
445CB
  5
445CD
331
445CC
  5
445CE
331
445CD
  5
445CF
331
445CE
  5
445D0
331
445CF
  5
445D1
331
445D0
  5
445D2
331
445D1
  5
445D3
331
445D2
  5
445D4
331
445D3
  5
445D5
331
445D4
  5
445D6
331
445D5
  5
445D7
331
445D6
  5
445D8
331
445D7
  5
445D9
331
445D8
  5
445DA
331
445D9
  5
445DB
331
445DA
  5
445DC
331
445DB
  5
445DD
331
445DC
  5
445DE
331
445DD
  5
445DF
331
445DE
  5
445E0
331
445DF
  5
445E1
331
445E0
  5
445E2
331
445E1
  5
445E3
331
445E2
  5
445E4
331
445E3
  5
445E5
331
445E4
  5
445E6
331
445E5
  5
445E7
331
445E6
  5
445E8
331
445E7
  5
445E9
331
445E8
  5
445EA
331
445E9
  5
445EB
331
445EA
  5
445EC
331
445EB
  5
445ED
331
445EC
  5
445EE
331
445ED
  5
445EF
331
445EE
  5
445F0
331
445EF
  5
445F1
331
445F0
  5
445F2
331
445F1
  5
445F3
331
445F2
  5
445F4
331
445F3
  5
445F5
331
445F4
  5
445F6
331
445F5
  5
445F7
331
445F6
  5
445F8
331
445F7
  5
445F9
331
445F8
  5
445FA
331
445F9
  5
445FB
331
445FA
  5
445FC
331
445FB
  5
445FD
331
445FC
  5
445FE
331
445FD
  5
445FF
331
445FE
  5
44600
331
445FF
  5
44601
331
44600
  5
44602
331
44601
  5
44603
331
44602
  5
44604
331
44603
  5
44605
331
44604
  5
44606
331
44605
  5
44607
331
44606
  5
44608
331
44607
  5
44609
331
44608
  5
4460A
331
44609
  5
4460B
331
4460A
  5
4460C
331
4460B
  5
4460D
331
4460C
  5
4460E
331
4460D
  5
4460F
331
4460E
  5
44610
331
4460F
  5
44611
331
44610
  5
44612
331
44611
  5
44613
331
44612
  5
44614
331
44613
  5
44615
331
44614
  5
44616
331
44615
  5
44617
331
44616
  5
44618
331
44617
  5
44619
331
44618
  5
4461A
331
44619
  5
4461B
331
4461A
  5
4461C
331
4461B
  5
4461D
331
4461C
  5
4461E
331
4461D
  5
4461F
331
4461E
  5
44620
331
4461F
  5
44621
331
44620
  5
44622
331
44621
  5
44623
331
44622
  5
44624
331
44623
  5
44625
331
44624
  5
44626
331
44625
  5
44627
331
44626
  5
44628
331
44627
  5
44629
331
44628
  5
4462A
331
44629
  5
4462B
331
4462A
  5
4462C
331
4462B
  5
4462D
331
4462C
  5
4462E
331
4462D
  5
4462F
331
4462E
  5
44630
331
4462F
  5
44631
331
44630
  5
44632
331
44631
  5
44633
331
44632
  5
44634
331
44633
  5
44635
331
44634
  5
44636
331
44635
  5
44637
331
44636
  5
44638
331
44637
  5
44639
331
44638
  5
4463A
331
44639
  5
4463B
331
4463A
  5
4463C
331
4463B
  5
4463D
331
4463C
  5
4463E
331
4463D
  5
4463F
331
4463E
  5
44640
331
4463F
  5
44641
331
44640
  5
44642
331
44641
  5
44643
331
44642
  5
44644
331
44643
  5
44645
331
44644
  5
44646
331
44645
  5
44647
331
44646
  5
44648
331
44647
  5
44649
331
44648
  5
4464A
331
44649
  5
4464B
331
4464A
  5
4464C
331
4464B
  5
4464D
331
4464C
  5
4464E
331
4464D
  5
4464F
331
4464E
  5
44650
331
4464F
  5
44651
331
44650
  5
44652
331
44651
  5
44653
331
44652
  5
44655
331
44653
  5
44656
331
44655
  5
44657
331
44656
  5
44659
331
44657
  5
44662
331
44659
  5
44663
331
44662
  5
44664
331
44663
  5
44665
331
44664
  5
44666
331
44665
  5
44667
331
44666
  5
44668
331
44667
  5
44669
331
44668
  5
4466A
331
44669
  5
4466B
331
4466A
  5
4466C
331
4466B
  5
4466D
331
4466C
  5
4466E
331
4466D
  5
4466F
331
4466E
  5
44671
331
4466F
  5
44672
331
44671
  5
44673
331
44672
  5
44675
331
44673
  5
4467E
331
44675
  5
4467F
331
4467E
  5
44680
331
4467F
  5
44698
331
44680
  5
44699
331
44698
  5
4469A
331
44699
  5
4469B
331
4469A
  5
4469C
331
4469B
  5
4469D
331
4469C
  5
4469E
331
4469D
  5
4469F
331
4469E
  5
446A0
331
4469F
  5
446A1
331
446A0
  5
446A2
331
446A1
  5
446A3
331
446A2
  5
446A4
331
446A3
  5
446A5
331
446A4
  5
446A6
331
446A5
  5
446A7
331
446A6
  5
446A8
331
446A7
  5
446A9
331
446A8
  5
446AA
331
446A9
  5
446BB
331
446AA
  5
446BC
331
446BB
  5
446BD
331
446BC
  5
446BE
331
446BD
  5
446BF
331
446BE
  5
446C1
331
446BF
  5
446C3
331
446C1
  5
446C4
331
446C3
  5
44720
331
446C4
  5
44721
331
44720
  5
44722
331
44721
  5
44723
331
44722
  5
44724
331
44723
  5
44725
331
44724
  5
44726
331
44725
  5
44727
331
44726
  5
44728
331
44727
  5
44729
331
44728
  5
4472A
331
44729
  5
4472B
331
4472A
  5
4472C
331
4472B
  5
4472D
331
4472C
  5
4472E
331
4472D
  5
4472F
331
4472E
  5
44730
331
4472F
  5
44731
331
44730
  5
44732
331
44731
  5
44733
331
44732
  5
44734
331
44733
  5
44735
331
44734
  5
44736
331
44735
  5
44737
331
44736
  5
44738
331
44737
  5
44739
331
44738
  5
4473A
331
44739
  5
4473B
331
4473A
  5
4473C
331
4473B
  5
4473D
331
4473C
  5
4473E
331
4473D
  5
4473F
331
4473E
  5
44740
331
4473F
  5
44741
331
44740
  5
44742
331
44741
  5
44743
331
44742
  5
44744
331
44743
  5
44745
331
44744
  5
44746
331
44745
  5
44747
331
44746
  5
44748
331
44747
  5
44749
331
44748
  5
4474A
331
44749
  5
4474B
331
4474A
  5
4474C
331
4474B
  5
4474D
331
4474C
  5
4474E
331
4474D
  5
4474F
331
4474E
  5
44750
331
4474F
  5
44751
331
44750
  5
44752
331
44751
  5
44753
331
44752
  5
44754
331
44753
  5
44755
331
44754
  5
44756
331
44755
  5
44757
331
44756
  5
44758
331
44757
  5
44759
331
44758
  5
4475A
331
44759
  5
4475B
331
4475A
  5
4475C
331
4475B
  5
4475D
331
4475C
  5
4475E
331
4475D
  5
4475F
331
4475E
  5
44760
331
4475F
  5
44761
331
44760
  5
44762
331
44761
  5
44763
331
44762
  5
44764
331
44763
  5
44765
331
44764
  5
44766
331
44765
  5
44767
331
44766
  5
44768
331
44767
  5
44769
331
44768
  5
4476A
331
44769
  5
4476B
331
4476A
  5
4476C
331
4476B
  5
4476D
331
4476C
  5
4476E
331
4476D
  5
4476F
331
4476E
  5
44770
331
4476F
  5
44771
331
44770
  5
44772
331
44771
  5
44773
331
44772
  5
44774
331
44773
  5
44775
331
44774
  5
44776
331
44775
  5
44777
331
44776
  5
44778
331
44777
  5
44779
331
44778
  5
4477A
331
44779
  5
4477B
331
4477A
  5
4477C
331
4477B
  5
4477D
331
4477C
  5
4477E
331
4477D
  5
4477F
331
4477E
  5
44780
331
4477F
  5
44781
331
44780
  5
44782
331
44781
  5
44783
331
44782
  5
44784
331
44783
  5
44785
331
44784
  5
44786
331
44785
  5
44787
331
44786
  5
44788
331
44787
  5
44789
331
44788
  5
4478A
331
44789
  5
4478B
331
4478A
  5
4478C
331
4478B
  5
44800
331
4478C
  5
44801
331
44800
  5
44802
331
44801
  5
44803
331
44802
  5
44804
331
44803
  5
44805
331
44804
  5
44806
331
44805
  5
44807
331
44806
  5
44808
331
44807
  5
44809
331
44808
  5
4480A
331
44809
  5
4480B
331
4480A
  5
44846
331
4480B
  5
4484F
331
44846
  5
4486F
331
4484F
  5
448A3
331
4486F
  5
448A5
331
448A3
  5
448A6
331
448A5
  5
448A7
331
448A6
  5
448A8
331
448A7
  5
448A9
331
448A8
  5
448AA
331
448A9
  5
448AB
331
448AA
  5
448AC
331
448AB
  5
448AD
331
448AD
  5
448AF
331
448AE
  5
448B0
331
448AF
  5
448B1
331
448B0
  5
448B2
331
448B1
  5
448B3
331
448B2
  5
448B4
331
448B3
  5
448B5
331
448B4
  5
448B6
331
448B5
  5
448B7
331
448B6
  5
448B8
331
448B7
  5
448B9
331
448B8
  5
448BB
331
448B9
  5
448BC
331
448BB
  5
448BD
331
448BC
  5
448BE
331
448BD
  5
448BF
331
448BE
  5
7B8C
331
448BF
  5
7B6A
  0
DIMASSOC
  5
4488A
102
{ACAD_REACTORS
330
4487E
102
}
330
4487E
100
AcDbDimAssoc
330
4486F
 90
        3
 70
     0
 71
     0
  1
AcDbOsnapPointRef
 72
    13
331
4478C
 73
     2
 91
        0
 40
0.0
 10
0.0
 20
0.0
 30
2.000000000000000E+50
 75
     0
  1
AcDbOsnapPointRef
 72
     1
331
4478C
 73
     2
 91
        0
 40
1.0
 10
0.0
 20
0.0
 30
2.000000000000000E+50
 75
     0
  0
XRECORD
  5
44B7D
102
{ACAD_REACTORS
330
44B3E
102
}
330
44B3E
100
AcDbXrecord
280
     1
 40
49533.0
  1
\pxql;{\fArial|b0|i0|c0|p34;\H1.0833x;®}
  0
XRECORD
  5
44B7E
102
{ACAD_REACTORS
330
44B40
102
}
330
44B40
100
AcDbXrecord
280
     1
 40
251024.0
  1
\pxqc;{\C256;\c16777215;Build Anything \fCalibri|b1|i0|c0|p34;Better.}
  0
DICTIONARY
  5
44B41
102
{ACAD_REACTORS
330
44B40
102
}
330
44B40
100
AcDbDictionary
281
     1
  3
ACDB_ANNOTATIONSCALES
350
44B42
  0
ACDBDETAILVIEWSTYLE
  5
44AFA
102
{ACAD_XDICTIONARY
360
44BBE
102
}
102
{ACAD_REACTORS
330
44AF9
102
}
330
44AF9
100
AcDbModelDocViewStyle
 70
     0
  3
Imperial24
290
     0
100
AcDbDetailViewStyle
 70
     0
 71
     0
 90
        3
 71
     1
340
11
 62
   256
 40
0.24
340
0
 62
   256
 40
0.24
300

 40
0.36
280
     3
 71
     2
340
16
 90
       25
 62
   256
 71
     3
340
11
 62
   256
 40
0.24
 90
        1
 40
0.75
 90
        1
300
%<\AcVar ViewType \f "%tc1">% %<\AcVar ViewDetailId>%\PSCALE %<\AcVar ViewScale \f "%sn">%
 71
     4
340
16
 90
       25
 62
   256
340
16
 90
       25
 62
   256
280
     0
  0
LAYOUT
  5
59
102
{ACAD_XDICTIONARY
360
11F01
102
}
102
{ACAD_REACTORS
330
1A
102
}
330
1A
100
AcDbPlotSettings
  1

  2
none_device
  4
Letter_(8.50_x_11.00_Inches)
  6

 40
6.349999904632568
 41
6.349999904632568
 42
6.350006103515625
 43
6.350006103515625
 44
215.8999938964844
 45
279.3999938964844
 46
0.0
 47
0.0
 48
0.0
 49
0.0
140
0.0
141
0.0
142
1.0
143
1.0
 70
   688
 72
     0
 73
     1
 74
     5
  7
monochrome.ctb
 75
    16
147
1.0
 76
     0
 77
     2
 78
   300
148
0.0
149
0.0
100
AcDbLayout
  1
Layout1
 70
     1
 71
     1
 10
-0.2500002402958907
 20
-0.2499999962453767
 11
10.74999951940821
 21
8.249999763458731
 12
0.0
 22
0.0
 32
0.0
 14
1.049999952316284
 24
0.7999999523162842
 34
0.0
 15
9.449999570846555
 25
7.199999570846556
 35
0.0
146
0.0
 13
0.0
 23
0.0
 33
0.0
 16
1.0
 26
0.0
 36
0.0
 17
0.0
 27
1.0
 37
0.0
 76
     0
330
58
331
11EF8
1001
ACAD_PSEXT
1000
None
1000
None
1000
Not applicable
1000
The layout will not be plotted unless a new plotter configuration name is selected.
1070
     0
  0
LAYOUT
  5
5E
102
{ACAD_XDICTIONARY
360
11F0E
102
}
102
{ACAD_REACTORS
330
1A
102
}
330
1A
100
AcDbPlotSettings
  1

  2
none_device
  4
Letter_(8.50_x_11.00_Inches)
  6

 40
6.349999904632568
 41
6.349999904632568
 42
6.350006103515625
 43
6.350006103515625
 44
215.8999938964844
 45
279.3999938964844
 46
0.0
 47
0.0
 48
0.0
 49
0.0
140
0.0
141
0.0
142
1.0
143
1.0
 70
   688
 72
     0
 73
     1
 74
     5
  7
monochrome.ctb
 75
    16
147
1.0
 76
     0
 77
     2
 78
   300
148
0.0
149
0.0
100
AcDbLayout
  1
Layout2
 70
     1
 71
     2
 10
-0.2500002402958907
 20
-0.2499999962453767
 11
10.74999951940821
 21
8.249999763458731
 12
0.0
 22
0.0
 32
0.0
 14
1.049999952316284
 24
0.7999999523162842
 34
0.0
 15
9.449999570846555
 25
7.199999570846556
 35
0.0
146
0.0
 13
0.0
 23
0.0
 33
0.0
 16
1.0
 26
0.0
 36
0.0
 17
0.0
 27
1.0
 37
0.0
 76
     0
330
5D
331
11F07
1001
ACAD_PSEXT
1000
None
1000
None
1000
Not applicable
1000
The layout will not be plotted unless a new plotter configuration name is selected.
1070
     0
  0
LAYOUT
  5
22
102
{ACAD_XDICTIONARY
360
44AD7
102
}
102
{ACAD_REACTORS
330
1A
102
}
330
1A
100
AcDbPlotSettings
  1

  2
Adobe PDF
  4
Letter
  6

 40
3.174999952316284
 41
3.174999952316284
 42
3.175003051757812
 43
3.17498779296875
 44
215.8999938964844
 45
279.3999938964844
 46
0.0
 47
1.005285373717124
 48
27.11748254559107
 49
-0.6702746285459398
140
113.3734236536866
141
110.8962373936953
142
1.0
143
10.45526604327321
 70
 11956
 72
     0
 73
     0
 74
     4
  7
monochrome.ctb
 75
     0
147
0.0956455814573354
 76
     0
 77
     4
 78
   300
148
-688.784056658013
149
17.02497556506687
100
AcDbLayout
  1
Model
 70
     1
 71
     0
 10
0.0
 20
0.0
 11
12.0
 21
9.0
 12
0.0
 22
0.0
 32
0.0
 14
0.0
 24
0.0
 34
0.0
 15
0.0
 25
0.0
 35
0.0
146
0.0
 13
0.0
 23
0.0
 33
0.0
 16
1.0
 26
0.0
 36
0.0
 17
0.0
 27
1.0
 37
0.0
 76
     0
330
1F
331
12C00
1001
ACAD_PSEXT
1000
Adobe PDF
1000
Adobe PDF Converter
1000
COM1:
1000

1070
     0
  0
MATERIAL
  5
12C19
102
{ACAD_XDICTIONARY
360
12C1A
102
}
102
{ACAD_REACTORS
330
72
102
}
330
72
100
AcDbMaterial
  1
ByBlock
 72
     0
 43
0.0208333333333333
 43
0.0
 43
0.0
 43
0.0
 43
0.0
 43
0.0208333333333333
 43
0.0
 43
0.0
 43
0.0
 43
0.0
 43
1.0
 43
0.0
 43
0.0
 43
0.0
 43
0.0
 43
1.0
 77
     0
 47
0.0208333333333333
 47
0.0
 47
0.0
 47
0.0
 47
0.0
 47
0.0208333333333333
 47
0.0
 47
0.0
 47
0.0
 47
0.0
 47
1.0
 47
0.0
 47
0.0
 47
0.0
 47
0.0
 47
1.0
171
     0
 49
0.0208333333333333
 49
0.0
 49
0.0
 49
0.0
 49
0.0
 49
0.0208333333333333
 49
0.0
 49
0.0
 49
0.0
 49
0.0
 49
1.0
 49
0.0
 49
0.0
 49
0.0
 49
0.0
 49
1.0
175
     0
142
0.0208333333333333
142
0.0
142
0.0
142
0.0
142
0.0
142
0.0208333333333333
142
0.0
142
0.0
142
0.0
142
0.0
142
1.0
142
0.0
142
0.0
142
0.0
142
0.0
142
1.0
179
     0
144
0.0208333333333333
144
0.0
144
0.0
144
0.0
144
0.0
144
0.0208333333333333
144
0.0
144
0.0
144
0.0
144
0.0
144
1.0
144
0.0
144
0.0
144
0.0
144
0.0
144
1.0
147
0.0208333333333333
147
0.0
147
0.0
147
0.0
147
0.0
147
0.0208333333333333
147
0.0
147
0.0
147
0.0
147
0.0
147
1.0
147
0.0
147
0.0
147
0.0
147
0.0
147
1.0
  0
MATERIAL
  5
12C11
102
{ACAD_XDICTIONARY
360
12C12
102
}
102
{ACAD_REACTORS
330
72
102
}
330
72
100
AcDbMaterial
  1
ByLayer
 72
     0
 43
0.0208333333333333
 43
0.0
 43
0.0
 43
0.0
 43
0.0
 43
0.0208333333333333
 43
0.0
 43
0.0
 43
0.0
 43
0.0
 43
1.0
 43
0.0
 43
0.0
 43
0.0
 43
0.0
 43
1.0
 77
     0
 47
0.0208333333333333
 47
0.0
 47
0.0
 47
0.0
 47
0.0
 47
0.0208333333333333
 47
0.0
 47
0.0
 47
0.0
 47
0.0
 47
1.0
 47
0.0
 47
0.0
 47
0.0
 47
0.0
 47
1.0
171
     0
 49
0.0208333333333333
 49
0.0
 49
0.0
 49
0.0
 49
0.0
 49
0.0208333333333333
 49
0.0
 49
0.0
 49
0.0
 49
0.0
 49
1.0
 49
0.0
 49
0.0
 49
0.0
 49
0.0
 49
1.0
175
     0
142
0.0208333333333333
142
0.0
142
0.0
142
0.0
142
0.0
142
0.0208333333333333
142
0.0
142
0.0
142
0.0
142
0.0
142
1.0
142
0.0
142
0.0
142
0.0
142
0.0
142
1.0
179
     0
144
0.0208333333333333
144
0.0
144
0.0
144
0.0
144
0.0
144
0.0208333333333333
144
0.0
144
0.0
144
0.0
144
0.0
144
1.0
144
0.0
144
0.0
144
0.0
144
0.0
144
1.0
147
0.0208333333333333
147
0.0
147
0.0
147
0.0
147
0.0
147
0.0208333333333333
147
0.0
147
0.0
147
0.0
147
0.0
147
1.0
147
0.0
147
0.0
147
0.0
147
0.0
147
1.0
  0
MATERIAL
  5
12C21
102
{ACAD_XDICTIONARY
360
12C22
102
}
102
{ACAD_REACTORS
330
72
102
}
330
72
100
AcDbMaterial
  1
Global
 72
     0
 43
0.0208333333333333
 43
0.0
 43
0.0
 43
0.0
 43
0.0
 43
0.0208333333333333
 43
0.0
 43
0.0
 43
0.0
 43
0.0
 43
1.0
 43
0.0
 43
0.0
 43
0.0
 43
0.0
 43
1.0
 77
     0
 47
0.0208333333333333
 47
0.0
 47
0.0
 47
0.0
 47
0.0
 47
0.0208333333333333
 47
0.0
 47
0.0
 47
0.0
 47
0.0
 47
1.0
 47
0.0
 47
0.0
 47
0.0
 47
0.0
 47
1.0
171
     0
 49
0.0208333333333333
 49
0.0
 49
0.0
 49
0.0
 49
0.0
 49
0.0208333333333333
 49
0.0
 49
0.0
 49
0.0
 49
0.0
 49
1.0
 49
0.0
 49
0.0
 49
0.0
 49
0.0
 49
1.0
175
     0
142
0.0208333333333333
142
0.0
142
0.0
142
0.0
142
0.0
142
0.0208333333333333
142
0.0
142
0.0
142
0.0
142
0.0
142
1.0
142
0.0
142
0.0
142
0.0
142
0.0
142
1.0
179
     0
144
0.0208333333333333
144
0.0
144
0.0
144
0.0
144
0.0
144
0.0208333333333333
144
0.0
144
0.0
144
0.0
144
0.0
144
1.0
144
0.0
144
0.0
144
0.0
144
0.0
144
1.0
147
0.0208333333333333
147
0.0
147
0.0
147
0.0
147
0.0
147
0.0208333333333333
147
0.0
147
0.0
147
0.0
147
0.0
147
1.0
147
0.0
147
0.0
147
0.0
147
0.0
147
1.0
  0
MLEADERSTYLE
  5
12C5D
102
{ACAD_REACTORS
330
12C5C
102
}
330
12C5C
100
AcDbMLeaderStyle
179
     2
170
     2
171
     1
172
     0
 90
        2
 40
0.0
 41
0.0
173
     1
 91
-1056964608
340
14
 92
       -2
290
     1
 42
0.09
291
     1
 43
0.36
  3
Standard
 44
0.18
300

342
11
174
     1
178
     6
175
     1
176
     0
 93
-1056964608
 45
0.18
292
     0
297
     0
 46
0.18
 94
-1056964608
 47
1.0
 49
1.0
140
1.0
293
     1
141
0.0
294
     1
177
     0
142
1.0
295
     0
296
     0
143
0.125
271
     0
272
     9
273
     9
  0
MLINESTYLE
  5
18
102
{ACAD_REACTORS
330
17
102
}
330
17
100
AcDbMlineStyle
  2
STANDARD
 70
     0
  3

 62
   256
 51
90.0
 52
90.0
 71
     2
 49
0.5
 62
   256
  6
BYLAYER
 49
-0.5
 62
   256
  6
BYLAYER
  0
ACDBPLACEHOLDER
  5
F
102
{ACAD_REACTORS
330
E
102
}
330
E
  0
MENTALRAYRENDERSETTINGS
  5
44965
102
{ACAD_REACTORS
330
44964
102
}
330
44964
100
AcDbRenderSettings
 90
        2
  1
High
290
     1
290
     1
290
     1
290
     1
  1

  1
Rendering quality is improved over Medium. High anti-aliasing and a raytracing depth of 7 reflections/refractions are processed.
 90
        0
100
AcDbMentalRayRenderSettings
 90
        2
 90
        0
 90
        2
 70
     3
 40
4.0
 40
4.0
 40
0.0500000007450581
 40
0.0500000007450581
 40
0.0500000007450581
 40
0.0500000007450581
 70
     0
290
     0
290
     1
 90
        7
 90
        7
 90
        7
290
     0
 90
      500
290
     0
 40
1.0
 90
    10000
 90
        5
 90
        5
 90
        5
290
     0
 90
      500
290
     0
290
     0
290
     0
 40
0.1
 40
1.0
 40
1500.0
 70
     0
 70
     0
 40
10.0
 70
     0
 70
     0
290
     0
  1

 90
       32
 70
     0
 90
     1048
290
     0
 40
1.0
  0
SCALE
  5
12C3B
102
{ACAD_REACTORS
330
12C3A
102
}
330
12C3A
100
AcDbScale
 70
     0
300
1:1
140
1.0
141
1.0
290
     1
  0
SCALE
  5
12C3C
102
{ACAD_REACTORS
330
12C3A
102
}
330
12C3A
100
AcDbScale
 70
     0
300
1:2
140
1.0
141
2.0
290
     0
  0
SCALE
  5
12C3D
102
{ACAD_REACTORS
330
12C3A
102
}
330
12C3A
100
AcDbScale
 70
     0
300
1:4
140
1.0
141
4.0
290
     0
  0
SCALE
  5
12C3E
102
{ACAD_REACTORS
330
12C3A
102
}
330
12C3A
100
AcDbScale
 70
     0
300
1:5
140
1.0
141
5.0
290
     0
  0
SCALE
  5
12C3F
102
{ACAD_REACTORS
330
12C3A
102
}
330
12C3A
100
AcDbScale
 70
     0
300
1:8
140
1.0
141
8.0
290
     0
  0
SCALE
  5
12C40
102
{ACAD_REACTORS
330
12C3A
102
}
330
12C3A
100
AcDbScale
 70
     0
300
1:10
140
1.0
141
10.0
290
     0
  0
SCALE
  5
12C41
102
{ACAD_REACTORS
330
12C3A
102
}
330
12C3A
100
AcDbScale
 70
     0
300
1:16
140
1.0
141
16.0
290
     0
  0
SCALE
  5
12C42
102
{ACAD_REACTORS
330
12C3A
102
}
330
12C3A
100
AcDbScale
 70
     0
300
1:20
140
1.0
141
20.0
290
     0
  0
SCALE
  5
12C43
102
{ACAD_REACTORS
330
12C3A
102
}
330
12C3A
100
AcDbScale
 70
     0
300
1:30
140
1.0
141
30.0
290
     0
  0
SCALE
  5
12C44
102
{ACAD_REACTORS
330
12C3A
102
}
330
12C3A
100
AcDbScale
 70
     0
300
1:40
140
1.0
141
40.0
290
     0
  0
SCALE
  5
12C45
102
{ACAD_REACTORS
330
12C3A
102
}
330
12C3A
100
AcDbScale
 70
     0
300
1:50
140
1.0
141
50.0
290
     0
  0
SCALE
  5
12C46
102
{ACAD_REACTORS
330
12C3A
102
}
330
12C3A
100
AcDbScale
 70
     0
300
1:100
140
1.0
141
100.0
290
     0
  0
SCALE
  5
12C47
102
{ACAD_REACTORS
330
12C3A
102
}
330
12C3A
100
AcDbScale
 70
     0
300
2:1
140
2.0
141
1.0
290
     0
  0
SCALE
  5
12C48
102
{ACAD_REACTORS
330
12C3A
102
}
330
12C3A
100
AcDbScale
 70
     0
300
4:1
140
4.0
141
1.0
290
     0
  0
SCALE
  5
12C49
102
{ACAD_REACTORS
330
12C3A
102
}
330
12C3A
100
AcDbScale
 70
     0
300
8:1
140
8.0
141
1.0
290
     0
  0
SCALE
  5
12C4A
102
{ACAD_REACTORS
330
12C3A
102
}
330
12C3A
100
AcDbScale
 70
     0
300
10:1
140
10.0
141
1.0
290
     0
  0
SCALE
  5
12C4B
102
{ACAD_REACTORS
330
12C3A
102
}
330
12C3A
100
AcDbScale
 70
     0
300
100:1
140
100.0
141
1.0
290
     0
  0
SCALE
  5
12C4C
102
{ACAD_REACTORS
330
12C3A
102
}
330
12C3A
100
AcDbScale
 70
     0
300
1/128" = 1'-0"
140
0.0078125
141
12.0
290
     0
  0
SCALE
  5
12C4D
102
{ACAD_REACTORS
330
12C3A
102
}
330
12C3A
100
AcDbScale
 70
     0
300
1/64" = 1'-0"
140
0.015625
141
12.0
290
     0
  0
SCALE
  5
12C4E
102
{ACAD_REACTORS
330
12C3A
102
}
330
12C3A
100
AcDbScale
 70
     0
300
1/32" = 1'-0"
140
0.03125
141
12.0
290
     0
  0
SCALE
  5
12C4F
102
{ACAD_REACTORS
330
12C3A
102
}
330
12C3A
100
AcDbScale
 70
     0
300
1/16" = 1'-0"
140
0.0625
141
12.0
290
     0
  0
SCALE
  5
12C50
102
{ACAD_REACTORS
330
12C3A
102
}
330
12C3A
100
AcDbScale
 70
     0
300
3/32" = 1'-0"
140
0.09375
141
12.0
290
     0
  0
SCALE
  5
12C51
102
{ACAD_REACTORS
330
12C3A
102
}
330
12C3A
100
AcDbScale
 70
     0
300
1/8" = 1'-0"
140
0.125
141
12.0
290
     0
  0
SCALE
  5
12C52
102
{ACAD_REACTORS
330
12C3A
102
}
330
12C3A
100
AcDbScale
 70
     0
300
3/16" = 1'-0"
140
0.1875
141
12.0
290
     0
  0
SCALE
  5
12C53
102
{ACAD_REACTORS
330
12C3A
102
}
330
12C3A
100
AcDbScale
 70
     0
300
1/4" = 1'-0"
140
0.25
141
12.0
290
     0
  0
SCALE
  5
12C54
102
{ACAD_REACTORS
330
12C3A
102
}
330
12C3A
100
AcDbScale
 70
     0
300
3/8" = 1'-0"
140
0.375
141
12.0
290
     0
  0
SCALE
  5
12C55
102
{ACAD_REACTORS
330
12C3A
102
}
330
12C3A
100
AcDbScale
 70
     0
300
1/2" = 1'-0"
140
0.5
141
12.0
290
     0
  0
SCALE
  5
12C56
102
{ACAD_REACTORS
330
12C3A
102
}
330
12C3A
100
AcDbScale
 70
     0
300
3/4" = 1'-0"
140
0.75
141
12.0
290
     0
  0
SCALE
  5
12C57
102
{ACAD_REACTORS
330
12C3A
102
}
330
12C3A
100
AcDbScale
 70
     0
300
1" = 1'-0"
140
1.0
141
12.0
290
     0
  0
SCALE
  5
12C58
102
{ACAD_REACTORS
330
12C3A
102
}
330
12C3A
100
AcDbScale
 70
     0
300
1-1/2" = 1'-0"
140
1.5
141
12.0
290
     0
  0
SCALE
  5
12C59
102
{ACAD_REACTORS
330
12C3A
102
}
330
12C3A
100
AcDbScale
 70
     0
300
3" = 1'-0"
140
3.0
141
12.0
290
     0
  0
SCALE
  5
12C5A
102
{ACAD_REACTORS
330
12C3A
102
}
330
12C3A
100
AcDbScale
 70
     0
300
6" = 1'-0"
140
6.0
141
12.0
290
     0
  0
SCALE
  5
12C5B
102
{ACAD_REACTORS
330
12C3A
102
}
330
12C3A
100
AcDbScale
 70
     0
300
1'-0" = 1'-0"
140
12.0
141
12.0
290
     0
  0
ACDBSECTIONVIEWSTYLE
  5
44AF8
102
{ACAD_XDICTIONARY
360
44BBC
102
}
102
{ACAD_REACTORS
330
44AF7
102
}
330
44AF7
100
AcDbModelDocViewStyle
 70
     0
  3
Imperial24
290
     0
100
AcDbSectionViewStyle
 70
     0
 71
     0
 90
       78
 71
     1
340
11
 62
   256
 40
0.24
340
0
340
0
 62
   256
 40
0.24
300
I, O, Q, S, X, Z
 40
0.48
 90
        3
 40
0.18
 90
        1
 71
     2
340
16
 90
       25
 62
   256
340
16
 90
       50
 62
   256
 40
0.24
 40
0.0
 40
0.24
 71
     3
340
11
 62
   256
 40
0.24
 90
        1
 40
0.75
 90
        1
300
%<\AcVar ViewType \f "%tc1">% %<\AcVar ViewSectionStartId>%-%<\AcVar ViewSectionEndId>%\PSCALE %<\AcVar ViewScale \f "%sn">%
 71
     4
 62
   256
 62
   257
300
ANSI31
 40
1.0
 90
        0
290
     0
290
     0
 90
        6
 40
0.0
 40
1.570796326794896
 40
0.2617993877991494
 40
1.308996938995747
 40
-0.2617993877991494
 40
1.832595714594046
  0
TABLESTYLE
  5
37C9
102
{ACAD_XDICTIONARY
360
12C92
102
}
102
{ACAD_REACTORS
330
86
102
}
330
86
100
AcDbTableStyle
280
     0
  3
Standard
 70
     0
 71
     0
 40
0.06
 41
0.06
280
     0
281
     0
  7
Arial
140
0.18
170
     2
 62
     0
 63
     7
283
     0
 90
        4
 91
        0
  1

274
    -2
284
     1
 64
     0
275
    -2
285
     1
 65
     0
276
    -2
286
     1
 66
     0
277
    -2
287
     1
 67
     0
278
    -2
288
     1
 68
     0
279
    -2
289
     1
 69
     0
  7
Arial
140
0.25
170
     5
 62
     1
 63
     7
283
     0
 90
        4
 91
        0
  1

274
    -2
284
     1
 64
     0
275
    -2
285
     1
 65
     0
276
    -2
286
     1
 66
     0
277
    -2
287
     1
 67
     0
278
    -2
288
     1
 68
     0
279
    -2
289
     1
 69
     0
  7
Arial
140
0.18
170
     5
 62
     5
 63
     9
283
     1
 90
        4
 91
        0
  1

274
    -2
284
     1
 64
     0
275
    -2
285
     1
 65
     0
276
    -2
286
     1
 66
     0
277
    -2
287
     1
 67
     0
278
    -2
288
     1
 68
     0
279
    -2
289
     1
 69
     0
  0
TABLESTYLE
  5
36AB
102
{ACAD_XDICTIONARY
360
12C90
102
}
102
{ACAD_REACTORS
330
86
102
}
330
86
100
AcDbTableStyle
280
     0
  3
Standard
 70
     0
 71
     0
 40
1.5
 41
1.5
280
     0
281
     0
  7
Arial
140
4.5
170
     2
 62
     0
 63
     7
283
     0
 90
        4
 91
        0
  1

274
    -2
284
     1
 64
     0
275
    -2
285
     1
 65
     0
276
    -2
286
     1
 66
     0
277
    -2
287
     1
 67
     0
278
    -2
288
     1
 68
     0
279
    -2
289
     1
 69
     0
  7
Arial
140
6.0
170
     5
 62
     1
 63
   254
421
 14079702
283
     1
 90
        4
 91
        0
  1

274
    -2
284
     1
 64
     0
275
    -2
285
     1
 65
     0
276
    -2
286
     1
 66
     0
277
    -2
287
     1
 67
     0
278
    -2
288
     1
 68
     0
279
    -2
289
     1
 69
     0
  7
Arial
140
4.5
170
     5
 62
     5
 63
     7
283
     0
 90
        4
 91
        0
  1

274
    -2
284
     1
 64
     0
275
    -2
285
     1
 65
     0
276
    -2
286
     1
 66
     0
277
    -2
287
     1
 67
     0
278
    -2
288
     1
 68
     0
279
    -2
289
     1
 69
     0
  0
TABLESTYLE
  5
87
102
{ACAD_XDICTIONARY
360
12C8E
102
}
102
{ACAD_REACTORS
330
86
102
}
330
86
100
AcDbTableStyle
280
     0
  3
Standard
 70
     0
 71
     0
 40
0.06
 41
0.06
280
     0
281
     0
  7
Standard
140
0.18
170
     2
 62
     0
 63
     7
283
     0
 90
        4
 91
        0
  1

274
    -2
284
     1
 64
     0
275
    -2
285
     1
 65
     0
276
    -2
286
     1
 66
     0
277
    -2
287
     1
 67
     0
278
    -2
288
     1
 68
     0
279
    -2
289
     1
 69
     0
  7
Standard
140
0.25
170
     5
 62
     0
 63
     7
283
     0
 90
        4
 91
        0
  1

274
    -2
284
     1
 64
     0
275
    -2
285
     1
 65
     0
276
    -2
286
     1
 66
     0
277
    -2
287
     1
 67
     0
278
    -2
288
     1
 68
     0
279
    -2
289
     1
 69
     0
  7
Standard
140
0.18
170
     5
 62
     0
 63
     7
283
     0
 90
        4
 91
        0
  1

274
    -2
284
     1
 64
     0
275
    -2
285
     1
 65
     0
276
    -2
286
     1
 66
     0
277
    -2
287
     1
 67
     0
278
    -2
288
     1
 68
     0
279
    -2
289
     1
 69
     0
  0
VISUALSTYLE
  5
12C2F
102
{ACAD_XDICTIONARY
360
44B92
102
}
102
{ACAD_REACTORS
330
12C29
102
}
330
12C29
100
AcDbVisualStyle
  2
2dWireframe
 70
     4
177
     2
291
     0
 71
     0
176
     1
 72
     2
176
     1
 73
     0
176
     1
 90
        0
176
     1
 40
0.6
176
     1
 41
30.0
176
     1
 63
     7
176
     1
 74
     1
176
     1
 91
        4
176
     1
 64
     7
176
     1
 65
   257
176
     1
 75
     1
176
     1
175
     1
176
     1
 42
1.0
176
     1
 92
        0
176
     1
 66
   257
176
     1
 43
1.0
176
     1
 76
     1
176
     1
 77
     6
176
     1
 78
     2
176
     1
 67
     7
176
     1
 79
     5
176
     1
170
     0
176
     1
171
     0
176
     1
290
     0
176
     1
 93
        1
176
     1
 44
0.0
176
     1
173
     0
176
     1
1001
ACAD
1000
AcDbSavedByObjectVersion
1070
     0
  0
VISUALSTYLE
  5
12C31
102
{ACAD_XDICTIONARY
360
44B96
102
}
102
{ACAD_REACTORS
330
12C29
102
}
330
12C29
100
AcDbVisualStyle
  2
3D Hidden
 70
     6
177
     2
291
     0
 71
     1
176
     1
 72
     2
176
     1
 73
     2
176
     1
 90
        0
176
     1
 40
0.6
176
     1
 41
30.0
176
     1
 63
     7
176
     1
 74
     2
176
     1
 91
        2
176
     1
 64
     7
176
     1
 65
   257
176
     1
 75
     2
176
     1
175
     1
176
     1
 42
40.0
176
     1
 92
        0
176
     1
 66
   257
176
     1
 43
1.0
176
     1
 76
     1
176
     1
 77
     6
176
     1
 78
     2
176
     1
 67
     7
176
     1
 79
     3
176
     1
170
     0
176
     1
171
     0
176
     1
290
     0
176
     1
 93
        1
176
     1
 44
0.0
176
     1
173
     0
176
     1
1001
ACAD
1000
AcDbSavedByObjectVersion
1070
     0
  0
VISUALSTYLE
  5
12C30
102
{ACAD_XDICTIONARY
360
44B94
102
}
102
{ACAD_REACTORS
330
12C29
102
}
330
12C29
100
AcDbVisualStyle
  2
3dWireframe
 70
     5
177
     2
291
     0
 71
     0
176
     1
 72
     2
176
     1
 73
     0
176
     1
 90
        0
176
     1
 40
0.6
176
     1
 41
30.0
176
     1
 63
     7
176
     1
 74
     1
176
     1
 91
        4
176
     1
 64
     7
176
     1
 65
   257
176
     1
 75
     1
176
     1
175
     1
176
     1
 42
1.0
176
     1
 92
        0
176
     1
 66
   257
176
     1
 43
1.0
176
     1
 76
     1
176
     1
 77
     6
176
     1
 78
     2
176
     1
 67
     7
176
     1
 79
     5
176
     1
170
     0
176
     1
171
     0
176
     1
290
     0
176
     1
 93
        1
176
     1
 44
0.0
176
     1
173
     0
176
     1
1001
ACAD
1000
AcDbSavedByObjectVersion
1070
     0
  0
VISUALSTYLE
  5
12C2E
102
{ACAD_XDICTIONARY
360
44B90
102
}
102
{ACAD_REACTORS
330
12C29
102
}
330
12C29
100
AcDbVisualStyle
  2
Basic
 70
     7
177
     2
291
     1
 71
     1
176
     1
 72
     0
176
     1
 73
     1
176
     1
 90
        0
176
     1
 40
0.6
176
     1
 41
30.0
176
     1
 63
     7
176
     1
 74
     0
176
     1
 91
        4
176
     1
 64
     7
176
     1
 65
   257
176
     1
 75
     1
176
     1
175
     1
176
     1
 42
1.0
176
     1
 92
        8
176
     1
 66
     7
176
     1
 43
1.0
176
     1
 76
     1
176
     1
 77
     6
176
     1
 78
     2
176
     1
 67
     7
176
     1
 79
     5
176
     1
170
     0
176
     1
171
     0
176
     1
290
     0
176
     1
 93
        1
176
     1
 44
0.0
176
     1
173
     0
176
     1
1001
ACAD
1000
AcDbSavedByObjectVersion
1070
     0
  0
VISUALSTYLE
  5
12C35
102
{ACAD_XDICTIONARY
360
44B9E
102
}
102
{ACAD_REACTORS
330
12C29
102
}
330
12C29
100
AcDbVisualStyle
  2
Brighten
 70
    12
177
     2
291
     1
 71
     2
176
     1
 72
     2
176
     1
 73
     0
176
     1
 90
        0
176
     1
 40
0.6
176
     1
 41
30.0
176
     1
 63
     7
176
     1
 74
     1
176
     1
 91
        4
176
     1
 64
     7
176
     1
 65
   257
176
     1
 75
     1
176
     1
175
     1
176
     1
 42
1.0
176
     1
 92
        8
176
     1
 66
     7
176
     1
 43
1.0
176
     1
 76
     1
176
     1
 77
     6
176
     1
 78
     2
176
     1
 67
     7
176
     1
 79
     5
176
     1
170
     0
176
     1
171
     0
176
     1
290
     0
176
     1
 93
        1
176
     1
 44
50.0
176
     1
173
     0
176
     1
1001
ACAD
1000
AcDbSavedByObjectVersion
1070
     0
  0
VISUALSTYLE
  5
12C39
102
{ACAD_XDICTIONARY
360
44BA6
102
}
102
{ACAD_REACTORS
330
12C29
102
}
330
12C29
100
AcDbVisualStyle
  2
ColorChange
 70
    16
177
     2
291
     1
 71
     2
176
     1
 72
     2
176
     1
 73
     3
176
     1
 90
        0
176
     1
 40
0.6
176
     1
 41
30.0
176
     1
 63
     8
176
     1
 74
     1
176
     1
 91
        4
176
     1
 64
     7
176
     1
 65
   257
176
     1
 75
     1
176
     1
175
     1
176
     1
 42
1.0
176
     1
 92
        8
176
     1
 66
     8
176
     1
 43
1.0
176
     1
 76
     1
176
     1
 77
     6
176
     1
 78
     2
176
     1
 67
     7
176
     1
 79
     5
176
     1
170
     0
176
     1
171
     0
176
     1
290
     0
176
     1
 93
        1
176
     1
 44
0.0
176
     1
173
     0
176
     1
1001
ACAD
1000
AcDbSavedByObjectVersion
1070
     0
  0
VISUALSTYLE
  5
12C32
102
{ACAD_XDICTIONARY
360
44B98
102
}
102
{ACAD_REACTORS
330
12C29
102
}
330
12C29
100
AcDbVisualStyle
  2
Conceptual
 70
     9
177
     2
291
     0
 71
     3
176
     1
 72
     2
176
     1
 73
     0
176
     1
 90
        0
176
     1
 40
0.6
176
     1
 41
30.0
176
     1
 63
     7
176
     1
 74
     2
176
     1
 91
        2
176
     1
 64
     7
176
     1
 65
   257
176
     1
 75
     1
176
     1
175
     1
176
     1
 42
40.0
176
     1
 92
        8
176
     1
 66
     7
176
     1
 43
1.0
176
     1
 76
     1
176
     1
 77
     6
176
     1
 78
     2
176
     1
 67
     7
176
     1
 79
     3
176
     1
170
     0
176
     1
171
     0
176
     1
290
     0
176
     1
 93
        1
176
     1
 44
0.0
176
     1
173
     0
176
     1
1001
ACAD
1000
AcDbSavedByObjectVersion
1070
     0
  0
VISUALSTYLE
  5
12C34
102
{ACAD_XDICTIONARY
360
44B9C
102
}
102
{ACAD_REACTORS
330
12C29
102
}
330
12C29
100
AcDbVisualStyle
  2
Dim
 70
    11
177
     2
291
     1
 71
     2
176
     1
 72
     2
176
     1
 73
     0
176
     1
 90
        0
176
     1
 40
0.6
176
     1
 41
30.0
176
     1
 63
     7
176
     1
 74
     1
176
     1
 91
        4
176
     1
 64
     7
176
     1
 65
   257
176
     1
 75
     1
176
     1
175
     1
176
     1
 42
1.0
176
     1
 92
        8
176
     1
 66
     7
176
     1
 43
1.0
176
     1
 76
     1
176
     1
 77
     6
176
     1
 78
     2
176
     1
 67
     7
176
     1
 79
     5
176
     1
170
     0
176
     1
171
     0
176
     1
290
     0
176
     1
 93
        1
176
     1
 44
-50.0
176
     1
173
     0
176
     1
1001
ACAD
1000
AcDbSavedByObjectVersion
1070
     0
  0
VISUALSTYLE
  5
43F1C
102
{ACAD_XDICTIONARY
360
44BAC
102
}
102
{ACAD_REACTORS
330
12C29
102
}
330
12C29
100
AcDbVisualStyle
  2
EdgeColorOff
 70
    22
177
     2
291
     1
 71
     2
176
     0
 72
     2
176
     0
 73
     0
176
     0
 90
        0
176
     0
 40
0.6
176
     0
 41
30.0
176
     0
 63
     7
176
     0
 74
     1
176
     0
 91
        4
176
     0
 64
     7
176
     0
 65
   257
176
     0
 75
     1
176
     0
175
     1
176
     0
 42
1.0
176
     0
 92
        8
176
     2
 66
     7
176
     0
 43
1.0
176
     0
 76
     1
176
     0
 77
     6
176
     0
 78
     2
176
     0
 67
     7
176
     0
 79
     5
176
     0
170
     0
176
     0
171
     0
176
     0
290
     0
176
     0
 93
        1
176
     0
 44
0.0
176
     0
173
     0
176
     0
1001
ACAD
1000
AcDbSavedByObjectVersion
1070
     0
  0
VISUALSTYLE
  5
12C38
102
{ACAD_XDICTIONARY
360
44BA4
102
}
102
{ACAD_REACTORS
330
12C29
102
}
330
12C29
100
AcDbVisualStyle
  2
Facepattern
 70
    15
177
     2
291
     1
 71
     2
176
     1
 72
     2
176
     1
 73
     0
176
     1
 90
        0
176
     1
 40
0.6
176
     1
 41
30.0
176
     1
 63
     7
176
     1
 74
     1
176
     1
 91
        4
176
     1
 64
     7
176
     1
 65
   257
176
     1
 75
     1
176
     1
175
     1
176
     1
 42
1.0
176
     1
 92
        8
176
     1
 66
     7
176
     1
 43
1.0
176
     1
 76
     1
176
     1
 77
     6
176
     1
 78
     2
176
     1
 67
     7
176
     1
 79
     5
176
     1
170
     0
176
     1
171
     0
176
     1
290
     0
176
     1
 93
        1
176
     1
 44
0.0
176
     1
173
     0
176
     1
1001
ACAD
1000
AcDbSavedByObjectVersion
1070
     0
  0
VISUALSTYLE
  5
12C2A
102
{ACAD_XDICTIONARY
360
44B88
102
}
102
{ACAD_REACTORS
330
12C29
102
}
330
12C29
100
AcDbVisualStyle
  2
Flat
 70
     0
177
     2
291
     1
 71
     2
176
     1
 72
     1
176
     1
 73
     1
176
     1
 90
        2
176
     1
 40
0.6
176
     1
 41
30.0
176
     1
 63
     7
176
     1
 74
     0
176
     1
 91
        4
176
     1
 64
     7
176
     1
 65
   257
176
     1
 75
     1
176
     1
175
     1
176
     1
 42
1.0
176
     1
 92
        8
176
     1
 66
     7
176
     1
 43
1.0
176
     1
 76
     1
176
     1
 77
     6
176
     1
 78
     2
176
     1
 67
     7
176
     1
 79
     5
176
     1
170
     0
176
     1
171
     0
176
     1
290
     0
176
     1
 93
       13
176
     1
 44
0.0
176
     1
173
     0
176
     1
1001
ACAD
1000
AcDbSavedByObjectVersion
1070
     0
  0
VISUALSTYLE
  5
12C2B
102
{ACAD_XDICTIONARY
360
44B8A
102
}
102
{ACAD_REACTORS
330
12C29
102
}
330
12C29
100
AcDbVisualStyle
  2
FlatWithEdges
 70
     1
177
     2
291
     1
 71
     2
176
     1
 72
     1
176
     1
 73
     1
176
     1
 90
        2
176
     1
 40
0.6
176
     1
 41
30.0
176
     1
 63
     7
176
     1
 74
     1
176
     1
 91
        4
176
     1
 64
     7
176
     1
 65
   257
176
     1
 75
     1
176
     1
175
     1
176
     1
 42
1.0
176
     1
 92
        0
176
     1
 66
   257
176
     1
 43
1.0
176
     1
 76
     1
176
     1
 77
     6
176
     1
 78
     2
176
     1
 67
     7
176
     1
 79
     5
176
     1
170
     0
176
     1
171
     0
176
     1
290
     0
176
     1
 93
       13
176
     1
 44
0.0
176
     1
173
     0
176
     1
1001
ACAD
1000
AcDbSavedByObjectVersion
1070
     0
  0
VISUALSTYLE
  5
12C2C
102
{ACAD_XDICTIONARY
360
44B8C
102
}
102
{ACAD_REACTORS
330
12C29
102
}
330
12C29
100
AcDbVisualStyle
  2
Gouraud
 70
     2
177
     2
291
     1
 71
     2
176
     1
 72
     2
176
     1
 73
     1
176
     1
 90
        2
176
     1
 40
0.6
176
     1
 41
30.0
176
     1
 63
     7
176
     1
 74
     0
176
     1
 91
        4
176
     1
 64
     7
176
     1
 65
   257
176
     1
 75
     1
176
     1
175
     1
176
     1
 42
1.0
176
     1
 92
        0
176
     1
 66
     7
176
     1
 43
1.0
176
     1
 76
     1
176
     1
 77
     6
176
     1
 78
     2
176
     1
 67
     7
176
     1
 79
     5
176
     1
170
     0
176
     1
171
     0
176
     1
290
     0
176
     1
 93
       13
176
     1
 44
0.0
176
     1
173
     0
176
     1
1001
ACAD
1000
AcDbSavedByObjectVersion
1070
     0
  0
VISUALSTYLE
  5
12C2D
102
{ACAD_XDICTIONARY
360
44B8E
102
}
102
{ACAD_REACTORS
330
12C29
102
}
330
12C29
100
AcDbVisualStyle
  2
GouraudWithEdges
 70
     3
177
     2
291
     1
 71
     2
176
     1
 72
     2
176
     1
 73
     1
176
     1
 90
        2
176
     1
 40
0.6
176
     1
 41
30.0
176
     1
 63
     7
176
     1
 74
     1
176
     1
 91
        4
176
     1
 64
     7
176
     1
 65
   257
176
     1
 75
     1
176
     1
175
     1
176
     1
 42
1.0
176
     1
 92
        0
176
     1
 66
   257
176
     1
 43
1.0
176
     1
 76
     1
176
     1
 77
     6
176
     1
 78
     2
176
     1
 67
     7
176
     1
 79
     5
176
     1
170
     0
176
     1
171
     0
176
     1
290
     0
176
     1
 93
       13
176
     1
 44
0.0
176
     1
173
     0
176
     1
1001
ACAD
1000
AcDbSavedByObjectVersion
1070
     0
  0
VISUALSTYLE
  5
44AF1
102
{ACAD_XDICTIONARY
360
44BB0
102
}
102
{ACAD_REACTORS
330
12C29
102
}
330
12C29
100
AcDbVisualStyle
  2
Hidden
 70
     6
177
     2
291
     0
 71
     1
176
     1
 72
     2
176
     1
 73
     2
176
     1
 90
        0
176
     1
 40
0.6
176
     1
 41
30.0
176
     1
 63
     7
421
 16777215
176
     1
 74
     2
176
     1
 91
        2
176
     1
 64
     7
176
     1
 65
   257
176
     1
 75
     2
176
     1
175
     1
176
     1
 42
40.0
176
     1
 92
        0
176
     1
 66
   257
176
     1
 43
1.0
176
     1
 76
     1
176
     1
 77
     6
176
     1
 78
     2
176
     1
 67
     7
176
     1
 79
     3
176
     1
170
     0
176
     1
171
     0
176
     1
290
     0
176
     1
 93
        1
176
     1
 44
0.0
176
     1
173
     0
176
     1
1001
ACAD
1000
AcDbSavedByObjectVersion
1070
     0
  0
VISUALSTYLE
  5
43F1A
102
{ACAD_XDICTIONARY
360
44BA8
102
}
102
{ACAD_REACTORS
330
12C29
102
}
330
12C29
100
AcDbVisualStyle
  2
JitterOff
 70
    20
177
     2
291
     1
 71
     2
176
     0
 72
     2
176
     0
 73
     0
176
     0
 90
        0
176
     0
 40
0.6
176
     0
 41
30.0
176
     0
 63
     7
176
     0
 74
     1
176
     0
 91
        4
176
     0
 64
     7
176
     0
 65
   257
176
     0
 75
     1
176
     0
175
     1
176
     0
 42
1.0
176
     0
 92
       10
176
     2
 66
     7
176
     0
 43
1.0
176
     0
 76
     1
176
     0
 77
     6
176
     0
 78
     2
176
     0
 67
     7
176
     0
 79
     5
176
     0
170
     0
176
     0
171
     0
176
     0
290
     0
176
     0
 93
        1
176
     0
 44
0.0
176
     0
173
     0
176
     0
1001
ACAD
1000
AcDbSavedByObjectVersion
1070
     0
  0
VISUALSTYLE
  5
12C37
102
{ACAD_XDICTIONARY
360
44BA2
102
}
102
{ACAD_REACTORS
330
12C29
102
}
330
12C29
100
AcDbVisualStyle
  2
Linepattern
 70
    14
177
     2
291
     1
 71
     2
176
     1
 72
     2
176
     1
 73
     0
176
     1
 90
        0
176
     1
 40
0.6
176
     1
 41
30.0
176
     1
 63
     7
176
     1
 74
     1
176
     1
 91
        4
176
     1
 64
     7
176
     1
 65
   257
176
     1
 75
     7
176
     1
175
     7
176
     1
 42
1.0
176
     1
 92
        8
176
     1
 66
     7
176
     1
 43
1.0
176
     1
 76
     1
176
     1
 77
     6
176
     1
 78
     2
176
     1
 67
     7
176
     1
 79
     5
176
     1
170
     0
176
     1
171
     0
176
     1
290
     0
176
     1
 93
        1
176
     1
 44
0.0
176
     1
173
     0
176
     1
1001
ACAD
1000
AcDbSavedByObjectVersion
1070
     0
  0
VISUALSTYLE
  5
43F1B
102
{ACAD_XDICTIONARY
360
44BAA
102
}
102
{ACAD_REACTORS
330
12C29
102
}
330
12C29
100
AcDbVisualStyle
  2
OverhangOff
 70
    21
177
     2
291
     1
 71
     2
176
     0
 72
     2
176
     0
 73
     0
176
     0
 90
        0
176
     0
 40
0.6
176
     0
 41
30.0
176
     0
 63
     7
176
     0
 74
     1
176
     0
 91
        4
176
     0
 64
     7
176
     0
 65
   257
176
     0
 75
     1
176
     0
175
     1
176
     0
 42
1.0
176
     0
 92
        9
176
     2
 66
     7
176
     0
 43
1.0
176
     0
 76
     1
176
     0
 77
     6
176
     0
 78
     2
176
     0
 67
     7
176
     0
 79
     5
176
     0
170
     0
176
     0
171
     0
176
     0
290
     0
176
     0
 93
        1
176
     0
 44
0.0
176
     0
173
     0
176
     0
1001
ACAD
1000
AcDbSavedByObjectVersion
1070
     0
  0
VISUALSTYLE
  5
12C33
102
{ACAD_XDICTIONARY
360
44B9A
102
}
102
{ACAD_REACTORS
330
12C29
102
}
330
12C29
100
AcDbVisualStyle
  2
Realistic
 70
     8
177
     2
291
     0
 71
     2
176
     1
 72
     2
176
     1
 73
     0
176
     1
 90
        0
176
     1
 40
0.6
176
     1
 41
30.0
176
     1
 63
     7
176
     1
 74
     1
176
     1
 91
        0
176
     1
 64
     7
176
     1
 65
   257
176
     1
 75
     1
176
     1
175
     1
176
     1
 42
1.0
176
     1
 92
        8
176
     1
 66
     8
176
     1
 43
1.0
176
     1
 76
     1
176
     1
 77
     6
176
     1
 78
     2
176
     1
 67
     7
176
     1
 79
     5
176
     1
170
     0
176
     1
171
     0
176
     1
290
     0
176
     1
 93
       13
176
     1
 44
0.0
176
     1
173
     0
176
     1
1001
ACAD
1000
AcDbSavedByObjectVersion
1070
     0
  0
VISUALSTYLE
  5
44AF6
102
{ACAD_XDICTIONARY
360
44BBA
102
}
102
{ACAD_REACTORS
330
12C29
102
}
330
12C29
100
AcDbVisualStyle
  2
Shaded
 70
    27
177
     2
291
     0
 71
     2
176
     1
 72
     2
176
     1
 73
     1
176
     1
 90
        2
176
     1
 40
0.6
176
     1
 41
30.0
176
     1
 63
     7
421
 16777215
176
     1
 74
     0
176
     1
 91
        4
176
     1
 64
     7
176
     1
 65
   257
176
     1
 75
     1
176
     1
175
     1
176
     1
 42
1.0
176
     1
 92
        8
176
     1
 66
   257
176
     1
 43
1.0
176
     1
 76
     1
176
     1
 77
     6
176
     1
 78
     2
176
     1
 67
     8
425
  7895160
176
     1
 79
     3
176
     1
170
     0
176
     1
171
     0
176
     1
290
     0
176
     1
 93
        5
176
     1
 44
0.0
176
     1
173
     0
176
     1
1001
ACAD
1000
AcDbSavedByObjectVersion
1070
     0
  0
VISUALSTYLE
  5
44AF5
102
{ACAD_XDICTIONARY
360
44BB8
102
}
102
{ACAD_REACTORS
330
12C29
102
}
330
12C29
100
AcDbVisualStyle
  2
Shaded with edges
 70
    26
177
     2
291
     0
 71
     2
176
     1
 72
     2
176
     1
 73
     1
176
     1
 90
        2
176
     1
 40
0.6
176
     1
 41
30.0
176
     1
 63
     7
421
 16777215
176
     1
 74
     1
176
     1
 91
        2
176
     1
 64
     7
176
     1
 65
   257
176
     1
 75
     2
176
     1
175
     1
176
     1
 42
1.0
176
     1
 92
        8
176
     1
 66
   257
176
     1
 43
1.0
176
     1
 76
     1
176
     1
 77
     6
176
     1
 78
     2
176
     1
 67
     7
176
     1
 79
     3
176
     1
170
     0
176
     1
171
     0
176
     1
290
     0
176
     1
 93
        5
176
     1
 44
0.0
176
     1
173
     0
176
     1
1001
ACAD
1000
AcDbSavedByObjectVersion
1070
     0
  0
VISUALSTYLE
  5
44AF2
102
{ACAD_XDICTIONARY
360
44BB2
102
}
102
{ACAD_REACTORS
330
12C29
102
}
330
12C29
100
AcDbVisualStyle
  2
Shades of Gray
 70
    23
177
     2
291
     0
 71
     2
176
     1
 72
     2
176
     1
 73
     3
176
     1
 90
        0
176
     1
 40
0.6
176
     1
 41
30.0
176
     1
 63
     7
421
 16777215
176
     1
 74
     2
176
     1
 91
        2
176
     1
 64
     7
176
     1
 65
     7
176
     1
 75
     1
176
     1
175
     1
176
     1
 42
40.0
176
     1
 92
        8
176
     1
 66
     7
176
     1
 43
1.0
176
     1
 76
     1
176
     1
 77
     6
176
     1
 78
     2
176
     1
 67
     7
176
     1
 79
     3
176
     1
170
     0
176
     1
171
     0
176
     1
290
     0
176
     1
 93
        1
176
     1
 44
0.0
176
     1
173
     0
176
     1
1001
ACAD
1000
AcDbSavedByObjectVersion
1070
     0
  0
VISUALSTYLE
  5
44AF3
102
{ACAD_XDICTIONARY
360
44BB4
102
}
102
{ACAD_REACTORS
330
12C29
102
}
330
12C29
100
AcDbVisualStyle
  2
Sketchy
 70
    24
177
     2
291
     0
 71
     1
176
     1
 72
     2
176
     1
 73
     2
176
     1
 90
        0
176
     1
 40
0.6
176
     1
 41
30.0
176
     1
 63
     7
421
 16777215
176
     1
 74
     2
176
     1
 91
        2
176
     1
 64
     7
176
     1
 65
     7
176
     1
 75
     1
176
     1
175
     1
176
     1
 42
40.0
176
     1
 92
       11
176
     1
 66
     7
176
     1
 43
1.0
176
     1
 76
     1
176
     1
 77
     6
176
     1
 78
     2
176
     1
 67
     7
176
     1
 79
     6
176
     1
170
     0
176
     1
171
     0
176
     1
290
     0
176
     1
 93
        1
176
     1
 44
0.0
176
     1
173
     0
176
     1
1001
ACAD
1000
AcDbSavedByObjectVersion
1070
     0
  0
VISUALSTYLE
  5
12C36
102
{ACAD_XDICTIONARY
360
44BA0
102
}
102
{ACAD_REACTORS
330
12C29
102
}
330
12C29
100
AcDbVisualStyle
  2
Thicken
 70
    13
177
     2
291
     1
 71
     2
176
     1
 72
     2
176
     1
 73
     0
176
     1
 90
        0
176
     1
 40
0.6
176
     1
 41
30.0
176
     1
 63
     7
176
     1
 74
     1
176
     1
 91
        4
176
     1
 64
     7
176
     1
 65
   257
176
     1
 75
     1
176
     1
175
     1
176
     1
 42
1.0
176
     1
 92
       12
176
     1
 66
     7
176
     1
 43
1.0
176
     1
 76
     1
176
     1
 77
     6
176
     1
 78
     2
176
     1
 67
     7
176
     1
 79
     5
176
     1
170
     0
176
     1
171
     0
176
     1
290
     0
176
     1
 93
        1
176
     1
 44
0.0
176
     1
173
     0
176
     1
1001
ACAD
1000
AcDbSavedByObjectVersion
1070
     0
  0
VISUALSTYLE
  5
44AF0
102
{ACAD_XDICTIONARY
360
44BAE
102
}
102
{ACAD_REACTORS
330
12C29
102
}
330
12C29
100
AcDbVisualStyle
  2
Wireframe
 70
     5
177
     2
291
     0
 71
     0
176
     1
 72
     2
176
     1
 73
     0
176
     1
 90
        0
176
     1
 40
0.6
176
     1
 41
30.0
176
     1
 63
     7
421
 16777215
176
     1
 74
     1
176
     1
 91
        4
176
     1
 64
     7
176
     1
 65
   257
176
     1
 75
     1
176
     1
175
     1
176
     1
 42
1.0
176
     1
 92
        0
176
     1
 66
   257
176
     1
 43
1.0
176
     1
 76
     1
176
     1
 77
     6
176
     1
 78
     2
176
     1
 67
     7
176
     1
 79
     3
176
     1
170
     0
176
     1
171
     0
176
     1
290
     0
176
     1
 93
        1
176
     1
 44
0.0
176
     1
173
     0
176
     1
1001
ACAD
1000
AcDbSavedByObjectVersion
1070
     0
  0
VISUALSTYLE
  5
44AF4
102
{ACAD_XDICTIONARY
360
44BB6
102
}
102
{ACAD_REACTORS
330
12C29
102
}
330
12C29
100
AcDbVisualStyle
  2
X-Ray
 70
    25
177
     2
291
     0
 71
     2
176
     1
 72
     2
176
     1
 73
     1
176
     1
 90
        1
176
     1
 40
0.5
176
     1
 41
30.0
176
     1
 63
     7
421
 16777215
176
     1
 74
     1
176
     1
 91
        0
176
     1
 64
     7
176
     1
 65
   257
176
     1
 75
     1
176
     1
175
     1
176
     1
 42
1.0
176
     1
 92
        8
176
     1
 66
     7
176
     1
 43
1.0
176
     1
 76
     1
176
     1
 77
     6
176
     1
 78
     2
176
     1
 67
     7
176
     1
 79
     3
176
     1
170
     0
176
     1
171
     0
176
     1
290
     0
176
     1
 93
       13
176
     1
 44
0.0
176
     1
173
     0
176
     1
1001
ACAD
1000
AcDbSavedByObjectVersion
1070
     0
  0
DICTIONARYVAR
  5
12CD3
102
{ACAD_REACTORS
330
66
102
}
330
66
100
DictionaryVariables
280
     0
  1
1:1
  0
DICTIONARYVAR
  5
12CD2
102
{ACAD_REACTORS
330
66
102
}
330
66
100
DictionaryVariables
280
     0
  1
STANDARD
  0
DICTIONARYVAR
  5
364
102
{ACAD_REACTORS
330
66
102
}
330
66
100
DictionaryVariables
280
     0
  1
STANDARD
  0
DICTIONARYVAR
  5
44B68
102
{ACAD_REACTORS
330
66
102
}
330
66
100
DictionaryVariables
280
     0
  1
Imperial24
  0
DICTIONARYVAR
  5
44B69
102
{ACAD_REACTORS
330
66
102
}
330
66
100
DictionaryVariables
280
     0
  1
Imperial24
  0
DICTIONARYVAR
  5
67
102
{ACAD_REACTORS
330
66
102
}
330
66
100
DictionaryVariables
280
     0
  1
2
  0
DICTIONARYVAR
  5
6B
102
{ACAD_REACTORS
330
66
102
}
330
66
100
DictionaryVariables
280
     0
  1
1
  0
DICTIONARYVAR
  5
12CD5
102
{ACAD_REACTORS
330
66
102
}
330
66
100
DictionaryVariables
280
     0
  1
0
  0
DICTIONARYVAR
  5
44AD9
102
{ACAD_REACTORS
330
66
102
}
330
66
100
DictionaryVariables
280
     0
  1
1
  0
DICTIONARYVAR
  5
44ADA
102
{ACAD_REACTORS
330
66
102
}
330
66
100
DictionaryVariables
280
     0
  1
15
  0
DICTIONARYVAR
  5
12D90
102
{ACAD_REACTORS
330
66
102
}
330
66
100
DictionaryVariables
280
     0
  1
0
  0
DICTIONARYVAR
  5
12D8F
102
{ACAD_REACTORS
330
66
102
}
330
66
100
DictionaryVariables
280
     0
  1
0
  0
DICTIONARYVAR
  5
8305
102
{ACAD_REACTORS
330
66
102
}
330
66
100
DictionaryVariables
280
     0
  1

  0
DICTIONARYVAR
  5
12CD4
102
{ACAD_REACTORS
330
66
102
}
330
66
100
DictionaryVariables
280
     0
  1
127
  0
DICTIONARY
  5
44B87
102
{ACAD_REACTORS
330
44B85
102
}
330
44B85
100
AcDbDictionary
281
     1
  0
DICTIONARY
  5
44B86
102
{ACAD_REACTORS
330
44B85
102
}
330
44B85
100
AcDbDictionary
281
     1
  3
2237857217664
350
44B80
  3
2237857217680
350
44B81
  3
2237857217696
350
44B82
  3
2237857217712
350
44B83
  3
2237857217728
350
44B84
  0
XRECORD
  5
1402
102
{ACAD_REACTORS
330
1401
102
}
330
1401
100
AcDbXrecord
280
     1
 40
1.0
  0
DICTIONARY
  5
44B42
102
{ACAD_REACTORS
330
44B41
102
}
330
44B41
100
AcDbDictionary
281
     1
  3
*A1
350
44B43
  0
DICTIONARY
  5
44BBE
330
44AFA
100
AcDbDictionary
280
     1
281
     1
  3
ACAD_XREC_ROUNDTRIP
360
44BBF
  0
DICTIONARY
  5
11F01
330
59
100
AcDbDictionary
280
     1
281
     1
  0
DICTIONARY
  5
11F0E
330
5E
100
AcDbDictionary
280
     1
281
     1
  0
DICTIONARY
  5
44AD7
330
22
100
AcDbDictionary
280
     1
281
     1
  0
DICTIONARY
  5
12C1A
330
12C19
100
AcDbDictionary
280
     1
281
     1
  3
BUMPTILE
360
12C1C
  3
DIFFUSETILE
360
12C1B
  3
OPACITYTILE
360
12C1F
  3
REFLECTIONTILE
360
12C1E
  3
REFRACTIONTILE
360
12C20
  3
SPECULARTILE
360
12C1D
  0
DICTIONARY
  5
12C12
330
12C11
100
AcDbDictionary
280
     1
281
     1
  3
BUMPTILE
360
12C14
  3
DIFFUSETILE
360
12C13
  3
OPACITYTILE
360
12C17
  3
REFLECTIONTILE
360
12C16
  3
REFRACTIONTILE
360
12C18
  3
SPECULARTILE
360
12C15
  0
DICTIONARY
  5
12C22
330
12C21
100
AcDbDictionary
280
     1
281
     1
  3
BUMPTILE
360
12C24
  3
DIFFUSETILE
360
12C23
  3
OPACITYTILE
360
12C27
  3
REFLECTIONTILE
360
12C26
  3
REFRACTIONTILE
360
12C28
  3
SPECULARTILE
360
12C25
  0
DICTIONARY
  5
44BBC
330
44AF8
100
AcDbDictionary
280
     1
281
     1
  3
ACAD_XREC_ROUNDTRIP
360
44BBD
  0
DICTIONARY
  5
12C92
330
37C9
100
AcDbDictionary
280
     1
281
     1
  3
ACAD_ROUNDTRIP_2008_TABLESTYLE_CELLSTYLEMAP
360
44B7C
  0
DICTIONARY
  5
12C90
330
36AB
100
AcDbDictionary
280
     1
281
     1
  3
ACAD_ROUNDTRIP_2008_TABLESTYLE_CELLSTYLEMAP
360
44B7B
  0
DICTIONARY
  5
12C8E
330
87
100
AcDbDictionary
280
     1
281
     1
  3
ACAD_ROUNDTRIP_2008_TABLESTYLE_CELLSTYLEMAP
360
44B7A
  0
DICTIONARY
  5
44B92
330
12C2F
100
AcDbDictionary
280
     1
281
     1
  3
ACAD_XREC_ROUNDTRIP
360
44B93
  0
DICTIONARY
  5
44B96
330
12C31
100
AcDbDictionary
280
     1
281
     1
  3
ACAD_XREC_ROUNDTRIP
360
44B97
  0
DICTIONARY
  5
44B94
330
12C30
100
AcDbDictionary
280
     1
281
     1
  3
ACAD_XREC_ROUNDTRIP
360
44B95
  0
DICTIONARY
  5
44B90
330
12C2E
100
AcDbDictionary
280
     1
281
     1
  3
ACAD_XREC_ROUNDTRIP
360
44B91
  0
DICTIONARY
  5
44B9E
330
12C35
100
AcDbDictionary
280
     1
281
     1
  3
ACAD_XREC_ROUNDTRIP
360
44B9F
  0
DICTIONARY
  5
44BA6
330
12C39
100
AcDbDictionary
280
     1
281
     1
  3
ACAD_XREC_ROUNDTRIP
360
44BA7
  0
DICTIONARY
  5
44B98
330
12C32
100
AcDbDictionary
280
     1
281
     1
  3
ACAD_XREC_ROUNDTRIP
360
44B99
  0
DICTIONARY
  5
44B9C
330
12C34
100
AcDbDictionary
280
     1
281
     1
  3
ACAD_XREC_ROUNDTRIP
360
44B9D
  0
DICTIONARY
  5
44BAC
330
43F1C
100
AcDbDictionary
280
     1
281
     1
  3
ACAD_XREC_ROUNDTRIP
360
44BAD
  0
DICTIONARY
  5
44BA4
330
12C38
100
AcDbDictionary
280
     1
281
     1
  3
ACAD_XREC_ROUNDTRIP
360
44BA5
  0
DICTIONARY
  5
44B88
330
12C2A
100
AcDbDictionary
280
     1
281
     1
  3
ACAD_XREC_ROUNDTRIP
360
44B89
  0
DICTIONARY
  5
44B8A
330
12C2B
100
AcDbDictionary
280
     1
281
     1
  3
ACAD_XREC_ROUNDTRIP
360
44B8B
  0
DICTIONARY
  5
44B8C
330
12C2C
100
AcDbDictionary
280
     1
281
     1
  3
ACAD_XREC_ROUNDTRIP
360
44B8D
  0
DICTIONARY
  5
44B8E
330
12C2D
100
AcDbDictionary
280
     1
281
     1
  3
ACAD_XREC_ROUNDTRIP
360
44B8F
  0
DICTIONARY
  5
44BB0
330
44AF1
100
AcDbDictionary
280
     1
281
     1
  3
ACAD_XREC_ROUNDTRIP
360
44BB1
  0
DICTIONARY
  5
44BA8
330
43F1A
100
AcDbDictionary
280
     1
281
     1
  3
ACAD_XREC_ROUNDTRIP
360
44BA9
  0
DICTIONARY
  5
44BA2
330
12C37
100
AcDbDictionary
280
     1
281
     1
  3
ACAD_XREC_ROUNDTRIP
360
44BA3
  0
DICTIONARY
  5
44BAA
330
43F1B
100
AcDbDictionary
280
     1
281
     1
  3
ACAD_XREC_ROUNDTRIP
360
44BAB
  0
DICTIONARY
  5
44B9A
330
12C33
100
AcDbDictionary
280
     1
281
     1
  3
ACAD_XREC_ROUNDTRIP
360
44B9B
  0
DICTIONARY
  5
44BBA
330
44AF6
100
AcDbDictionary
280
     1
281
     1
  3
ACAD_XREC_ROUNDTRIP
360
44BBB
  0
DICTIONARY
  5
44BB8
330
44AF5
100
AcDbDictionary
280
     1
281
     1
  3
ACAD_XREC_ROUNDTRIP
360
44BB9
  0
DICTIONARY
  5
44BB2
330
44AF2
100
AcDbDictionary
280
     1
281
     1
  3
ACAD_XREC_ROUNDTRIP
360
44BB3
  0
DICTIONARY
  5
44BB4
330
44AF3
100
AcDbDictionary
280
     1
281
     1
  3
ACAD_XREC_ROUNDTRIP
360
44BB5
  0
DICTIONARY
  5
44BA0
330
12C36
100
AcDbDictionary
280
     1
281
     1
  3
ACAD_XREC_ROUNDTRIP
360
44BA1
  0
DICTIONARY
  5
44BAE
330
44AF0
100
AcDbDictionary
280
     1
281
     1
  3
ACAD_XREC_ROUNDTRIP
360
44BAF
  0
DICTIONARY
  5
44BB6
330
44AF4
100
AcDbDictionary
280
     1
281
     1
  3
ACAD_XREC_ROUNDTRIP
360
44BB7
  0
XRECORD
  5
44B80
102
{ACAD_REACTORS
330
44B86
102
}
330
44B86
100
AcDbXrecord
280
     1
  1
AcDb_Thumbnail_Schema
102
{ATTRRECORD
341
44B81
  2
AcDbDs::TreatedAsObjectData
280
     1
291
     1
102
ATTRRECORD}
102
{ATTRRECORD
341
44B82
  2
AcDbDs::Legacy
280
     1
291
     1
102
ATTRRECORD}
  2
AcDbDs::ID
280
    10
 91
        8
102
{ATTRRECORD
341
44B83
  2
AcDs:Indexable
280
     1
291
     1
102
ATTRRECORD}
102
{ATTRRECORD
341
44B84
  2
AcDbDs::HandleAttribute
280
     7
282
     1
102
ATTRRECORD}
  2
Thumbnail_Data
280
    15
 91
        0
  0
XRECORD
  5
44B81
102
{ACAD_REACTORS
330
44B86
102
}
330
44B86
100
AcDbXrecord
280
     1
  1
AcDbDs::TreatedAsObjectDataSchema
  2
AcDbDs::TreatedAsObjectData
280
     1
 91
        0
  0
XRECORD
  5
44B82
102
{ACAD_REACTORS
330
44B86
102
}
330
44B86
100
AcDbXrecord
280
     1
  1
AcDbDs::LegacySchema
  2
AcDbDs::Legacy
280
     1
 91
        0
  0
XRECORD
  5
44B83
102
{ACAD_REACTORS
330
44B86
102
}
330
44B86
100
AcDbXrecord
280
     1
  1
AcDbDs::IndexedPropertySchema
  2
AcDs:Indexable
280
     1
 91
        0
  0
XRECORD
  5
44B84
102
{ACAD_REACTORS
330
44B86
102
}
330
44B86
100
AcDbXrecord
280
     1
  1
AcDbDs::HandleAttributeSchema
  2
AcDbDs::HandleAttribute
280
     7
 91
        1
284
     1
  0
ACDB_MTEXTOBJECTCONTEXTDATA_CLASS
  5
44B43
102
{ACAD_REACTORS
330
44B42
102
}
330
44B42
100
AcDbObjectContextData
 70
     4
290
     1
100
AcDbAnnotScaleObjectContextData
340
12C3B
 70
     1
 10
1.0
 20
0.0
 30
0.0
 11
392.9344933377531
 21
17.17164533801886
 31
0.0
 40
13.65867971675439
 41
0.0
 42
13.52397601931545
 43
1.125760901717623
 71
     0
  0
XRECORD
  5
44BBF
102
{ACAD_REACTORS
330
44BBE
102
}
330
44BBE
100
AcDbXrecord
280
     1
102
DISPLAYNAME
  1
Imperial24
102
FLAGS
 90
        0
  0
XRECORD
  5
12C1C
102
{ACAD_REACTORS
330
12C1A
102
}
330
12C1A
100
AcDbXrecord
280
     1
270
     1
271
     1
  0
XRECORD
  5
12C1B
102
{ACAD_REACTORS
330
12C1A
102
}
330
12C1A
100
AcDbXrecord
280
     1
270
     1
271
     1
  0
XRECORD
  5
12C1F
102
{ACAD_REACTORS
330
12C1A
102
}
330
12C1A
100
AcDbXrecord
280
     1
270
     1
271
     1
  0
XRECORD
  5
12C1E
102
{ACAD_REACTORS
330
12C1A
102
}
330
12C1A
100
AcDbXrecord
280
     1
270
     1
271
     1
  0
XRECORD
  5
12C20
102
{ACAD_REACTORS
330
12C1A
102
}
330
12C1A
100
AcDbXrecord
280
     1
270
     1
271
     1
  0
XRECORD
  5
12C1D
102
{ACAD_REACTORS
330
12C1A
102
}
330
12C1A
100
AcDbXrecord
280
     1
270
     1
271
     1
  0
XRECORD
  5
12C14
102
{ACAD_REACTORS
330
12C12
102
}
330
12C12
100
AcDbXrecord
280
     1
270
     1
271
     1
  0
XRECORD
  5
12C13
102
{ACAD_REACTORS
330
12C12
102
}
330
12C12
100
AcDbXrecord
280
     1
270
     1
271
     1
  0
XRECORD
  5
12C17
102
{ACAD_REACTORS
330
12C12
102
}
330
12C12
100
AcDbXrecord
280
     1
270
     1
271
     1
  0
XRECORD
  5
12C16
102
{ACAD_REACTORS
330
12C12
102
}
330
12C12
100
AcDbXrecord
280
     1
270
     1
271
     1
  0
XRECORD
  5
12C18
102
{ACAD_REACTORS
330
12C12
102
}
330
12C12
100
AcDbXrecord
280
     1
270
     1
271
     1
  0
XRECORD
  5
12C15
102
{ACAD_REACTORS
330
12C12
102
}
330
12C12
100
AcDbXrecord
280
     1
270
     1
271
     1
  0
XRECORD
  5
12C24
102
{ACAD_REACTORS
330
12C22
102
}
330
12C22
100
AcDbXrecord
280
     1
270
     1
271
     1
  0
XRECORD
  5
12C23
102
{ACAD_REACTORS
330
12C22
102
}
330
12C22
100
AcDbXrecord
280
     1
270
     1
271
     1
  0
XRECORD
  5
12C27
102
{ACAD_REACTORS
330
12C22
102
}
330
12C22
100
AcDbXrecord
280
     1
270
     1
271
     1
  0
XRECORD
  5
12C26
102
{ACAD_REACTORS
330
12C22
102
}
330
12C22
100
AcDbXrecord
280
     1
270
     1
271
     1
  0
XRECORD
  5
12C28
102
{ACAD_REACTORS
330
12C22
102
}
330
12C22
100
AcDbXrecord
280
     1
270
     1
271
     1
  0
XRECORD
  5
12C25
102
{ACAD_REACTORS
330
12C22
102
}
330
12C22
100
AcDbXrecord
280
     1
270
     1
271
     1
  0
XRECORD
  5
44BBD
102
{ACAD_REACTORS
330
44BBC
102
}
330
44BBC
100
AcDbXrecord
280
     1
102
DISPLAYNAME
  1
Imperial24
102
FLAGS
 90
        0
  0
CELLSTYLEMAP
  5
44B7C
102
{ACAD_REACTORS
330
12C92
102
}
330
12C92
100
AcDbCellStyleMap
 90
        3
300
CELLSTYLE
  1
TABLEFORMAT_BEGIN
 90
        5
170
     1
 91
        0
 92
    32768
 62
   257
 93
        1
300
CONTENTFORMAT
  1
CONTENTFORMAT_BEGIN
 90
        0
 91
        0
 92
        4
 93
        0
300

 40
0.0
140
1.0
 94
        5
 62
     1
340
36AA
144
0.25
309
CONTENTFORMAT_END
171
     0
 94
        6
 95
        1
302
GRIDFORMAT
  1
GRIDFORMAT_BEGIN
 90
        0
 91
        1
 62
     0
 92
       -2
340
0
 93
        0
 40
0.045
309
GRIDFORMAT_END
 95
        2
302
GRIDFORMAT
  1
GRIDFORMAT_BEGIN
 90
        0
 91
        1
 62
     0
 92
       -2
340
0
 93
        0
 40
0.045
309
GRIDFORMAT_END
 95
        4
302
GRIDFORMAT
  1
GRIDFORMAT_BEGIN
 90
        0
 91
        1
 62
     0
 92
       -2
340
0
 93
        0
 40
0.045
309
GRIDFORMAT_END
 95
        8
302
GRIDFORMAT
  1
GRIDFORMAT_BEGIN
 90
        0
 91
        1
 62
     0
 92
       -2
340
0
 93
        0
 40
0.045
309
GRIDFORMAT_END
 95
       16
302
GRIDFORMAT
  1
GRIDFORMAT_BEGIN
 90
        0
 91
        1
 62
     0
 92
       -2
340
0
 93
        0
 40
0.045
309
GRIDFORMAT_END
 95
       32
302
GRIDFORMAT
  1
GRIDFORMAT_BEGIN
 90
        0
 91
        1
 62
     0
 92
       -2
340
0
 93
        0
 40
0.045
309
GRIDFORMAT_END
309
TABLEFORMAT_END
  1
CELLSTYLE_BEGIN
 90
        1
 91
        1
300
_TITLE
309
CELLSTYLE_END
300
CELLSTYLE
  1
TABLEFORMAT_BEGIN
 90
        5
170
     1
 91
        0
 92
        0
 62
     9
 93
        1
300
CONTENTFORMAT
  1
CONTENTFORMAT_BEGIN
 90
        0
 91
        0
 92
        4
 93
        0
300

 40
0.0
140
1.0
 94
        5
 62
     5
340
36AA
144
0.18
309
CONTENTFORMAT_END
171
     0
 94
        6
 95
        1
302
GRIDFORMAT
  1
GRIDFORMAT_BEGIN
 90
        0
 91
        1
 62
     0
 92
       -2
340
0
 93
        0
 40
0.045
309
GRIDFORMAT_END
 95
        2
302
GRIDFORMAT
  1
GRIDFORMAT_BEGIN
 90
        0
 91
        1
 62
     0
 92
       -2
340
0
 93
        0
 40
0.045
309
GRIDFORMAT_END
 95
        4
302
GRIDFORMAT
  1
GRIDFORMAT_BEGIN
 90
        0
 91
        1
 62
     0
 92
       -2
340
0
 93
        0
 40
0.045
309
GRIDFORMAT_END
 95
        8
302
GRIDFORMAT
  1
GRIDFORMAT_BEGIN
 90
        0
 91
        1
 62
     0
 92
       -2
340
0
 93
        0
 40
0.045
309
GRIDFORMAT_END
 95
       16
302
GRIDFORMAT
  1
GRIDFORMAT_BEGIN
 90
        0
 91
        1
 62
     0
 92
       -2
340
0
 93
        0
 40
0.045
309
GRIDFORMAT_END
 95
       32
302
GRIDFORMAT
  1
GRIDFORMAT_BEGIN
 90
        0
 91
        1
 62
     0
 92
       -2
340
0
 93
        0
 40
0.045
309
GRIDFORMAT_END
309
TABLEFORMAT_END
  1
CELLSTYLE_BEGIN
 90
        2
 91
        1
300
_HEADER
309
CELLSTYLE_END
300
CELLSTYLE
  1
TABLEFORMAT_BEGIN
 90
        5
170
     1
 91
        0
 92
        0
 62
   257
 93
        1
300
CONTENTFORMAT
  1
CONTENTFORMAT_BEGIN
 90
        0
 91
        0
 92
        4
 93
        0
300

 40
0.0
140
1.0
 94
        2
 62
     0
340
36AA
144
0.18
309
CONTENTFORMAT_END
171
     0
 94
        6
 95
        1
302
GRIDFORMAT
  1
GRIDFORMAT_BEGIN
 90
        0
 91
        1
 62
     0
 92
       -2
340
0
 93
        0
 40
0.045
309
GRIDFORMAT_END
 95
        2
302
GRIDFORMAT
  1
GRIDFORMAT_BEGIN
 90
        0
 91
        1
 62
     0
 92
       -2
340
0
 93
        0
 40
0.045
309
GRIDFORMAT_END
 95
        4
302
GRIDFORMAT
  1
GRIDFORMAT_BEGIN
 90
        0
 91
        1
 62
     0
 92
       -2
340
0
 93
        0
 40
0.045
309
GRIDFORMAT_END
 95
        8
302
GRIDFORMAT
  1
GRIDFORMAT_BEGIN
 90
        0
 91
        1
 62
     0
 92
       -2
340
0
 93
        0
 40
0.045
309
GRIDFORMAT_END
 95
       16
302
GRIDFORMAT
  1
GRIDFORMAT_BEGIN
 90
        0
 91
        1
 62
     0
 92
       -2
340
0
 93
        0
 40
0.045
309
GRIDFORMAT_END
 95
       32
302
GRIDFORMAT
  1
GRIDFORMAT_BEGIN
 90
        0
 91
        1
 62
     0
 92
       -2
340
0
 93
        0
 40
0.045
309
GRIDFORMAT_END
309
TABLEFORMAT_END
  1
CELLSTYLE_BEGIN
 90
        3
 91
        2
300
_DATA
309
CELLSTYLE_END
  0
CELLSTYLEMAP
  5
44B7B
102
{ACAD_REACTORS
330
12C90
102
}
330
12C90
100
AcDbCellStyleMap
 90
        3
300
CELLSTYLE
  1
TABLEFORMAT_BEGIN
 90
        5
170
     1
 91
        0
 92
    32768
 62
   254
420
 14079702
 93
        1
300
CONTENTFORMAT
  1
CONTENTFORMAT_BEGIN
 90
        0
 91
        0
 92
        4
 93
        0
300

 40
0.0
140
1.0
 94
        5
 62
     1
340
36AA
144
6.0
309
CONTENTFORMAT_END
171
     1
301
MARGIN
  1
CELLMARGIN_BEGIN
 40
1.5
 40
1.5
 40
1.5
 40
1.5
 40
0.18
 40
0.18
309
CELLMARGIN_END
 94
        6
 95
        1
302
GRIDFORMAT
  1
GRIDFORMAT_BEGIN
 90
        0
 91
        1
 62
     0
 92
       -2
340
0
 93
        0
 40
0.045
309
GRIDFORMAT_END
 95
        2
302
GRIDFORMAT
  1
GRIDFORMAT_BEGIN
 90
        0
 91
        1
 62
     0
 92
       -2
340
0
 93
        0
 40
0.045
309
GRIDFORMAT_END
 95
        4
302
GRIDFORMAT
  1
GRIDFORMAT_BEGIN
 90
        0
 91
        1
 62
     0
 92
       -2
340
0
 93
        0
 40
0.045
309
GRIDFORMAT_END
 95
        8
302
GRIDFORMAT
  1
GRIDFORMAT_BEGIN
 90
        0
 91
        1
 62
     0
 92
       -2
340
0
 93
        0
 40
0.045
309
GRIDFORMAT_END
 95
       16
302
GRIDFORMAT
  1
GRIDFORMAT_BEGIN
 90
        0
 91
        1
 62
     0
 92
       -2
340
0
 93
        0
 40
0.045
309
GRIDFORMAT_END
 95
       32
302
GRIDFORMAT
  1
GRIDFORMAT_BEGIN
 90
        0
 91
        1
 62
     0
 92
       -2
340
0
 93
        0
 40
0.045
309
GRIDFORMAT_END
309
TABLEFORMAT_END
  1
CELLSTYLE_BEGIN
 90
        1
 91
        1
300
_TITLE
309
CELLSTYLE_END
300
CELLSTYLE
  1
TABLEFORMAT_BEGIN
 90
        5
170
     1
 91
        0
 92
        0
 62
   257
 93
        1
300
CONTENTFORMAT
  1
CONTENTFORMAT_BEGIN
 90
        0
 91
        0
 92
        4
 93
        0
300

 40
0.0
140
1.0
 94
        5
 62
     5
340
36AA
144
4.5
309
CONTENTFORMAT_END
171
     1
301
MARGIN
  1
CELLMARGIN_BEGIN
 40
1.5
 40
1.5
 40
1.5
 40
1.5
 40
0.18
 40
0.18
309
CELLMARGIN_END
 94
        6
 95
        1
302
GRIDFORMAT
  1
GRIDFORMAT_BEGIN
 90
        0
 91
        1
 62
     0
 92
       -2
340
0
 93
        0
 40
0.045
309
GRIDFORMAT_END
 95
        2
302
GRIDFORMAT
  1
GRIDFORMAT_BEGIN
 90
        0
 91
        1
 62
     0
 92
       -2
340
0
 93
        0
 40
0.045
309
GRIDFORMAT_END
 95
        4
302
GRIDFORMAT
  1
GRIDFORMAT_BEGIN
 90
        0
 91
        1
 62
     0
 92
       -2
340
0
 93
        0
 40
0.045
309
GRIDFORMAT_END
 95
        8
302
GRIDFORMAT
  1
GRIDFORMAT_BEGIN
 90
        0
 91
        1
 62
     0
 92
       -2
340
0
 93
        0
 40
0.045
309
GRIDFORMAT_END
 95
       16
302
GRIDFORMAT
  1
GRIDFORMAT_BEGIN
 90
        0
 91
        1
 62
     0
 92
       -2
340
0
 93
        0
 40
0.045
309
GRIDFORMAT_END
 95
       32
302
GRIDFORMAT
  1
GRIDFORMAT_BEGIN
 90
        0
 91
        1
 62
     0
 92
       -2
340
0
 93
        0
 40
0.045
309
GRIDFORMAT_END
309
TABLEFORMAT_END
  1
CELLSTYLE_BEGIN
 90
        2
 91
        1
300
_HEADER
309
CELLSTYLE_END
300
CELLSTYLE
  1
TABLEFORMAT_BEGIN
 90
        5
170
     1
 91
        0
 92
        0
 62
   257
 93
        1
300
CONTENTFORMAT
  1
CONTENTFORMAT_BEGIN
 90
        0
 91
        0
 92
        4
 93
        0
300

 40
0.0
140
1.0
 94
        2
 62
     0
340
36AA
144
4.5
309
CONTENTFORMAT_END
171
     1
301
MARGIN
  1
CELLMARGIN_BEGIN
 40
1.5
 40
1.5
 40
1.5
 40
1.5
 40
0.18
 40
0.18
309
CELLMARGIN_END
 94
        6
 95
        1
302
GRIDFORMAT
  1
GRIDFORMAT_BEGIN
 90
        0
 91
        1
 62
     0
 92
       -2
340
0
 93
        0
 40
0.045
309
GRIDFORMAT_END
 95
        2
302
GRIDFORMAT
  1
GRIDFORMAT_BEGIN
 90
        0
 91
        1
 62
     0
 92
       -2
340
0
 93
        0
 40
0.045
309
GRIDFORMAT_END
 95
        4
302
GRIDFORMAT
  1
GRIDFORMAT_BEGIN
 90
        0
 91
        1
 62
     0
 92
       -2
340
0
 93
        0
 40
0.045
309
GRIDFORMAT_END
 95
        8
302
GRIDFORMAT
  1
GRIDFORMAT_BEGIN
 90
        0
 91
        1
 62
     0
 92
       -2
340
0
 93
        0
 40
0.045
309
GRIDFORMAT_END
 95
       16
302
GRIDFORMAT
  1
GRIDFORMAT_BEGIN
 90
        0
 91
        1
 62
     0
 92
       -2
340
0
 93
        0
 40
0.045
309
GRIDFORMAT_END
 95
       32
302
GRIDFORMAT
  1
GRIDFORMAT_BEGIN
 90
        0
 91
        1
 62
     0
 92
       -2
340
0
 93
        0
 40
0.045
309
GRIDFORMAT_END
309
TABLEFORMAT_END
  1
CELLSTYLE_BEGIN
 90
        3
 91
        2
300
_DATA
309
CELLSTYLE_END
  0
CELLSTYLEMAP
  5
44B7A
102
{ACAD_REACTORS
330
12C8E
102
}
330
12C8E
100
AcDbCellStyleMap
 90
        3
300
CELLSTYLE
  1
TABLEFORMAT_BEGIN
 90
        5
170
     1
 91
        0
 92
    32768
 62
   257
 93
        1
300
CONTENTFORMAT
  1
CONTENTFORMAT_BEGIN
 90
        0
 91
        0
 92
        4
 93
        0
300

 40
0.0
140
1.0
 94
        5
 62
     0
340
11
144
0.25
309
CONTENTFORMAT_END
171
     0
 94
        6
 95
        1
302
GRIDFORMAT
  1
GRIDFORMAT_BEGIN
 90
        0
 91
        1
 62
     0
 92
       -2
340
0
 93
        0
 40
0.045
309
GRIDFORMAT_END
 95
        2
302
GRIDFORMAT
  1
GRIDFORMAT_BEGIN
 90
        0
 91
        1
 62
     0
 92
       -2
340
0
 93
        0
 40
0.045
309
GRIDFORMAT_END
 95
        4
302
GRIDFORMAT
  1
GRIDFORMAT_BEGIN
 90
        0
 91
        1
 62
     0
 92
       -2
340
0
 93
        0
 40
0.045
309
GRIDFORMAT_END
 95
        8
302
GRIDFORMAT
  1
GRIDFORMAT_BEGIN
 90
        0
 91
        1
 62
     0
 92
       -2
340
0
 93
        0
 40
0.045
309
GRIDFORMAT_END
 95
       16
302
GRIDFORMAT
  1
GRIDFORMAT_BEGIN
 90
        0
 91
        1
 62
     0
 92
       -2
340
0
 93
        0
 40
0.045
309
GRIDFORMAT_END
 95
       32
302
GRIDFORMAT
  1
GRIDFORMAT_BEGIN
 90
        0
 91
        1
 62
     0
 92
       -2
340
0
 93
        0
 40
0.045
309
GRIDFORMAT_END
309
TABLEFORMAT_END
  1
CELLSTYLE_BEGIN
 90
        1
 91
        1
300
_TITLE
309
CELLSTYLE_END
300
CELLSTYLE
  1
TABLEFORMAT_BEGIN
 90
        5
170
     1
 91
        0
 92
        0
 62
   257
 93
        1
300
CONTENTFORMAT
  1
CONTENTFORMAT_BEGIN
 90
        0
 91
        0
 92
        4
 93
        0
300

 40
0.0
140
1.0
 94
        5
 62
     0
340
11
144
0.18
309
CONTENTFORMAT_END
171
     0
 94
        6
 95
        1
302
GRIDFORMAT
  1
GRIDFORMAT_BEGIN
 90
        0
 91
        1
 62
     0
 92
       -2
340
0
 93
        0
 40
0.045
309
GRIDFORMAT_END
 95
        2
302
GRIDFORMAT
  1
GRIDFORMAT_BEGIN
 90
        0
 91
        1
 62
     0
 92
       -2
340
0
 93
        0
 40
0.045
309
GRIDFORMAT_END
 95
        4
302
GRIDFORMAT
  1
GRIDFORMAT_BEGIN
 90
        0
 91
        1
 62
     0
 92
       -2
340
0
 93
        0
 40
0.045
309
GRIDFORMAT_END
 95
        8
302
GRIDFORMAT
  1
GRIDFORMAT_BEGIN
 90
        0
 91
        1
 62
     0
 92
       -2
340
0
 93
        0
 40
0.045
309
GRIDFORMAT_END
 95
       16
302
GRIDFORMAT
  1
GRIDFORMAT_BEGIN
 90
        0
 91
        1
 62
     0
 92
       -2
340
0
 93
        0
 40
0.045
309
GRIDFORMAT_END
 95
       32
302
GRIDFORMAT
  1
GRIDFORMAT_BEGIN
 90
        0
 91
        1
 62
     0
 92
       -2
340
0
 93
        0
 40
0.045
309
GRIDFORMAT_END
309
TABLEFORMAT_END
  1
CELLSTYLE_BEGIN
 90
        2
 91
        1
300
_HEADER
309
CELLSTYLE_END
300
CELLSTYLE
  1
TABLEFORMAT_BEGIN
 90
        5
170
     1
 91
        0
 92
        0
 62
   257
 93
        1
300
CONTENTFORMAT
  1
CONTENTFORMAT_BEGIN
 90
        0
 91
        0
 92
        4
 93
        0
300

 40
0.0
140
1.0
 94
        2
 62
     0
340
11
144
0.18
309
CONTENTFORMAT_END
171
     0
 94
        6
 95
        1
302
GRIDFORMAT
  1
GRIDFORMAT_BEGIN
 90
        0
 91
        1
 62
     0
 92
       -2
340
0
 93
        0
 40
0.045
309
GRIDFORMAT_END
 95
        2
302
GRIDFORMAT
  1
GRIDFORMAT_BEGIN
 90
        0
 91
        1
 62
     0
 92
       -2
340
0
 93
        0
 40
0.045
309
GRIDFORMAT_END
 95
        4
302
GRIDFORMAT
  1
GRIDFORMAT_BEGIN
 90
        0
 91
        1
 62
     0
 92
       -2
340
0
 93
        0
 40
0.045
309
GRIDFORMAT_END
 95
        8
302
GRIDFORMAT
  1
GRIDFORMAT_BEGIN
 90
        0
 91
        1
 62
     0
 92
       -2
340
0
 93
        0
 40
0.045
309
GRIDFORMAT_END
 95
       16
302
GRIDFORMAT
  1
GRIDFORMAT_BEGIN
 90
        0
 91
        1
 62
     0
 92
       -2
340
0
 93
        0
 40
0.045
309
GRIDFORMAT_END
 95
       32
302
GRIDFORMAT
  1
GRIDFORMAT_BEGIN
 90
        0
 91
        1
 62
     0
 92
       -2
340
0
 93
        0
 40
0.045
309
GRIDFORMAT_END
309
TABLEFORMAT_END
  1
CELLSTYLE_BEGIN
 90
        3
 91
        2
300
_DATA
309
CELLSTYLE_END
  0
XRECORD
  5
44B93
102
{ACAD_REACTORS
330
44B92
102
}
330
44B92
100
AcDbXrecord
280
     1
102
RTVSPost2010Prop28
280
     1
102
RTVSPost2010PropOp28
 70
     1
102
RTVSPost2010Prop29
280
     1
102
RTVSPost2010PropOp29
 70
     1
102
RTVSPost2010Prop30
280
     0
102
RTVSPost2010PropOp30
 70
     1
102
RTVSPost2010Prop31
280
     0
102
RTVSPost2010PropOp31
 70
     1
102
RTVSPost2010Prop32
280
     0
102
RTVSPost2010PropOp32
 70
     1
102
RTVSPost2010Prop33
280
     0
102
RTVSPost2010PropOp33
 70
     1
102
RTVSPost2010Prop34
280
     0
102
RTVSPost2010PropOp34
 70
     1
102
RTVSPost2010Prop35
280
     0
102
RTVSPost2010PropOp35
 70
     1
102
RTVSPost2010Prop36
280
     0
102
RTVSPost2010PropOp36
 70
     1
102
RTVSPost2010Prop37
 90
       50
102
RTVSPost2010PropOp37
 70
     1
102
RTVSPost2010Prop38
140
0.0
102
RTVSPost2010PropOp38
 70
     1
102
RTVSPost2010Prop39
140
1.0
102
RTVSPost2010PropOp39
 70
     1
102
RTVSPost2010Prop40
 90
        0
102
RTVSPost2010PropOp40
 70
     1
102
RTVSPost2010Prop41ColorIndex
 90
       18
102
RTVSPost2010Prop41ColorRGB
 90
        0
102
RTVSPost2010PropOp41
 70
     1
102
RTVSPost2010Prop42
 90
       50
102
RTVSPost2010PropOp42
 70
     1
102
RTVSPost2010Prop43
 90
        3
102
RTVSPost2010PropOp43
 70
     1
102
RTVSPost2010Prop44ColorIndex
 90
        5
102
RTVSPost2010Prop44ColorRGB
 90
      255
102
RTVSPost2010PropOp44
 70
     1
102
RTVSPost2010Prop45
280
     0
102
RTVSPost2010PropOp45
 70
     1
102
RTVSPost2010Prop46
 90
       50
102
RTVSPost2010PropOp46
 70
     1
102
RTVSPost2010Prop47
 90
       50
102
RTVSPost2010PropOp47
 70
     1
102
RTVSPost2010Prop48
 90
       50
102
RTVSPost2010PropOp48
 70
     1
102
RTVSPost2010Prop49
280
     0
102
RTVSPost2010PropOp49
 70
     1
102
RTVSPost2010Prop50
 90
       50
102
RTVSPost2010PropOp50
 70
     1
102
RTVSPost2010Prop51ColorIndex
 90
      256
102
RTVSPost2010Prop51ColorRGB
 90
-16777216
102
RTVSPost2010PropOp51
 70
     0
102
RTVSPost2010Prop52
140
1.0
102
RTVSPost2010PropOp52
 70
     0
102
RTVSPost2010Prop53
 90
        2
102
RTVSPost2010PropOp53
 70
     1
102
RTVSPost2010Prop54
  1
strokes_ogs.tif
102
RTVSPost2010PropOp54
 70
     1
102
RTVSPost2010Prop55
280
     0
102
RTVSPost2010PropOp55
 70
     1
102
RTVSPost2010Prop56
140
1.0
102
RTVSPost2010PropOp56
 70
     1
102
RTVSPost2010Prop57
140
1.0
102
RTVSPost2010PropOp57
 70
     1
  0
XRECORD
  5
44B97
102
{ACAD_REACTORS
330
44B96
102
}
330
44B96
100
AcDbXrecord
280
     1
102
RTVSPost2010Prop28
280
     0
102
RTVSPost2010PropOp28
 70
     1
102
RTVSPost2010Prop29
280
     1
102
RTVSPost2010PropOp29
 70
     1
102
RTVSPost2010Prop30
280
     1
102
RTVSPost2010PropOp30
 70
     1
102
RTVSPost2010Prop31
280
     0
102
RTVSPost2010PropOp31
 70
     1
102
RTVSPost2010Prop32
280
     0
102
RTVSPost2010PropOp32
 70
     1
102
RTVSPost2010Prop33
280
     0
102
RTVSPost2010PropOp33
 70
     1
102
RTVSPost2010Prop34
280
     0
102
RTVSPost2010PropOp34
 70
     1
102
RTVSPost2010Prop35
280
     0
102
RTVSPost2010PropOp35
 70
     1
102
RTVSPost2010Prop36
280
     0
102
RTVSPost2010PropOp36
 70
     1
102
RTVSPost2010Prop37
 90
       50
102
RTVSPost2010PropOp37
 70
     1
102
RTVSPost2010Prop38
140
0.0
102
RTVSPost2010PropOp38
 70
     1
102
RTVSPost2010Prop39
140
1.0
102
RTVSPost2010PropOp39
 70
     1
102
RTVSPost2010Prop40
 90
        0
102
RTVSPost2010PropOp40
 70
     1
102
RTVSPost2010Prop41ColorIndex
 90
       18
102
RTVSPost2010Prop41ColorRGB
 90
        0
102
RTVSPost2010PropOp41
 70
     1
102
RTVSPost2010Prop42
 90
       50
102
RTVSPost2010PropOp42
 70
     1
102
RTVSPost2010Prop43
 90
        3
102
RTVSPost2010PropOp43
 70
     1
102
RTVSPost2010Prop44ColorIndex
 90
        5
102
RTVSPost2010Prop44ColorRGB
 90
      255
102
RTVSPost2010PropOp44
 70
     1
102
RTVSPost2010Prop45
280
     0
102
RTVSPost2010PropOp45
 70
     1
102
RTVSPost2010Prop46
 90
       50
102
RTVSPost2010PropOp46
 70
     1
102
RTVSPost2010Prop47
 90
       50
102
RTVSPost2010PropOp47
 70
     1
102
RTVSPost2010Prop48
 90
       50
102
RTVSPost2010PropOp48
 70
     1
102
RTVSPost2010Prop49
280
     0
102
RTVSPost2010PropOp49
 70
     1
102
RTVSPost2010Prop50
 90
       50
102
RTVSPost2010PropOp50
 70
     1
102
RTVSPost2010Prop51ColorIndex
 90
      256
102
RTVSPost2010Prop51ColorRGB
 90
-16777216
102
RTVSPost2010PropOp51
 70
     0
102
RTVSPost2010Prop52
140
1.0
102
RTVSPost2010PropOp52
 70
     0
102
RTVSPost2010Prop53
 90
        2
102
RTVSPost2010PropOp53
 70
     1
102
RTVSPost2010Prop54
  1
strokes_ogs.tif
102
RTVSPost2010PropOp54
 70
     1
102
RTVSPost2010Prop55
280
     0
102
RTVSPost2010PropOp55
 70
     1
102
RTVSPost2010Prop56
140
1.0
102
RTVSPost2010PropOp56
 70
     1
102
RTVSPost2010Prop57
140
1.0
102
RTVSPost2010PropOp57
 70
     1
  0
XRECORD
  5
44B95
102
{ACAD_REACTORS
330
44B94
102
}
330
44B94
100
AcDbXrecord
280
     1
102
RTVSPost2010Prop28
280
     0
102
RTVSPost2010PropOp28
 70
     1
102
RTVSPost2010Prop29
280
     1
102
RTVSPost2010PropOp29
 70
     1
102
RTVSPost2010Prop30
280
     1
102
RTVSPost2010PropOp30
 70
     1
102
RTVSPost2010Prop31
280
     0
102
RTVSPost2010PropOp31
 70
     1
102
RTVSPost2010Prop32
280
     0
102
RTVSPost2010PropOp32
 70
     1
102
RTVSPost2010Prop33
280
     0
102
RTVSPost2010PropOp33
 70
     1
102
RTVSPost2010Prop34
280
     0
102
RTVSPost2010PropOp34
 70
     1
102
RTVSPost2010Prop35
280
     0
102
RTVSPost2010PropOp35
 70
     1
102
RTVSPost2010Prop36
280
     0
102
RTVSPost2010PropOp36
 70
     1
102
RTVSPost2010Prop37
 90
       50
102
RTVSPost2010PropOp37
 70
     1
102
RTVSPost2010Prop38
140
0.0
102
RTVSPost2010PropOp38
 70
     1
102
RTVSPost2010Prop39
140
1.0
102
RTVSPost2010PropOp39
 70
     1
102
RTVSPost2010Prop40
 90
        0
102
RTVSPost2010PropOp40
 70
     1
102
RTVSPost2010Prop41ColorIndex
 90
       18
102
RTVSPost2010Prop41ColorRGB
 90
        0
102
RTVSPost2010PropOp41
 70
     1
102
RTVSPost2010Prop42
 90
       50
102
RTVSPost2010PropOp42
 70
     1
102
RTVSPost2010Prop43
 90
        3
102
RTVSPost2010PropOp43
 70
     1
102
RTVSPost2010Prop44ColorIndex
 90
        5
102
RTVSPost2010Prop44ColorRGB
 90
      255
102
RTVSPost2010PropOp44
 70
     1
102
RTVSPost2010Prop45
280
     0
102
RTVSPost2010PropOp45
 70
     1
102
RTVSPost2010Prop46
 90
       50
102
RTVSPost2010PropOp46
 70
     1
102
RTVSPost2010Prop47
 90
       50
102
RTVSPost2010PropOp47
 70
     1
102
RTVSPost2010Prop48
 90
       50
102
RTVSPost2010PropOp48
 70
     1
102
RTVSPost2010Prop49
280
     0
102
RTVSPost2010PropOp49
 70
     1
102
RTVSPost2010Prop50
 90
       50
102
RTVSPost2010PropOp50
 70
     1
102
RTVSPost2010Prop51ColorIndex
 90
      256
102
RTVSPost2010Prop51ColorRGB
 90
-16777216
102
RTVSPost2010PropOp51
 70
     0
102
RTVSPost2010Prop52
140
1.0
102
RTVSPost2010PropOp52
 70
     0
102
RTVSPost2010Prop53
 90
        2
102
RTVSPost2010PropOp53
 70
     1
102
RTVSPost2010Prop54
  1
strokes_ogs.tif
102
RTVSPost2010PropOp54
 70
     1
102
RTVSPost2010Prop55
280
     0
102
RTVSPost2010PropOp55
 70
     1
102
RTVSPost2010Prop56
140
1.0
102
RTVSPost2010PropOp56
 70
     1
102
RTVSPost2010Prop57
140
1.0
102
RTVSPost2010PropOp57
 70
     1
  0
XRECORD
  5
44B91
102
{ACAD_REACTORS
330
44B90
102
}
330
44B90
100
AcDbXrecord
280
     1
102
RTVSPost2010Prop28
280
     0
102
RTVSPost2010PropOp28
 70
     1
102
RTVSPost2010Prop29
280
     1
102
RTVSPost2010PropOp29
 70
     1
102
RTVSPost2010Prop30
280
     1
102
RTVSPost2010PropOp30
 70
     1
102
RTVSPost2010Prop31
280
     0
102
RTVSPost2010PropOp31
 70
     1
102
RTVSPost2010Prop32
280
     0
102
RTVSPost2010PropOp32
 70
     1
102
RTVSPost2010Prop33
280
     0
102
RTVSPost2010PropOp33
 70
     1
102
RTVSPost2010Prop34
280
     0
102
RTVSPost2010PropOp34
 70
     1
102
RTVSPost2010Prop35
280
     0
102
RTVSPost2010PropOp35
 70
     1
102
RTVSPost2010Prop36
280
     0
102
RTVSPost2010PropOp36
 70
     1
102
RTVSPost2010Prop37
 90
       50
102
RTVSPost2010PropOp37
 70
     1
102
RTVSPost2010Prop38
140
0.0
102
RTVSPost2010PropOp38
 70
     1
102
RTVSPost2010Prop39
140
1.0
102
RTVSPost2010PropOp39
 70
     1
102
RTVSPost2010Prop40
 90
        0
102
RTVSPost2010PropOp40
 70
     1
102
RTVSPost2010Prop41ColorIndex
 90
       18
102
RTVSPost2010Prop41ColorRGB
 90
        0
102
RTVSPost2010PropOp41
 70
     1
102
RTVSPost2010Prop42
 90
       50
102
RTVSPost2010PropOp42
 70
     1
102
RTVSPost2010Prop43
 90
        3
102
RTVSPost2010PropOp43
 70
     1
102
RTVSPost2010Prop44ColorIndex
 90
        5
102
RTVSPost2010Prop44ColorRGB
 90
      255
102
RTVSPost2010PropOp44
 70
     1
102
RTVSPost2010Prop45
280
     0
102
RTVSPost2010PropOp45
 70
     1
102
RTVSPost2010Prop46
 90
       50
102
RTVSPost2010PropOp46
 70
     1
102
RTVSPost2010Prop47
 90
       50
102
RTVSPost2010PropOp47
 70
     1
102
RTVSPost2010Prop48
 90
       50
102
RTVSPost2010PropOp48
 70
     1
102
RTVSPost2010Prop49
280
     0
102
RTVSPost2010PropOp49
 70
     1
102
RTVSPost2010Prop50
 90
       50
102
RTVSPost2010PropOp50
 70
     1
102
RTVSPost2010Prop51ColorIndex
 90
      256
102
RTVSPost2010Prop51ColorRGB
 90
-16777216
102
RTVSPost2010PropOp51
 70
     0
102
RTVSPost2010Prop52
140
1.0
102
RTVSPost2010PropOp52
 70
     0
102
RTVSPost2010Prop53
 90
        2
102
RTVSPost2010PropOp53
 70
     1
102
RTVSPost2010Prop54
  1
strokes_ogs.tif
102
RTVSPost2010PropOp54
 70
     1
102
RTVSPost2010Prop55
280
     0
102
RTVSPost2010PropOp55
 70
     1
102
RTVSPost2010Prop56
140
1.0
102
RTVSPost2010PropOp56
 70
     1
102
RTVSPost2010Prop57
140
1.0
102
RTVSPost2010PropOp57
 70
     1
  0
XRECORD
  5
44B9F
102
{ACAD_REACTORS
330
44B9E
102
}
330
44B9E
100
AcDbXrecord
280
     1
102
RTVSPost2010Prop28
280
     0
102
RTVSPost2010PropOp28
 70
     1
102
RTVSPost2010Prop29
280
     1
102
RTVSPost2010PropOp29
 70
     1
102
RTVSPost2010Prop30
280
     1
102
RTVSPost2010PropOp30
 70
     1
102
RTVSPost2010Prop31
280
     0
102
RTVSPost2010PropOp31
 70
     1
102
RTVSPost2010Prop32
280
     0
102
RTVSPost2010PropOp32
 70
     1
102
RTVSPost2010Prop33
280
     0
102
RTVSPost2010PropOp33
 70
     1
102
RTVSPost2010Prop34
280
     0
102
RTVSPost2010PropOp34
 70
     1
102
RTVSPost2010Prop35
280
     0
102
RTVSPost2010PropOp35
 70
     1
102
RTVSPost2010Prop36
280
     0
102
RTVSPost2010PropOp36
 70
     1
102
RTVSPost2010Prop37
 90
       50
102
RTVSPost2010PropOp37
 70
     1
102
RTVSPost2010Prop38
140
0.0
102
RTVSPost2010PropOp38
 70
     1
102
RTVSPost2010Prop39
140
1.0
102
RTVSPost2010PropOp39
 70
     1
102
RTVSPost2010Prop40
 90
        0
102
RTVSPost2010PropOp40
 70
     1
102
RTVSPost2010Prop41ColorIndex
 90
       18
102
RTVSPost2010Prop41ColorRGB
 90
        0
102
RTVSPost2010PropOp41
 70
     1
102
RTVSPost2010Prop42
 90
       50
102
RTVSPost2010PropOp42
 70
     1
102
RTVSPost2010Prop43
 90
        3
102
RTVSPost2010PropOp43
 70
     1
102
RTVSPost2010Prop44ColorIndex
 90
        5
102
RTVSPost2010Prop44ColorRGB
 90
      255
102
RTVSPost2010PropOp44
 70
     1
102
RTVSPost2010Prop45
280
     0
102
RTVSPost2010PropOp45
 70
     1
102
RTVSPost2010Prop46
 90
       50
102
RTVSPost2010PropOp46
 70
     1
102
RTVSPost2010Prop47
 90
       50
102
RTVSPost2010PropOp47
 70
     1
102
RTVSPost2010Prop48
 90
       50
102
RTVSPost2010PropOp48
 70
     1
102
RTVSPost2010Prop49
280
     0
102
RTVSPost2010PropOp49
 70
     1
102
RTVSPost2010Prop50
 90
       50
102
RTVSPost2010PropOp50
 70
     1
102
RTVSPost2010Prop51ColorIndex
 90
      256
102
RTVSPost2010Prop51ColorRGB
 90
-16777216
102
RTVSPost2010PropOp51
 70
     0
102
RTVSPost2010Prop52
140
1.0
102
RTVSPost2010PropOp52
 70
     0
102
RTVSPost2010Prop53
 90
        2
102
RTVSPost2010PropOp53
 70
     1
102
RTVSPost2010Prop54
  1
strokes_ogs.tif
102
RTVSPost2010PropOp54
 70
     1
102
RTVSPost2010Prop55
280
     0
102
RTVSPost2010PropOp55
 70
     1
102
RTVSPost2010Prop56
140
1.0
102
RTVSPost2010PropOp56
 70
     1
102
RTVSPost2010Prop57
140
1.0
102
RTVSPost2010PropOp57
 70
     1
  0
XRECORD
  5
44BA7
102
{ACAD_REACTORS
330
44BA6
102
}
330
44BA6
100
AcDbXrecord
280
     1
102
RTVSPost2010Prop28
280
     0
102
RTVSPost2010PropOp28
 70
     1
102
RTVSPost2010Prop29
280
     1
102
RTVSPost2010PropOp29
 70
     1
102
RTVSPost2010Prop30
280
     1
102
RTVSPost2010PropOp30
 70
     1
102
RTVSPost2010Prop31
280
     0
102
RTVSPost2010PropOp31
 70
     1
102
RTVSPost2010Prop32
280
     0
102
RTVSPost2010PropOp32
 70
     1
102
RTVSPost2010Prop33
280
     0
102
RTVSPost2010PropOp33
 70
     1
102
RTVSPost2010Prop34
280
     0
102
RTVSPost2010PropOp34
 70
     1
102
RTVSPost2010Prop35
280
     0
102
RTVSPost2010PropOp35
 70
     1
102
RTVSPost2010Prop36
280
     0
102
RTVSPost2010PropOp36
 70
     1
102
RTVSPost2010Prop37
 90
       50
102
RTVSPost2010PropOp37
 70
     1
102
RTVSPost2010Prop38
140
0.0
102
RTVSPost2010PropOp38
 70
     1
102
RTVSPost2010Prop39
140
1.0
102
RTVSPost2010PropOp39
 70
     1
102
RTVSPost2010Prop40
 90
        0
102
RTVSPost2010PropOp40
 70
     1
102
RTVSPost2010Prop41ColorIndex
 90
       18
102
RTVSPost2010Prop41ColorRGB
 90
        0
102
RTVSPost2010PropOp41
 70
     1
102
RTVSPost2010Prop42
 90
       50
102
RTVSPost2010PropOp42
 70
     1
102
RTVSPost2010Prop43
 90
        3
102
RTVSPost2010PropOp43
 70
     1
102
RTVSPost2010Prop44ColorIndex
 90
        5
102
RTVSPost2010Prop44ColorRGB
 90
      255
102
RTVSPost2010PropOp44
 70
     1
102
RTVSPost2010Prop45
280
     0
102
RTVSPost2010PropOp45
 70
     1
102
RTVSPost2010Prop46
 90
       50
102
RTVSPost2010PropOp46
 70
     1
102
RTVSPost2010Prop47
 90
       50
102
RTVSPost2010PropOp47
 70
     1
102
RTVSPost2010Prop48
 90
       50
102
RTVSPost2010PropOp48
 70
     1
102
RTVSPost2010Prop49
280
     0
102
RTVSPost2010PropOp49
 70
     1
102
RTVSPost2010Prop50
 90
       50
102
RTVSPost2010PropOp50
 70
     1
102
RTVSPost2010Prop51ColorIndex
 90
      256
102
RTVSPost2010Prop51ColorRGB
 90
-16777216
102
RTVSPost2010PropOp51
 70
     0
102
RTVSPost2010Prop52
140
1.0
102
RTVSPost2010PropOp52
 70
     0
102
RTVSPost2010Prop53
 90
        2
102
RTVSPost2010PropOp53
 70
     1
102
RTVSPost2010Prop54
  1
strokes_ogs.tif
102
RTVSPost2010PropOp54
 70
     1
102
RTVSPost2010Prop55
280
     0
102
RTVSPost2010PropOp55
 70
     1
102
RTVSPost2010Prop56
140
1.0
102
RTVSPost2010PropOp56
 70
     1
102
RTVSPost2010Prop57
140
1.0
102
RTVSPost2010PropOp57
 70
     1
  0
XRECORD
  5
44B99
102
{ACAD_REACTORS
330
44B98
102
}
330
44B98
100
AcDbXrecord
280
     1
102
RTVSPost2010Prop28
280
     0
102
RTVSPost2010PropOp28
 70
     1
102
RTVSPost2010Prop29
280
     1
102
RTVSPost2010PropOp29
 70
     1
102
RTVSPost2010Prop30
280
     1
102
RTVSPost2010PropOp30
 70
     1
102
RTVSPost2010Prop31
280
     0
102
RTVSPost2010PropOp31
 70
     1
102
RTVSPost2010Prop32
280
     0
102
RTVSPost2010PropOp32
 70
     1
102
RTVSPost2010Prop33
280
     0
102
RTVSPost2010PropOp33
 70
     1
102
RTVSPost2010Prop34
280
     0
102
RTVSPost2010PropOp34
 70
     1
102
RTVSPost2010Prop35
280
     0
102
RTVSPost2010PropOp35
 70
     1
102
RTVSPost2010Prop36
280
     0
102
RTVSPost2010PropOp36
 70
     1
102
RTVSPost2010Prop37
 90
       50
102
RTVSPost2010PropOp37
 70
     1
102
RTVSPost2010Prop38
140
0.0
102
RTVSPost2010PropOp38
 70
     1
102
RTVSPost2010Prop39
140
1.0
102
RTVSPost2010PropOp39
 70
     1
102
RTVSPost2010Prop40
 90
        0
102
RTVSPost2010PropOp40
 70
     1
102
RTVSPost2010Prop41ColorIndex
 90
       18
102
RTVSPost2010Prop41ColorRGB
 90
        0
102
RTVSPost2010PropOp41
 70
     1
102
RTVSPost2010Prop42
 90
       50
102
RTVSPost2010PropOp42
 70
     1
102
RTVSPost2010Prop43
 90
        3
102
RTVSPost2010PropOp43
 70
     1
102
RTVSPost2010Prop44ColorIndex
 90
        5
102
RTVSPost2010Prop44ColorRGB
 90
      255
102
RTVSPost2010PropOp44
 70
     1
102
RTVSPost2010Prop45
280
     0
102
RTVSPost2010PropOp45
 70
     1
102
RTVSPost2010Prop46
 90
       50
102
RTVSPost2010PropOp46
 70
     1
102
RTVSPost2010Prop47
 90
       50
102
RTVSPost2010PropOp47
 70
     1
102
RTVSPost2010Prop48
 90
       50
102
RTVSPost2010PropOp48
 70
     1
102
RTVSPost2010Prop49
280
     0
102
RTVSPost2010PropOp49
 70
     1
102
RTVSPost2010Prop50
 90
       50
102
RTVSPost2010PropOp50
 70
     1
102
RTVSPost2010Prop51ColorIndex
 90
      256
102
RTVSPost2010Prop51ColorRGB
 90
-16777216
102
RTVSPost2010PropOp51
 70
     0
102
RTVSPost2010Prop52
140
1.0
102
RTVSPost2010PropOp52
 70
     0
102
RTVSPost2010Prop53
 90
        2
102
RTVSPost2010PropOp53
 70
     1
102
RTVSPost2010Prop54
  1
strokes_ogs.tif
102
RTVSPost2010PropOp54
 70
     1
102
RTVSPost2010Prop55
280
     0
102
RTVSPost2010PropOp55
 70
     1
102
RTVSPost2010Prop56
140
1.0
102
RTVSPost2010PropOp56
 70
     1
102
RTVSPost2010Prop57
140
1.0
102
RTVSPost2010PropOp57
 70
     1
  0
XRECORD
  5
44B9D
102
{ACAD_REACTORS
330
44B9C
102
}
330
44B9C
100
AcDbXrecord
280
     1
102
RTVSPost2010Prop28
280
     0
102
RTVSPost2010PropOp28
 70
     1
102
RTVSPost2010Prop29
280
     1
102
RTVSPost2010PropOp29
 70
     1
102
RTVSPost2010Prop30
280
     1
102
RTVSPost2010PropOp30
 70
     1
102
RTVSPost2010Prop31
280
     0
102
RTVSPost2010PropOp31
 70
     1
102
RTVSPost2010Prop32
280
     0
102
RTVSPost2010PropOp32
 70
     1
102
RTVSPost2010Prop33
280
     0
102
RTVSPost2010PropOp33
 70
     1
102
RTVSPost2010Prop34
280
     0
102
RTVSPost2010PropOp34
 70
     1
102
RTVSPost2010Prop35
280
     0
102
RTVSPost2010PropOp35
 70
     1
102
RTVSPost2010Prop36
280
     0
102
RTVSPost2010PropOp36
 70
     1
102
RTVSPost2010Prop37
 90
       50
102
RTVSPost2010PropOp37
 70
     1
102
RTVSPost2010Prop38
140
0.0
102
RTVSPost2010PropOp38
 70
     1
102
RTVSPost2010Prop39
140
1.0
102
RTVSPost2010PropOp39
 70
     1
102
RTVSPost2010Prop40
 90
        0
102
RTVSPost2010PropOp40
 70
     1
102
RTVSPost2010Prop41ColorIndex
 90
       18
102
RTVSPost2010Prop41ColorRGB
 90
        0
102
RTVSPost2010PropOp41
 70
     1
102
RTVSPost2010Prop42
 90
       50
102
RTVSPost2010PropOp42
 70
     1
102
RTVSPost2010Prop43
 90
        3
102
RTVSPost2010PropOp43
 70
     1
102
RTVSPost2010Prop44ColorIndex
 90
        5
102
RTVSPost2010Prop44ColorRGB
 90
      255
102
RTVSPost2010PropOp44
 70
     1
102
RTVSPost2010Prop45
280
     0
102
RTVSPost2010PropOp45
 70
     1
102
RTVSPost2010Prop46
 90
       50
102
RTVSPost2010PropOp46
 70
     1
102
RTVSPost2010Prop47
 90
       50
102
RTVSPost2010PropOp47
 70
     1
102
RTVSPost2010Prop48
 90
       50
102
RTVSPost2010PropOp48
 70
     1
102
RTVSPost2010Prop49
280
     0
102
RTVSPost2010PropOp49
 70
     1
102
RTVSPost2010Prop50
 90
       50
102
RTVSPost2010PropOp50
 70
     1
102
RTVSPost2010Prop51ColorIndex
 90
      256
102
RTVSPost2010Prop51ColorRGB
 90
-16777216
102
RTVSPost2010PropOp51
 70
     0
102
RTVSPost2010Prop52
140
1.0
102
RTVSPost2010PropOp52
 70
     0
102
RTVSPost2010Prop53
 90
        2
102
RTVSPost2010PropOp53
 70
     1
102
RTVSPost2010Prop54
  1
strokes_ogs.tif
102
RTVSPost2010PropOp54
 70
     1
102
RTVSPost2010Prop55
280
     0
102
RTVSPost2010PropOp55
 70
     1
102
RTVSPost2010Prop56
140
1.0
102
RTVSPost2010PropOp56
 70
     1
102
RTVSPost2010Prop57
140
1.0
102
RTVSPost2010PropOp57
 70
     1
  0
XRECORD
  5
44BAD
102
{ACAD_REACTORS
330
44BAC
102
}
330
44BAC
100
AcDbXrecord
280
     1
102
RTVSPost2010Prop28
280
     0
102
RTVSPost2010PropOp28
 70
     1
102
RTVSPost2010Prop29
280
     1
102
RTVSPost2010PropOp29
 70
     1
102
RTVSPost2010Prop30
280
     1
102
RTVSPost2010PropOp30
 70
     1
102
RTVSPost2010Prop31
280
     0
102
RTVSPost2010PropOp31
 70
     1
102
RTVSPost2010Prop32
280
     0
102
RTVSPost2010PropOp32
 70
     1
102
RTVSPost2010Prop33
280
     0
102
RTVSPost2010PropOp33
 70
     1
102
RTVSPost2010Prop34
280
     0
102
RTVSPost2010PropOp34
 70
     1
102
RTVSPost2010Prop35
280
     0
102
RTVSPost2010PropOp35
 70
     1
102
RTVSPost2010Prop36
280
     0
102
RTVSPost2010PropOp36
 70
     1
102
RTVSPost2010Prop37
 90
       50
102
RTVSPost2010PropOp37
 70
     1
102
RTVSPost2010Prop38
140
0.0
102
RTVSPost2010PropOp38
 70
     1
102
RTVSPost2010Prop39
140
1.0
102
RTVSPost2010PropOp39
 70
     1
102
RTVSPost2010Prop40
 90
        0
102
RTVSPost2010PropOp40
 70
     1
102
RTVSPost2010Prop41ColorIndex
 90
       18
102
RTVSPost2010Prop41ColorRGB
 90
        0
102
RTVSPost2010PropOp41
 70
     1
102
RTVSPost2010Prop42
 90
       50
102
RTVSPost2010PropOp42
 70
     1
102
RTVSPost2010Prop43
 90
        3
102
RTVSPost2010PropOp43
 70
     1
102
RTVSPost2010Prop44ColorIndex
 90
        5
102
RTVSPost2010Prop44ColorRGB
 90
      255
102
RTVSPost2010PropOp44
 70
     1
102
RTVSPost2010Prop45
280
     0
102
RTVSPost2010PropOp45
 70
     1
102
RTVSPost2010Prop46
 90
       50
102
RTVSPost2010PropOp46
 70
     1
102
RTVSPost2010Prop47
 90
       50
102
RTVSPost2010PropOp47
 70
     1
102
RTVSPost2010Prop48
 90
       50
102
RTVSPost2010PropOp48
 70
     1
102
RTVSPost2010Prop49
280
     0
102
RTVSPost2010PropOp49
 70
     1
102
RTVSPost2010Prop50
 90
       50
102
RTVSPost2010PropOp50
 70
     1
102
RTVSPost2010Prop51ColorIndex
 90
      256
102
RTVSPost2010Prop51ColorRGB
 90
-16777216
102
RTVSPost2010PropOp51
 70
     0
102
RTVSPost2010Prop52
140
1.0
102
RTVSPost2010PropOp52
 70
     0
102
RTVSPost2010Prop53
 90
        2
102
RTVSPost2010PropOp53
 70
     1
102
RTVSPost2010Prop54
  1
strokes_ogs.tif
102
RTVSPost2010PropOp54
 70
     1
102
RTVSPost2010Prop55
280
     0
102
RTVSPost2010PropOp55
 70
     1
102
RTVSPost2010Prop56
140
1.0
102
RTVSPost2010PropOp56
 70
     1
102
RTVSPost2010Prop57
140
1.0
102
RTVSPost2010PropOp57
 70
     1
  0
XRECORD
  5
44BA5
102
{ACAD_REACTORS
330
44BA4
102
}
330
44BA4
100
AcDbXrecord
280
     1
102
RTVSPost2010Prop28
280
     0
102
RTVSPost2010PropOp28
 70
     1
102
RTVSPost2010Prop29
280
     1
102
RTVSPost2010PropOp29
 70
     1
102
RTVSPost2010Prop30
280
     1
102
RTVSPost2010PropOp30
 70
     1
102
RTVSPost2010Prop31
280
     0
102
RTVSPost2010PropOp31
 70
     1
102
RTVSPost2010Prop32
280
     0
102
RTVSPost2010PropOp32
 70
     1
102
RTVSPost2010Prop33
280
     0
102
RTVSPost2010PropOp33
 70
     1
102
RTVSPost2010Prop34
280
     0
102
RTVSPost2010PropOp34
 70
     1
102
RTVSPost2010Prop35
280
     0
102
RTVSPost2010PropOp35
 70
     1
102
RTVSPost2010Prop36
280
     0
102
RTVSPost2010PropOp36
 70
     1
102
RTVSPost2010Prop37
 90
       50
102
RTVSPost2010PropOp37
 70
     1
102
RTVSPost2010Prop38
140
0.0
102
RTVSPost2010PropOp38
 70
     1
102
RTVSPost2010Prop39
140
1.0
102
RTVSPost2010PropOp39
 70
     1
102
RTVSPost2010Prop40
 90
        0
102
RTVSPost2010PropOp40
 70
     1
102
RTVSPost2010Prop41ColorIndex
 90
       18
102
RTVSPost2010Prop41ColorRGB
 90
        0
102
RTVSPost2010PropOp41
 70
     1
102
RTVSPost2010Prop42
 90
       50
102
RTVSPost2010PropOp42
 70
     1
102
RTVSPost2010Prop43
 90
        3
102
RTVSPost2010PropOp43
 70
     1
102
RTVSPost2010Prop44ColorIndex
 90
        5
102
RTVSPost2010Prop44ColorRGB
 90
      255
102
RTVSPost2010PropOp44
 70
     1
102
RTVSPost2010Prop45
280
     0
102
RTVSPost2010PropOp45
 70
     1
102
RTVSPost2010Prop46
 90
       50
102
RTVSPost2010PropOp46
 70
     1
102
RTVSPost2010Prop47
 90
       50
102
RTVSPost2010PropOp47
 70
     1
102
RTVSPost2010Prop48
 90
       50
102
RTVSPost2010PropOp48
 70
     1
102
RTVSPost2010Prop49
280
     0
102
RTVSPost2010PropOp49
 70
     1
102
RTVSPost2010Prop50
 90
       50
102
RTVSPost2010PropOp50
 70
     1
102
RTVSPost2010Prop51ColorIndex
 90
      256
102
RTVSPost2010Prop51ColorRGB
 90
-16777216
102
RTVSPost2010PropOp51
 70
     0
102
RTVSPost2010Prop52
140
1.0
102
RTVSPost2010PropOp52
 70
     0
102
RTVSPost2010Prop53
 90
        2
102
RTVSPost2010PropOp53
 70
     1
102
RTVSPost2010Prop54
  1
strokes_ogs.tif
102
RTVSPost2010PropOp54
 70
     1
102
RTVSPost2010Prop55
280
     0
102
RTVSPost2010PropOp55
 70
     1
102
RTVSPost2010Prop56
140
1.0
102
RTVSPost2010PropOp56
 70
     1
102
RTVSPost2010Prop57
140
1.0
102
RTVSPost2010PropOp57
 70
     1
  0
XRECORD
  5
44B89
102
{ACAD_REACTORS
330
44B88
102
}
330
44B88
100
AcDbXrecord
280
     1
102
RTVSPost2010Prop28
280
     0
102
RTVSPost2010PropOp28
 70
     1
102
RTVSPost2010Prop29
280
     1
102
RTVSPost2010PropOp29
 70
     1
102
RTVSPost2010Prop30
280
     1
102
RTVSPost2010PropOp30
 70
     1
102
RTVSPost2010Prop31
280
     0
102
RTVSPost2010PropOp31
 70
     1
102
RTVSPost2010Prop32
280
     0
102
RTVSPost2010PropOp32
 70
     1
102
RTVSPost2010Prop33
280
     0
102
RTVSPost2010PropOp33
 70
     1
102
RTVSPost2010Prop34
280
     0
102
RTVSPost2010PropOp34
 70
     1
102
RTVSPost2010Prop35
280
     0
102
RTVSPost2010PropOp35
 70
     1
102
RTVSPost2010Prop36
280
     0
102
RTVSPost2010PropOp36
 70
     1
102
RTVSPost2010Prop37
 90
       50
102
RTVSPost2010PropOp37
 70
     1
102
RTVSPost2010Prop38
140
0.0
102
RTVSPost2010PropOp38
 70
     1
102
RTVSPost2010Prop39
140
1.0
102
RTVSPost2010PropOp39
 70
     1
102
RTVSPost2010Prop40
 90
        0
102
RTVSPost2010PropOp40
 70
     1
102
RTVSPost2010Prop41ColorIndex
 90
       18
102
RTVSPost2010Prop41ColorRGB
 90
        0
102
RTVSPost2010PropOp41
 70
     1
102
RTVSPost2010Prop42
 90
       50
102
RTVSPost2010PropOp42
 70
     1
102
RTVSPost2010Prop43
 90
        3
102
RTVSPost2010PropOp43
 70
     1
102
RTVSPost2010Prop44ColorIndex
 90
        5
102
RTVSPost2010Prop44ColorRGB
 90
      255
102
RTVSPost2010PropOp44
 70
     1
102
RTVSPost2010Prop45
280
     0
102
RTVSPost2010PropOp45
 70
     1
102
RTVSPost2010Prop46
 90
       50
102
RTVSPost2010PropOp46
 70
     1
102
RTVSPost2010Prop47
 90
       50
102
RTVSPost2010PropOp47
 70
     1
102
RTVSPost2010Prop48
 90
       50
102
RTVSPost2010PropOp48
 70
     1
102
RTVSPost2010Prop49
280
     0
102
RTVSPost2010PropOp49
 70
     1
102
RTVSPost2010Prop50
 90
       50
102
RTVSPost2010PropOp50
 70
     1
102
RTVSPost2010Prop51ColorIndex
 90
      256
102
RTVSPost2010Prop51ColorRGB
 90
-16777216
102
RTVSPost2010PropOp51
 70
     0
102
RTVSPost2010Prop52
140
1.0
102
RTVSPost2010PropOp52
 70
     0
102
RTVSPost2010Prop53
 90
        2
102
RTVSPost2010PropOp53
 70
     1
102
RTVSPost2010Prop54
  1
strokes_ogs.tif
102
RTVSPost2010PropOp54
 70
     1
102
RTVSPost2010Prop55
280
     0
102
RTVSPost2010PropOp55
 70
     1
102
RTVSPost2010Prop56
140
1.0
102
RTVSPost2010PropOp56
 70
     1
102
RTVSPost2010Prop57
140
1.0
102
RTVSPost2010PropOp57
 70
     1
  0
XRECORD
  5
44B8B
102
{ACAD_REACTORS
330
44B8A
102
}
330
44B8A
100
AcDbXrecord
280
     1
102
RTVSPost2010Prop28
280
     0
102
RTVSPost2010PropOp28
 70
     1
102
RTVSPost2010Prop29
280
     1
102
RTVSPost2010PropOp29
 70
     1
102
RTVSPost2010Prop30
280
     1
102
RTVSPost2010PropOp30
 70
     1
102
RTVSPost2010Prop31
280
     0
102
RTVSPost2010PropOp31
 70
     1
102
RTVSPost2010Prop32
280
     0
102
RTVSPost2010PropOp32
 70
     1
102
RTVSPost2010Prop33
280
     0
102
RTVSPost2010PropOp33
 70
     1
102
RTVSPost2010Prop34
280
     0
102
RTVSPost2010PropOp34
 70
     1
102
RTVSPost2010Prop35
280
     0
102
RTVSPost2010PropOp35
 70
     1
102
RTVSPost2010Prop36
280
     0
102
RTVSPost2010PropOp36
 70
     1
102
RTVSPost2010Prop37
 90
       50
102
RTVSPost2010PropOp37
 70
     1
102
RTVSPost2010Prop38
140
0.0
102
RTVSPost2010PropOp38
 70
     1
102
RTVSPost2010Prop39
140
1.0
102
RTVSPost2010PropOp39
 70
     1
102
RTVSPost2010Prop40
 90
        0
102
RTVSPost2010PropOp40
 70
     1
102
RTVSPost2010Prop41ColorIndex
 90
       18
102
RTVSPost2010Prop41ColorRGB
 90
        0
102
RTVSPost2010PropOp41
 70
     1
102
RTVSPost2010Prop42
 90
       50
102
RTVSPost2010PropOp42
 70
     1
102
RTVSPost2010Prop43
 90
        3
102
RTVSPost2010PropOp43
 70
     1
102
RTVSPost2010Prop44ColorIndex
 90
        5
102
RTVSPost2010Prop44ColorRGB
 90
      255
102
RTVSPost2010PropOp44
 70
     1
102
RTVSPost2010Prop45
280
     0
102
RTVSPost2010PropOp45
 70
     1
102
RTVSPost2010Prop46
 90
       50
102
RTVSPost2010PropOp46
 70
     1
102
RTVSPost2010Prop47
 90
       50
102
RTVSPost2010PropOp47
 70
     1
102
RTVSPost2010Prop48
 90
       50
102
RTVSPost2010PropOp48
 70
     1
102
RTVSPost2010Prop49
280
     0
102
RTVSPost2010PropOp49
 70
     1
102
RTVSPost2010Prop50
 90
       50
102
RTVSPost2010PropOp50
 70
     1
102
RTVSPost2010Prop51ColorIndex
 90
      256
102
RTVSPost2010Prop51ColorRGB
 90
-16777216
102
RTVSPost2010PropOp51
 70
     0
102
RTVSPost2010Prop52
140
1.0
102
RTVSPost2010PropOp52
 70
     0
102
RTVSPost2010Prop53
 90
        2
102
RTVSPost2010PropOp53
 70
     1
102
RTVSPost2010Prop54
  1
strokes_ogs.tif
102
RTVSPost2010PropOp54
 70
     1
102
RTVSPost2010Prop55
280
     0
102
RTVSPost2010PropOp55
 70
     1
102
RTVSPost2010Prop56
140
1.0
102
RTVSPost2010PropOp56
 70
     1
102
RTVSPost2010Prop57
140
1.0
102
RTVSPost2010PropOp57
 70
     1
  0
XRECORD
  5
44B8D
102
{ACAD_REACTORS
330
44B8C
102
}
330
44B8C
100
AcDbXrecord
280
     1
102
RTVSPost2010Prop28
280
     0
102
RTVSPost2010PropOp28
 70
     1
102
RTVSPost2010Prop29
280
     1
102
RTVSPost2010PropOp29
 70
     1
102
RTVSPost2010Prop30
280
     1
102
RTVSPost2010PropOp30
 70
     1
102
RTVSPost2010Prop31
280
     0
102
RTVSPost2010PropOp31
 70
     1
102
RTVSPost2010Prop32
280
     0
102
RTVSPost2010PropOp32
 70
     1
102
RTVSPost2010Prop33
280
     0
102
RTVSPost2010PropOp33
 70
     1
102
RTVSPost2010Prop34
280
     0
102
RTVSPost2010PropOp34
 70
     1
102
RTVSPost2010Prop35
280
     0
102
RTVSPost2010PropOp35
 70
     1
102
RTVSPost2010Prop36
280
     0
102
RTVSPost2010PropOp36
 70
     1
102
RTVSPost2010Prop37
 90
       50
102
RTVSPost2010PropOp37
 70
     1
102
RTVSPost2010Prop38
140
0.0
102
RTVSPost2010PropOp38
 70
     1
102
RTVSPost2010Prop39
140
1.0
102
RTVSPost2010PropOp39
 70
     1
102
RTVSPost2010Prop40
 90
        0
102
RTVSPost2010PropOp40
 70
     1
102
RTVSPost2010Prop41ColorIndex
 90
       18
102
RTVSPost2010Prop41ColorRGB
 90
        0
102
RTVSPost2010PropOp41
 70
     1
102
RTVSPost2010Prop42
 90
       50
102
RTVSPost2010PropOp42
 70
     1
102
RTVSPost2010Prop43
 90
        3
102
RTVSPost2010PropOp43
 70
     1
102
RTVSPost2010Prop44ColorIndex
 90
        5
102
RTVSPost2010Prop44ColorRGB
 90
      255
102
RTVSPost2010PropOp44
 70
     1
102
RTVSPost2010Prop45
280
     0
102
RTVSPost2010PropOp45
 70
     1
102
RTVSPost2010Prop46
 90
       50
102
RTVSPost2010PropOp46
 70
     1
102
RTVSPost2010Prop47
 90
       50
102
RTVSPost2010PropOp47
 70
     1
102
RTVSPost2010Prop48
 90
       50
102
RTVSPost2010PropOp48
 70
     1
102
RTVSPost2010Prop49
280
     0
102
RTVSPost2010PropOp49
 70
     1
102
RTVSPost2010Prop50
 90
       50
102
RTVSPost2010PropOp50
 70
     1
102
RTVSPost2010Prop51ColorIndex
 90
      256
102
RTVSPost2010Prop51ColorRGB
 90
-16777216
102
RTVSPost2010PropOp51
 70
     0
102
RTVSPost2010Prop52
140
1.0
102
RTVSPost2010PropOp52
 70
     0
102
RTVSPost2010Prop53
 90
        2
102
RTVSPost2010PropOp53
 70
     1
102
RTVSPost2010Prop54
  1
strokes_ogs.tif
102
RTVSPost2010PropOp54
 70
     1
102
RTVSPost2010Prop55
280
     0
102
RTVSPost2010PropOp55
 70
     1
102
RTVSPost2010Prop56
140
1.0
102
RTVSPost2010PropOp56
 70
     1
102
RTVSPost2010Prop57
140
1.0
102
RTVSPost2010PropOp57
 70
     1
  0
XRECORD
  5
44B8F
102
{ACAD_REACTORS
330
44B8E
102
}
330
44B8E
100
AcDbXrecord
280
     1
102
RTVSPost2010Prop28
280
     0
102
RTVSPost2010PropOp28
 70
     1
102
RTVSPost2010Prop29
280
     1
102
RTVSPost2010PropOp29
 70
     1
102
RTVSPost2010Prop30
280
     1
102
RTVSPost2010PropOp30
 70
     1
102
RTVSPost2010Prop31
280
     0
102
RTVSPost2010PropOp31
 70
     1
102
RTVSPost2010Prop32
280
     0
102
RTVSPost2010PropOp32
 70
     1
102
RTVSPost2010Prop33
280
     0
102
RTVSPost2010PropOp33
 70
     1
102
RTVSPost2010Prop34
280
     0
102
RTVSPost2010PropOp34
 70
     1
102
RTVSPost2010Prop35
280
     0
102
RTVSPost2010PropOp35
 70
     1
102
RTVSPost2010Prop36
280
     0
102
RTVSPost2010PropOp36
 70
     1
102
RTVSPost2010Prop37
 90
       50
102
RTVSPost2010PropOp37
 70
     1
102
RTVSPost2010Prop38
140
0.0
102
RTVSPost2010PropOp38
 70
     1
102
RTVSPost2010Prop39
140
1.0
102
RTVSPost2010PropOp39
 70
     1
102
RTVSPost2010Prop40
 90
        0
102
RTVSPost2010PropOp40
 70
     1
102
RTVSPost2010Prop41ColorIndex
 90
       18
102
RTVSPost2010Prop41ColorRGB
 90
        0
102
RTVSPost2010PropOp41
 70
     1
102
RTVSPost2010Prop42
 90
       50
102
RTVSPost2010PropOp42
 70
     1
102
RTVSPost2010Prop43
 90
        3
102
RTVSPost2010PropOp43
 70
     1
102
RTVSPost2010Prop44ColorIndex
 90
        5
102
RTVSPost2010Prop44ColorRGB
 90
      255
102
RTVSPost2010PropOp44
 70
     1
102
RTVSPost2010Prop45
280
     0
102
RTVSPost2010PropOp45
 70
     1
102
RTVSPost2010Prop46
 90
       50
102
RTVSPost2010PropOp46
 70
     1
102
RTVSPost2010Prop47
 90
       50
102
RTVSPost2010PropOp47
 70
     1
102
RTVSPost2010Prop48
 90
       50
102
RTVSPost2010PropOp48
 70
     1
102
RTVSPost2010Prop49
280
     0
102
RTVSPost2010PropOp49
 70
     1
102
RTVSPost2010Prop50
 90
       50
102
RTVSPost2010PropOp50
 70
     1
102
RTVSPost2010Prop51ColorIndex
 90
      256
102
RTVSPost2010Prop51ColorRGB
 90
-16777216
102
RTVSPost2010PropOp51
 70
     0
102
RTVSPost2010Prop52
140
1.0
102
RTVSPost2010PropOp52
 70
     0
102
RTVSPost2010Prop53
 90
        2
102
RTVSPost2010PropOp53
 70
     1
102
RTVSPost2010Prop54
  1
strokes_ogs.tif
102
RTVSPost2010PropOp54
 70
     1
102
RTVSPost2010Prop55
280
     0
102
RTVSPost2010PropOp55
 70
     1
102
RTVSPost2010Prop56
140
1.0
102
RTVSPost2010PropOp56
 70
     1
102
RTVSPost2010Prop57
140
1.0
102
RTVSPost2010PropOp57
 70
     1
  0
XRECORD
  5
44BB1
102
{ACAD_REACTORS
330
44BB0
102
}
330
44BB0
100
AcDbXrecord
280
     1
102
RTVSPost2010Prop28
280
     0
102
RTVSPost2010PropOp28
 70
     1
102
RTVSPost2010Prop29
280
     1
102
RTVSPost2010PropOp29
 70
     1
102
RTVSPost2010Prop30
280
     1
102
RTVSPost2010PropOp30
 70
     1
102
RTVSPost2010Prop31
280
     0
102
RTVSPost2010PropOp31
 70
     1
102
RTVSPost2010Prop32
280
     0
102
RTVSPost2010PropOp32
 70
     1
102
RTVSPost2010Prop33
280
     0
102
RTVSPost2010PropOp33
 70
     1
102
RTVSPost2010Prop34
280
     0
102
RTVSPost2010PropOp34
 70
     1
102
RTVSPost2010Prop35
280
     0
102
RTVSPost2010PropOp35
 70
     1
102
RTVSPost2010Prop36
280
     0
102
RTVSPost2010PropOp36
 70
     1
102
RTVSPost2010Prop37
 90
       50
102
RTVSPost2010PropOp37
 70
     1
102
RTVSPost2010Prop38
140
0.0
102
RTVSPost2010PropOp38
 70
     1
102
RTVSPost2010Prop39
140
1.0
102
RTVSPost2010PropOp39
 70
     1
102
RTVSPost2010Prop40
 90
        0
102
RTVSPost2010PropOp40
 70
     1
102
RTVSPost2010Prop41ColorIndex
 90
       18
102
RTVSPost2010Prop41ColorRGB
 90
        0
102
RTVSPost2010PropOp41
 70
     1
102
RTVSPost2010Prop42
 90
       50
102
RTVSPost2010PropOp42
 70
     1
102
RTVSPost2010Prop43
 90
        3
102
RTVSPost2010PropOp43
 70
     1
102
RTVSPost2010Prop44ColorIndex
 90
        5
102
RTVSPost2010Prop44ColorRGB
 90
      255
102
RTVSPost2010PropOp44
 70
     1
102
RTVSPost2010Prop45
280
     0
102
RTVSPost2010PropOp45
 70
     1
102
RTVSPost2010Prop46
 90
       50
102
RTVSPost2010PropOp46
 70
     1
102
RTVSPost2010Prop47
 90
       50
102
RTVSPost2010PropOp47
 70
     1
102
RTVSPost2010Prop48
 90
       50
102
RTVSPost2010PropOp48
 70
     1
102
RTVSPost2010Prop49
280
     0
102
RTVSPost2010PropOp49
 70
     1
102
RTVSPost2010Prop50
 90
       50
102
RTVSPost2010PropOp50
 70
     1
102
RTVSPost2010Prop51ColorIndex
 90
      256
102
RTVSPost2010Prop51ColorRGB
 90
-16777216
102
RTVSPost2010PropOp51
 70
     0
102
RTVSPost2010Prop52
140
1.0
102
RTVSPost2010PropOp52
 70
     0
102
RTVSPost2010Prop53
 90
        2
102
RTVSPost2010PropOp53
 70
     1
102
RTVSPost2010Prop54
  1
strokes_ogs.tif
102
RTVSPost2010PropOp54
 70
     1
102
RTVSPost2010Prop55
280
     0
102
RTVSPost2010PropOp55
 70
     1
102
RTVSPost2010Prop56
140
1.0
102
RTVSPost2010PropOp56
 70
     1
102
RTVSPost2010Prop57
140
1.0
102
RTVSPost2010PropOp57
 70
     1
  0
XRECORD
  5
44BA9
102
{ACAD_REACTORS
330
44BA8
102
}
330
44BA8
100
AcDbXrecord
280
     1
102
RTVSPost2010Prop28
280
     0
102
RTVSPost2010PropOp28
 70
     1
102
RTVSPost2010Prop29
280
     1
102
RTVSPost2010PropOp29
 70
     1
102
RTVSPost2010Prop30
280
     1
102
RTVSPost2010PropOp30
 70
     1
102
RTVSPost2010Prop31
280
     0
102
RTVSPost2010PropOp31
 70
     1
102
RTVSPost2010Prop32
280
     0
102
RTVSPost2010PropOp32
 70
     1
102
RTVSPost2010Prop33
280
     0
102
RTVSPost2010PropOp33
 70
     1
102
RTVSPost2010Prop34
280
     0
102
RTVSPost2010PropOp34
 70
     1
102
RTVSPost2010Prop35
280
     0
102
RTVSPost2010PropOp35
 70
     1
102
RTVSPost2010Prop36
280
     0
102
RTVSPost2010PropOp36
 70
     1
102
RTVSPost2010Prop37
 90
       50
102
RTVSPost2010PropOp37
 70
     1
102
RTVSPost2010Prop38
140
0.0
102
RTVSPost2010PropOp38
 70
     1
102
RTVSPost2010Prop39
140
1.0
102
RTVSPost2010PropOp39
 70
     1
102
RTVSPost2010Prop40
 90
        0
102
RTVSPost2010PropOp40
 70
     1
102
RTVSPost2010Prop41ColorIndex
 90
       18
102
RTVSPost2010Prop41ColorRGB
 90
        0
102
RTVSPost2010PropOp41
 70
     1
102
RTVSPost2010Prop42
 90
       50
102
RTVSPost2010PropOp42
 70
     1
102
RTVSPost2010Prop43
 90
        3
102
RTVSPost2010PropOp43
 70
     1
102
RTVSPost2010Prop44ColorIndex
 90
        5
102
RTVSPost2010Prop44ColorRGB
 90
      255
102
RTVSPost2010PropOp44
 70
     1
102
RTVSPost2010Prop45
280
     0
102
RTVSPost2010PropOp45
 70
     1
102
RTVSPost2010Prop46
 90
       50
102
RTVSPost2010PropOp46
 70
     1
102
RTVSPost2010Prop47
 90
       50
102
RTVSPost2010PropOp47
 70
     1
102
RTVSPost2010Prop48
 90
       50
102
RTVSPost2010PropOp48
 70
     1
102
RTVSPost2010Prop49
280
     0
102
RTVSPost2010PropOp49
 70
     1
102
RTVSPost2010Prop50
 90
       50
102
RTVSPost2010PropOp50
 70
     1
102
RTVSPost2010Prop51ColorIndex
 90
      256
102
RTVSPost2010Prop51ColorRGB
 90
-16777216
102
RTVSPost2010PropOp51
 70
     0
102
RTVSPost2010Prop52
140
1.0
102
RTVSPost2010PropOp52
 70
     0
102
RTVSPost2010Prop53
 90
        2
102
RTVSPost2010PropOp53
 70
     1
102
RTVSPost2010Prop54
  1
strokes_ogs.tif
102
RTVSPost2010PropOp54
 70
     1
102
RTVSPost2010Prop55
280
     0
102
RTVSPost2010PropOp55
 70
     1
102
RTVSPost2010Prop56
140
1.0
102
RTVSPost2010PropOp56
 70
     1
102
RTVSPost2010Prop57
140
1.0
102
RTVSPost2010PropOp57
 70
     1
  0
XRECORD
  5
44BA3
102
{ACAD_REACTORS
330
44BA2
102
}
330
44BA2
100
AcDbXrecord
280
     1
102
RTVSPost2010Prop28
280
     0
102
RTVSPost2010PropOp28
 70
     1
102
RTVSPost2010Prop29
280
     1
102
RTVSPost2010PropOp29
 70
     1
102
RTVSPost2010Prop30
280
     1
102
RTVSPost2010PropOp30
 70
     1
102
RTVSPost2010Prop31
280
     0
102
RTVSPost2010PropOp31
 70
     1
102
RTVSPost2010Prop32
280
     0
102
RTVSPost2010PropOp32
 70
     1
102
RTVSPost2010Prop33
280
     0
102
RTVSPost2010PropOp33
 70
     1
102
RTVSPost2010Prop34
280
     0
102
RTVSPost2010PropOp34
 70
     1
102
RTVSPost2010Prop35
280
     0
102
RTVSPost2010PropOp35
 70
     1
102
RTVSPost2010Prop36
280
     0
102
RTVSPost2010PropOp36
 70
     1
102
RTVSPost2010Prop37
 90
       50
102
RTVSPost2010PropOp37
 70
     1
102
RTVSPost2010Prop38
140
0.0
102
RTVSPost2010PropOp38
 70
     1
102
RTVSPost2010Prop39
140
1.0
102
RTVSPost2010PropOp39
 70
     1
102
RTVSPost2010Prop40
 90
        0
102
RTVSPost2010PropOp40
 70
     1
102
RTVSPost2010Prop41ColorIndex
 90
       18
102
RTVSPost2010Prop41ColorRGB
 90
        0
102
RTVSPost2010PropOp41
 70
     1
102
RTVSPost2010Prop42
 90
       50
102
RTVSPost2010PropOp42
 70
     1
102
RTVSPost2010Prop43
 90
        3
102
RTVSPost2010PropOp43
 70
     1
102
RTVSPost2010Prop44ColorIndex
 90
        5
102
RTVSPost2010Prop44ColorRGB
 90
      255
102
RTVSPost2010PropOp44
 70
     1
102
RTVSPost2010Prop45
280
     0
102
RTVSPost2010PropOp45
 70
     1
102
RTVSPost2010Prop46
 90
       50
102
RTVSPost2010PropOp46
 70
     1
102
RTVSPost2010Prop47
 90
       50
102
RTVSPost2010PropOp47
 70
     1
102
RTVSPost2010Prop48
 90
       50
102
RTVSPost2010PropOp48
 70
     1
102
RTVSPost2010Prop49
280
     0
102
RTVSPost2010PropOp49
 70
     1
102
RTVSPost2010Prop50
 90
       50
102
RTVSPost2010PropOp50
 70
     1
102
RTVSPost2010Prop51ColorIndex
 90
      256
102
RTVSPost2010Prop51ColorRGB
 90
-16777216
102
RTVSPost2010PropOp51
 70
     0
102
RTVSPost2010Prop52
140
1.0
102
RTVSPost2010PropOp52
 70
     0
102
RTVSPost2010Prop53
 90
        2
102
RTVSPost2010PropOp53
 70
     1
102
RTVSPost2010Prop54
  1
strokes_ogs.tif
102
RTVSPost2010PropOp54
 70
     1
102
RTVSPost2010Prop55
280
     0
102
RTVSPost2010PropOp55
 70
     1
102
RTVSPost2010Prop56
140
1.0
102
RTVSPost2010PropOp56
 70
     1
102
RTVSPost2010Prop57
140
1.0
102
RTVSPost2010PropOp57
 70
     1
  0
XRECORD
  5
44BAB
102
{ACAD_REACTORS
330
44BAA
102
}
330
44BAA
100
AcDbXrecord
280
     1
102
RTVSPost2010Prop28
280
     0
102
RTVSPost2010PropOp28
 70
     1
102
RTVSPost2010Prop29
280
     1
102
RTVSPost2010PropOp29
 70
     1
102
RTVSPost2010Prop30
280
     1
102
RTVSPost2010PropOp30
 70
     1
102
RTVSPost2010Prop31
280
     0
102
RTVSPost2010PropOp31
 70
     1
102
RTVSPost2010Prop32
280
     0
102
RTVSPost2010PropOp32
 70
     1
102
RTVSPost2010Prop33
280
     0
102
RTVSPost2010PropOp33
 70
     1
102
RTVSPost2010Prop34
280
     0
102
RTVSPost2010PropOp34
 70
     1
102
RTVSPost2010Prop35
280
     0
102
RTVSPost2010PropOp35
 70
     1
102
RTVSPost2010Prop36
280
     0
102
RTVSPost2010PropOp36
 70
     1
102
RTVSPost2010Prop37
 90
       50
102
RTVSPost2010PropOp37
 70
     1
102
RTVSPost2010Prop38
140
0.0
102
RTVSPost2010PropOp38
 70
     1
102
RTVSPost2010Prop39
140
1.0
102
RTVSPost2010PropOp39
 70
     1
102
RTVSPost2010Prop40
 90
        0
102
RTVSPost2010PropOp40
 70
     1
102
RTVSPost2010Prop41ColorIndex
 90
       18
102
RTVSPost2010Prop41ColorRGB
 90
        0
102
RTVSPost2010PropOp41
 70
     1
102
RTVSPost2010Prop42
 90
       50
102
RTVSPost2010PropOp42
 70
     1
102
RTVSPost2010Prop43
 90
        3
102
RTVSPost2010PropOp43
 70
     1
102
RTVSPost2010Prop44ColorIndex
 90
        5
102
RTVSPost2010Prop44ColorRGB
 90
      255
102
RTVSPost2010PropOp44
 70
     1
102
RTVSPost2010Prop45
280
     0
102
RTVSPost2010PropOp45
 70
     1
102
RTVSPost2010Prop46
 90
       50
102
RTVSPost2010PropOp46
 70
     1
102
RTVSPost2010Prop47
 90
       50
102
RTVSPost2010PropOp47
 70
     1
102
RTVSPost2010Prop48
 90
       50
102
RTVSPost2010PropOp48
 70
     1
102
RTVSPost2010Prop49
280
     0
102
RTVSPost2010PropOp49
 70
     1
102
RTVSPost2010Prop50
 90
       50
102
RTVSPost2010PropOp50
 70
     1
102
RTVSPost2010Prop51ColorIndex
 90
      256
102
RTVSPost2010Prop51ColorRGB
 90
-16777216
102
RTVSPost2010PropOp51
 70
     0
102
RTVSPost2010Prop52
140
1.0
102
RTVSPost2010PropOp52
 70
     0
102
RTVSPost2010Prop53
 90
        2
102
RTVSPost2010PropOp53
 70
     1
102
RTVSPost2010Prop54
  1
strokes_ogs.tif
102
RTVSPost2010PropOp54
 70
     1
102
RTVSPost2010Prop55
280
     0
102
RTVSPost2010PropOp55
 70
     1
102
RTVSPost2010Prop56
140
1.0
102
RTVSPost2010PropOp56
 70
     1
102
RTVSPost2010Prop57
140
1.0
102
RTVSPost2010PropOp57
 70
     1
  0
XRECORD
  5
44B9B
102
{ACAD_REACTORS
330
44B9A
102
}
330
44B9A
100
AcDbXrecord
280
     1
102
RTVSPost2010Prop28
280
     0
102
RTVSPost2010PropOp28
 70
     1
102
RTVSPost2010Prop29
280
     1
102
RTVSPost2010PropOp29
 70
     1
102
RTVSPost2010Prop30
280
     1
102
RTVSPost2010PropOp30
 70
     1
102
RTVSPost2010Prop31
280
     0
102
RTVSPost2010PropOp31
 70
     1
102
RTVSPost2010Prop32
280
     0
102
RTVSPost2010PropOp32
 70
     1
102
RTVSPost2010Prop33
280
     0
102
RTVSPost2010PropOp33
 70
     1
102
RTVSPost2010Prop34
280
     0
102
RTVSPost2010PropOp34
 70
     1
102
RTVSPost2010Prop35
280
     0
102
RTVSPost2010PropOp35
 70
     1
102
RTVSPost2010Prop36
280
     0
102
RTVSPost2010PropOp36
 70
     1
102
RTVSPost2010Prop37
 90
       50
102
RTVSPost2010PropOp37
 70
     1
102
RTVSPost2010Prop38
140
0.0
102
RTVSPost2010PropOp38
 70
     1
102
RTVSPost2010Prop39
140
1.0
102
RTVSPost2010PropOp39
 70
     1
102
RTVSPost2010Prop40
 90
        0
102
RTVSPost2010PropOp40
 70
     1
102
RTVSPost2010Prop41ColorIndex
 90
       18
102
RTVSPost2010Prop41ColorRGB
 90
        0
102
RTVSPost2010PropOp41
 70
     1
102
RTVSPost2010Prop42
 90
       50
102
RTVSPost2010PropOp42
 70
     1
102
RTVSPost2010Prop43
 90
        3
102
RTVSPost2010PropOp43
 70
     1
102
RTVSPost2010Prop44ColorIndex
 90
        5
102
RTVSPost2010Prop44ColorRGB
 90
      255
102
RTVSPost2010PropOp44
 70
     1
102
RTVSPost2010Prop45
280
     0
102
RTVSPost2010PropOp45
 70
     1
102
RTVSPost2010Prop46
 90
       50
102
RTVSPost2010PropOp46
 70
     1
102
RTVSPost2010Prop47
 90
       50
102
RTVSPost2010PropOp47
 70
     1
102
RTVSPost2010Prop48
 90
       50
102
RTVSPost2010PropOp48
 70
     1
102
RTVSPost2010Prop49
280
     0
102
RTVSPost2010PropOp49
 70
     1
102
RTVSPost2010Prop50
 90
       50
102
RTVSPost2010PropOp50
 70
     1
102
RTVSPost2010Prop51ColorIndex
 90
      256
102
RTVSPost2010Prop51ColorRGB
 90
-16777216
102
RTVSPost2010PropOp51
 70
     0
102
RTVSPost2010Prop52
140
1.0
102
RTVSPost2010PropOp52
 70
     0
102
RTVSPost2010Prop53
 90
        2
102
RTVSPost2010PropOp53
 70
     1
102
RTVSPost2010Prop54
  1
strokes_ogs.tif
102
RTVSPost2010PropOp54
 70
     1
102
RTVSPost2010Prop55
280
     0
102
RTVSPost2010PropOp55
 70
     1
102
RTVSPost2010Prop56
140
1.0
102
RTVSPost2010PropOp56
 70
     1
102
RTVSPost2010Prop57
140
1.0
102
RTVSPost2010PropOp57
 70
     1
  0
XRECORD
  5
44BBB
102
{ACAD_REACTORS
330
44BBA
102
}
330
44BBA
100
AcDbXrecord
280
     1
102
RTVSPost2010Prop28
280
     0
102
RTVSPost2010PropOp28
 70
     1
102
RTVSPost2010Prop29
280
     1
102
RTVSPost2010PropOp29
 70
     1
102
RTVSPost2010Prop30
280
     1
102
RTVSPost2010PropOp30
 70
     1
102
RTVSPost2010Prop31
280
     0
102
RTVSPost2010PropOp31
 70
     1
102
RTVSPost2010Prop32
280
     0
102
RTVSPost2010PropOp32
 70
     1
102
RTVSPost2010Prop33
280
     0
102
RTVSPost2010PropOp33
 70
     1
102
RTVSPost2010Prop34
280
     0
102
RTVSPost2010PropOp34
 70
     1
102
RTVSPost2010Prop35
280
     0
102
RTVSPost2010PropOp35
 70
     1
102
RTVSPost2010Prop36
280
     0
102
RTVSPost2010PropOp36
 70
     1
102
RTVSPost2010Prop37
 90
       50
102
RTVSPost2010PropOp37
 70
     1
102
RTVSPost2010Prop38
140
0.0
102
RTVSPost2010PropOp38
 70
     1
102
RTVSPost2010Prop39
140
1.0
102
RTVSPost2010PropOp39
 70
     1
102
RTVSPost2010Prop40
 90
        0
102
RTVSPost2010PropOp40
 70
     1
102
RTVSPost2010Prop41ColorIndex
 90
       18
102
RTVSPost2010Prop41ColorRGB
 90
        0
102
RTVSPost2010PropOp41
 70
     1
102
RTVSPost2010Prop42
 90
       50
102
RTVSPost2010PropOp42
 70
     1
102
RTVSPost2010Prop43
 90
        3
102
RTVSPost2010PropOp43
 70
     1
102
RTVSPost2010Prop44ColorIndex
 90
        5
102
RTVSPost2010Prop44ColorRGB
 90
      255
102
RTVSPost2010PropOp44
 70
     1
102
RTVSPost2010Prop45
280
     0
102
RTVSPost2010PropOp45
 70
     1
102
RTVSPost2010Prop46
 90
       50
102
RTVSPost2010PropOp46
 70
     1
102
RTVSPost2010Prop47
 90
       50
102
RTVSPost2010PropOp47
 70
     1
102
RTVSPost2010Prop48
 90
       50
102
RTVSPost2010PropOp48
 70
     1
102
RTVSPost2010Prop49
280
     0
102
RTVSPost2010PropOp49
 70
     1
102
RTVSPost2010Prop50
 90
       50
102
RTVSPost2010PropOp50
 70
     1
102
RTVSPost2010Prop51ColorIndex
 90
      256
102
RTVSPost2010Prop51ColorRGB
 90
-16777216
102
RTVSPost2010PropOp51
 70
     0
102
RTVSPost2010Prop52
140
1.0
102
RTVSPost2010PropOp52
 70
     0
102
RTVSPost2010Prop53
 90
        2
102
RTVSPost2010PropOp53
 70
     1
102
RTVSPost2010Prop54
  1
strokes_ogs.tif
102
RTVSPost2010PropOp54
 70
     1
102
RTVSPost2010Prop55
280
     0
102
RTVSPost2010PropOp55
 70
     1
102
RTVSPost2010Prop56
140
1.0
102
RTVSPost2010PropOp56
 70
     1
102
RTVSPost2010Prop57
140
1.0
102
RTVSPost2010PropOp57
 70
     1
  0
XRECORD
  5
44BB9
102
{ACAD_REACTORS
330
44BB8
102
}
330
44BB8
100
AcDbXrecord
280
     1
102
RTVSPost2010Prop28
280
     0
102
RTVSPost2010PropOp28
 70
     1
102
RTVSPost2010Prop29
280
     1
102
RTVSPost2010PropOp29
 70
     1
102
RTVSPost2010Prop30
280
     1
102
RTVSPost2010PropOp30
 70
     1
102
RTVSPost2010Prop31
280
     0
102
RTVSPost2010PropOp31
 70
     1
102
RTVSPost2010Prop32
280
     0
102
RTVSPost2010PropOp32
 70
     1
102
RTVSPost2010Prop33
280
     0
102
RTVSPost2010PropOp33
 70
     1
102
RTVSPost2010Prop34
280
     0
102
RTVSPost2010PropOp34
 70
     1
102
RTVSPost2010Prop35
280
     0
102
RTVSPost2010PropOp35
 70
     1
102
RTVSPost2010Prop36
280
     0
102
RTVSPost2010PropOp36
 70
     1
102
RTVSPost2010Prop37
 90
       50
102
RTVSPost2010PropOp37
 70
     1
102
RTVSPost2010Prop38
140
0.0
102
RTVSPost2010PropOp38
 70
     1
102
RTVSPost2010Prop39
140
1.0
102
RTVSPost2010PropOp39
 70
     1
102
RTVSPost2010Prop40
 90
        0
102
RTVSPost2010PropOp40
 70
     1
102
RTVSPost2010Prop41ColorIndex
 90
       18
102
RTVSPost2010Prop41ColorRGB
 90
        0
102
RTVSPost2010PropOp41
 70
     1
102
RTVSPost2010Prop42
 90
       50
102
RTVSPost2010PropOp42
 70
     1
102
RTVSPost2010Prop43
 90
        3
102
RTVSPost2010PropOp43
 70
     1
102
RTVSPost2010Prop44ColorIndex
 90
        5
102
RTVSPost2010Prop44ColorRGB
 90
      255
102
RTVSPost2010PropOp44
 70
     1
102
RTVSPost2010Prop45
280
     0
102
RTVSPost2010PropOp45
 70
     1
102
RTVSPost2010Prop46
 90
       50
102
RTVSPost2010PropOp46
 70
     1
102
RTVSPost2010Prop47
 90
       50
102
RTVSPost2010PropOp47
 70
     1
102
RTVSPost2010Prop48
 90
       50
102
RTVSPost2010PropOp48
 70
     1
102
RTVSPost2010Prop49
280
     0
102
RTVSPost2010PropOp49
 70
     1
102
RTVSPost2010Prop50
 90
       50
102
RTVSPost2010PropOp50
 70
     1
102
RTVSPost2010Prop51ColorIndex
 90
      256
102
RTVSPost2010Prop51ColorRGB
 90
-16777216
102
RTVSPost2010PropOp51
 70
     0
102
RTVSPost2010Prop52
140
1.0
102
RTVSPost2010PropOp52
 70
     0
102
RTVSPost2010Prop53
 90
        2
102
RTVSPost2010PropOp53
 70
     1
102
RTVSPost2010Prop54
  1
strokes_ogs.tif
102
RTVSPost2010PropOp54
 70
     1
102
RTVSPost2010Prop55
280
     0
102
RTVSPost2010PropOp55
 70
     1
102
RTVSPost2010Prop56
140
1.0
102
RTVSPost2010PropOp56
 70
     1
102
RTVSPost2010Prop57
140
1.0
102
RTVSPost2010PropOp57
 70
     1
  0
XRECORD
  5
44BB3
102
{ACAD_REACTORS
330
44BB2
102
}
330
44BB2
100
AcDbXrecord
280
     1
102
RTVSPost2010Prop28
280
     0
102
RTVSPost2010PropOp28
 70
     1
102
RTVSPost2010Prop29
280
     1
102
RTVSPost2010PropOp29
 70
     1
102
RTVSPost2010Prop30
280
     1
102
RTVSPost2010PropOp30
 70
     1
102
RTVSPost2010Prop31
280
     0
102
RTVSPost2010PropOp31
 70
     1
102
RTVSPost2010Prop32
280
     0
102
RTVSPost2010PropOp32
 70
     1
102
RTVSPost2010Prop33
280
     0
102
RTVSPost2010PropOp33
 70
     1
102
RTVSPost2010Prop34
280
     0
102
RTVSPost2010PropOp34
 70
     1
102
RTVSPost2010Prop35
280
     0
102
RTVSPost2010PropOp35
 70
     1
102
RTVSPost2010Prop36
280
     0
102
RTVSPost2010PropOp36
 70
     1
102
RTVSPost2010Prop37
 90
       50
102
RTVSPost2010PropOp37
 70
     1
102
RTVSPost2010Prop38
140
0.0
102
RTVSPost2010PropOp38
 70
     1
102
RTVSPost2010Prop39
140
1.0
102
RTVSPost2010PropOp39
 70
     1
102
RTVSPost2010Prop40
 90
        0
102
RTVSPost2010PropOp40
 70
     1
102
RTVSPost2010Prop41ColorIndex
 90
       18
102
RTVSPost2010Prop41ColorRGB
 90
        0
102
RTVSPost2010PropOp41
 70
     1
102
RTVSPost2010Prop42
 90
       50
102
RTVSPost2010PropOp42
 70
     1
102
RTVSPost2010Prop43
 90
        3
102
RTVSPost2010PropOp43
 70
     1
102
RTVSPost2010Prop44ColorIndex
 90
        5
102
RTVSPost2010Prop44ColorRGB
 90
      255
102
RTVSPost2010PropOp44
 70
     1
102
RTVSPost2010Prop45
280
     0
102
RTVSPost2010PropOp45
 70
     1
102
RTVSPost2010Prop46
 90
       50
102
RTVSPost2010PropOp46
 70
     1
102
RTVSPost2010Prop47
 90
       50
102
RTVSPost2010PropOp47
 70
     1
102
RTVSPost2010Prop48
 90
       50
102
RTVSPost2010PropOp48
 70
     1
102
RTVSPost2010Prop49
280
     0
102
RTVSPost2010PropOp49
 70
     1
102
RTVSPost2010Prop50
 90
       50
102
RTVSPost2010PropOp50
 70
     1
102
RTVSPost2010Prop51ColorIndex
 90
      256
102
RTVSPost2010Prop51ColorRGB
 90
-16777216
102
RTVSPost2010PropOp51
 70
     0
102
RTVSPost2010Prop52
140
1.0
102
RTVSPost2010PropOp52
 70
     0
102
RTVSPost2010Prop53
 90
        2
102
RTVSPost2010PropOp53
 70
     1
102
RTVSPost2010Prop54
  1
strokes_ogs.tif
102
RTVSPost2010PropOp54
 70
     1
102
RTVSPost2010Prop55
280
     0
102
RTVSPost2010PropOp55
 70
     1
102
RTVSPost2010Prop56
140
1.0
102
RTVSPost2010PropOp56
 70
     1
102
RTVSPost2010Prop57
140
1.0
102
RTVSPost2010PropOp57
 70
     1
  0
XRECORD
  5
44BB5
102
{ACAD_REACTORS
330
44BB4
102
}
330
44BB4
100
AcDbXrecord
280
     1
102
RTVSPost2010Prop28
280
     0
102
RTVSPost2010PropOp28
 70
     1
102
RTVSPost2010Prop29
280
     1
102
RTVSPost2010PropOp29
 70
     1
102
RTVSPost2010Prop30
280
     1
102
RTVSPost2010PropOp30
 70
     1
102
RTVSPost2010Prop31
280
     0
102
RTVSPost2010PropOp31
 70
     1
102
RTVSPost2010Prop32
280
     0
102
RTVSPost2010PropOp32
 70
     1
102
RTVSPost2010Prop33
280
     0
102
RTVSPost2010PropOp33
 70
     1
102
RTVSPost2010Prop34
280
     0
102
RTVSPost2010PropOp34
 70
     1
102
RTVSPost2010Prop35
280
     0
102
RTVSPost2010PropOp35
 70
     1
102
RTVSPost2010Prop36
280
     0
102
RTVSPost2010PropOp36
 70
     1
102
RTVSPost2010Prop37
 90
       50
102
RTVSPost2010PropOp37
 70
     1
102
RTVSPost2010Prop38
140
0.0
102
RTVSPost2010PropOp38
 70
     1
102
RTVSPost2010Prop39
140
1.0
102
RTVSPost2010PropOp39
 70
     1
102
RTVSPost2010Prop40
 90
        0
102
RTVSPost2010PropOp40
 70
     1
102
RTVSPost2010Prop41ColorIndex
 90
       18
102
RTVSPost2010Prop41ColorRGB
 90
        0
102
RTVSPost2010PropOp41
 70
     1
102
RTVSPost2010Prop42
 90
       50
102
RTVSPost2010PropOp42
 70
     1
102
RTVSPost2010Prop43
 90
        3
102
RTVSPost2010PropOp43
 70
     1
102
RTVSPost2010Prop44ColorIndex
 90
        5
102
RTVSPost2010Prop44ColorRGB
 90
      255
102
RTVSPost2010PropOp44
 70
     1
102
RTVSPost2010Prop45
280
     0
102
RTVSPost2010PropOp45
 70
     1
102
RTVSPost2010Prop46
 90
       50
102
RTVSPost2010PropOp46
 70
     1
102
RTVSPost2010Prop47
 90
       50
102
RTVSPost2010PropOp47
 70
     1
102
RTVSPost2010Prop48
 90
       50
102
RTVSPost2010PropOp48
 70
     1
102
RTVSPost2010Prop49
280
     0
102
RTVSPost2010PropOp49
 70
     1
102
RTVSPost2010Prop50
 90
       50
102
RTVSPost2010PropOp50
 70
     1
102
RTVSPost2010Prop51ColorIndex
 90
      256
102
RTVSPost2010Prop51ColorRGB
 90
-16777216
102
RTVSPost2010PropOp51
 70
     0
102
RTVSPost2010Prop52
140
1.0
102
RTVSPost2010PropOp52
 70
     0
102
RTVSPost2010Prop53
 90
        2
102
RTVSPost2010PropOp53
 70
     1
102
RTVSPost2010Prop54
  1
strokes_ogs.tif
102
RTVSPost2010PropOp54
 70
     1
102
RTVSPost2010Prop55
280
     0
102
RTVSPost2010PropOp55
 70
     1
102
RTVSPost2010Prop56
140
1.0
102
RTVSPost2010PropOp56
 70
     1
102
RTVSPost2010Prop57
140
1.0
102
RTVSPost2010PropOp57
 70
     1
  0
XRECORD
  5
44BA1
102
{ACAD_REACTORS
330
44BA0
102
}
330
44BA0
100
AcDbXrecord
280
     1
102
RTVSPost2010Prop28
280
     0
102
RTVSPost2010PropOp28
 70
     1
102
RTVSPost2010Prop29
280
     1
102
RTVSPost2010PropOp29
 70
     1
102
RTVSPost2010Prop30
280
     1
102
RTVSPost2010PropOp30
 70
     1
102
RTVSPost2010Prop31
280
     0
102
RTVSPost2010PropOp31
 70
     1
102
RTVSPost2010Prop32
280
     0
102
RTVSPost2010PropOp32
 70
     1
102
RTVSPost2010Prop33
280
     0
102
RTVSPost2010PropOp33
 70
     1
102
RTVSPost2010Prop34
280
     0
102
RTVSPost2010PropOp34
 70
     1
102
RTVSPost2010Prop35
280
     0
102
RTVSPost2010PropOp35
 70
     1
102
RTVSPost2010Prop36
280
     0
102
RTVSPost2010PropOp36
 70
     1
102
RTVSPost2010Prop37
 90
       50
102
RTVSPost2010PropOp37
 70
     1
102
RTVSPost2010Prop38
140
0.0
102
RTVSPost2010PropOp38
 70
     1
102
RTVSPost2010Prop39
140
1.0
102
RTVSPost2010PropOp39
 70
     1
102
RTVSPost2010Prop40
 90
        0
102
RTVSPost2010PropOp40
 70
     1
102
RTVSPost2010Prop41ColorIndex
 90
       18
102
RTVSPost2010Prop41ColorRGB
 90
        0
102
RTVSPost2010PropOp41
 70
     1
102
RTVSPost2010Prop42
 90
       50
102
RTVSPost2010PropOp42
 70
     1
102
RTVSPost2010Prop43
 90
        3
102
RTVSPost2010PropOp43
 70
     1
102
RTVSPost2010Prop44ColorIndex
 90
        5
102
RTVSPost2010Prop44ColorRGB
 90
      255
102
RTVSPost2010PropOp44
 70
     1
102
RTVSPost2010Prop45
280
     0
102
RTVSPost2010PropOp45
 70
     1
102
RTVSPost2010Prop46
 90
       50
102
RTVSPost2010PropOp46
 70
     1
102
RTVSPost2010Prop47
 90
       50
102
RTVSPost2010PropOp47
 70
     1
102
RTVSPost2010Prop48
 90
       50
102
RTVSPost2010PropOp48
 70
     1
102
RTVSPost2010Prop49
280
     0
102
RTVSPost2010PropOp49
 70
     1
102
RTVSPost2010Prop50
 90
       50
102
RTVSPost2010PropOp50
 70
     1
102
RTVSPost2010Prop51ColorIndex
 90
      256
102
RTVSPost2010Prop51ColorRGB
 90
-16777216
102
RTVSPost2010PropOp51
 70
     0
102
RTVSPost2010Prop52
140
1.0
102
RTVSPost2010PropOp52
 70
     0
102
RTVSPost2010Prop53
 90
        2
102
RTVSPost2010PropOp53
 70
     1
102
RTVSPost2010Prop54
  1
strokes_ogs.tif
102
RTVSPost2010PropOp54
 70
     1
102
RTVSPost2010Prop55
280
     0
102
RTVSPost2010PropOp55
 70
     1
102
RTVSPost2010Prop56
140
1.0
102
RTVSPost2010PropOp56
 70
     1
102
RTVSPost2010Prop57
140
1.0
102
RTVSPost2010PropOp57
 70
     1
  0
XRECORD
  5
44BAF
102
{ACAD_REACTORS
330
44BAE
102
}
330
44BAE
100
AcDbXrecord
280
     1
102
RTVSPost2010Prop28
280
     0
102
RTVSPost2010PropOp28
 70
     1
102
RTVSPost2010Prop29
280
     1
102
RTVSPost2010PropOp29
 70
     1
102
RTVSPost2010Prop30
280
     1
102
RTVSPost2010PropOp30
 70
     1
102
RTVSPost2010Prop31
280
     0
102
RTVSPost2010PropOp31
 70
     1
102
RTVSPost2010Prop32
280
     0
102
RTVSPost2010PropOp32
 70
     1
102
RTVSPost2010Prop33
280
     0
102
RTVSPost2010PropOp33
 70
     1
102
RTVSPost2010Prop34
280
     0
102
RTVSPost2010PropOp34
 70
     1
102
RTVSPost2010Prop35
280
     0
102
RTVSPost2010PropOp35
 70
     1
102
RTVSPost2010Prop36
280
     0
102
RTVSPost2010PropOp36
 70
     1
102
RTVSPost2010Prop37
 90
       50
102
RTVSPost2010PropOp37
 70
     1
102
RTVSPost2010Prop38
140
0.0
102
RTVSPost2010PropOp38
 70
     1
102
RTVSPost2010Prop39
140
1.0
102
RTVSPost2010PropOp39
 70
     1
102
RTVSPost2010Prop40
 90
        0
102
RTVSPost2010PropOp40
 70
     1
102
RTVSPost2010Prop41ColorIndex
 90
       18
102
RTVSPost2010Prop41ColorRGB
 90
        0
102
RTVSPost2010PropOp41
 70
     1
102
RTVSPost2010Prop42
 90
       50
102
RTVSPost2010PropOp42
 70
     1
102
RTVSPost2010Prop43
 90
        3
102
RTVSPost2010PropOp43
 70
     1
102
RTVSPost2010Prop44ColorIndex
 90
        5
102
RTVSPost2010Prop44ColorRGB
 90
      255
102
RTVSPost2010PropOp44
 70
     1
102
RTVSPost2010Prop45
280
     0
102
RTVSPost2010PropOp45
 70
     1
102
RTVSPost2010Prop46
 90
       50
102
RTVSPost2010PropOp46
 70
     1
102
RTVSPost2010Prop47
 90
       50
102
RTVSPost2010PropOp47
 70
     1
102
RTVSPost2010Prop48
 90
       50
102
RTVSPost2010PropOp48
 70
     1
102
RTVSPost2010Prop49
280
     0
102
RTVSPost2010PropOp49
 70
     1
102
RTVSPost2010Prop50
 90
       50
102
RTVSPost2010PropOp50
 70
     1
102
RTVSPost2010Prop51ColorIndex
 90
      256
102
RTVSPost2010Prop51ColorRGB
 90
-16777216
102
RTVSPost2010PropOp51
 70
     0
102
RTVSPost2010Prop52
140
1.0
102
RTVSPost2010PropOp52
 70
     0
102
RTVSPost2010Prop53
 90
        2
102
RTVSPost2010PropOp53
 70
     1
102
RTVSPost2010Prop54
  1
strokes_ogs.tif
102
RTVSPost2010PropOp54
 70
     1
102
RTVSPost2010Prop55
280
     0
102
RTVSPost2010PropOp55
 70
     1
102
RTVSPost2010Prop56
140
1.0
102
RTVSPost2010PropOp56
 70
     1
102
RTVSPost2010Prop57
140
1.0
102
RTVSPost2010PropOp57
 70
     1
  0
XRECORD
  5
44BB7
102
{ACAD_REACTORS
330
44BB6
102
}
330
44BB6
100
AcDbXrecord
280
     1
102
RTVSPost2010Prop28
280
     0
102
RTVSPost2010PropOp28
 70
     1
102
RTVSPost2010Prop29
280
     1
102
RTVSPost2010PropOp29
 70
     1
102
RTVSPost2010Prop30
280
     1
102
RTVSPost2010PropOp30
 70
     1
102
RTVSPost2010Prop31
280
     0
102
RTVSPost2010PropOp31
 70
     1
102
RTVSPost2010Prop32
280
     0
102
RTVSPost2010PropOp32
 70
     1
102
RTVSPost2010Prop33
280
     0
102
RTVSPost2010PropOp33
 70
     1
102
RTVSPost2010Prop34
280
     0
102
RTVSPost2010PropOp34
 70
     1
102
RTVSPost2010Prop35
280
     0
102
RTVSPost2010PropOp35
 70
     1
102
RTVSPost2010Prop36
280
     0
102
RTVSPost2010PropOp36
 70
     1
102
RTVSPost2010Prop37
 90
       50
102
RTVSPost2010PropOp37
 70
     1
102
RTVSPost2010Prop38
140
0.0
102
RTVSPost2010PropOp38
 70
     1
102
RTVSPost2010Prop39
140
1.0
102
RTVSPost2010PropOp39
 70
     1
102
RTVSPost2010Prop40
 90
        0
102
RTVSPost2010PropOp40
 70
     1
102
RTVSPost2010Prop41ColorIndex
 90
       18
102
RTVSPost2010Prop41ColorRGB
 90
        0
102
RTVSPost2010PropOp41
 70
     1
102
RTVSPost2010Prop42
 90
       50
102
RTVSPost2010PropOp42
 70
     1
102
RTVSPost2010Prop43
 90
        3
102
RTVSPost2010PropOp43
 70
     1
102
RTVSPost2010Prop44ColorIndex
 90
        5
102
RTVSPost2010Prop44ColorRGB
 90
      255
102
RTVSPost2010PropOp44
 70
     1
102
RTVSPost2010Prop45
280
     0
102
RTVSPost2010PropOp45
 70
     1
102
RTVSPost2010Prop46
 90
       50
102
RTVSPost2010PropOp46
 70
     1
102
RTVSPost2010Prop47
 90
       50
102
RTVSPost2010PropOp47
 70
     1
102
RTVSPost2010Prop48
 90
       50
102
RTVSPost2010PropOp48
 70
     1
102
RTVSPost2010Prop49
280
     0
102
RTVSPost2010PropOp49
 70
     1
102
RTVSPost2010Prop50
 90
       50
102
RTVSPost2010PropOp50
 70
     1
102
RTVSPost2010Prop51ColorIndex
 90
      256
102
RTVSPost2010Prop51ColorRGB
 90
-16777216
102
RTVSPost2010PropOp51
 70
     0
102
RTVSPost2010Prop52
140
1.0
102
RTVSPost2010PropOp52
 70
     0
102
RTVSPost2010Prop53
 90
        2
102
RTVSPost2010PropOp53
 70
     1
102
RTVSPost2010Prop54
  1
strokes_ogs.tif
102
RTVSPost2010PropOp54
 70
     1
102
RTVSPost2010Prop55
280
     0
102
RTVSPost2010PropOp55
 70
     1
102
RTVSPost2010Prop56
140
1.0
102
RTVSPost2010PropOp56
 70
     1
102
RTVSPost2010Prop57
140
1.0
102
RTVSPost2010PropOp57
 70
     1
  0
ENDSEC
  0
EOF
